osu file format v14

[General]
AudioFilename: audio.mp3
AudioLeadIn: 0
PreviewTime: 115535
Countdown: 0
SampleSet: Normal
StackLeniency: 0.7
Mode: 1
LetterboxInBreaks: 0
WidescreenStoryboard: 1

[Editor]
Bookmarks: 1636,15350,29064,42778,68278,75350,89064,102778,149064,164493
DistanceSpacing: 1.2
BeatDivisor: 4
GridSize: 4
TimelineZoom: 1.7

[Metadata]
Title:Koi no Yukue
TitleUnicode:恋ノ行方
Artist:Akase Akari
ArtistUnicode:あかせあかり
Creator:Linkff001
Version:Muzukashii
Source:その着せ替え人形は恋をする
Tags:d0ug d0ug_yt japanese pop jpop j-pop ed ending full ver size 着せ恋 kisekoi sono bisque doll wa koi wo o suru my dress-up darling 喜多川海夢 kitagawa marin
BeatmapID:4493160
BeatmapSetID:2135326

[Difficulty]
HPDrainRate:7
CircleSize:5
OverallDifficulty:4
ApproachRate:5
SliderMultiplier:1.4
SliderTickRate:1

[Events]
//Background and Video events
0,0,"my-dress-up-darling-marin-beautiful-2k-wallpaper-uhdpaper.com-78@1@g.jpg",0,0
//Break Periods
//Storyboard Layer 0 (Background)
//Storyboard Layer 1 (Fail)
//Storyboard Layer 2 (Pass)
//Storyboard Layer 3 (Foreground)
//Storyboard Layer 4 (Overlay)
//Storyboard Sound Samples

[TimingPoints]
-286,428.571428571429,4,1,0,70,1,0
356,-100,4,1,0,70,0,0
459,-100,4,1,0,70,0,0
566,-100,4,1,0,70,0,0
780,-100,4,1,0,70,0,0
994,-100,4,1,0,70,0,0
1101,-100,4,1,0,70,0,0
1209,-100,4,1,0,70,0,0
1428,428.571428571429,4,1,0,70,1,0
1428,-100,4,1,0,70,0,0
11708,-100,4,1,0,70,0,0
11922,-100,4,1,0,69,0,0
12030,-100,4,1,0,69,0,0
12137,-100,4,1,0,69,0,0
12351,-100,4,1,0,68,0,0
12565,-100,4,1,0,68,0,0
12780,-100,4,1,0,67,0,0
12994,-100,4,1,0,66,0,0
13637,-100,4,1,0,64,0,0
13851,-100,4,1,0,64,0,0
14065,-100,4,1,0,63,0,0
14494,-100,4,1,0,62,0,0
15137,-100,4,1,0,60,0,0
26923,-100,4,1,0,60,0,0
27351,-100,4,1,0,62,0,0
27780,-100,4,1,0,64,0,0
27994,-100,4,1,0,66,0,0
28101,-100,4,1,0,66,0,0
28208,-100,4,1,0,67,0,0
28423,-100,4,1,0,68,0,0
28530,-100,4,1,0,68,0,0
28637,-100,4,1,0,69,0,0
28744,-100,4,1,0,69,0,0
28851,-100,4,1,0,70,0,0
41065,-100,4,1,0,75,0,0
42570,-100,4,1,0,85,0,1
66565,-100,4,1,0,85,0,1
66780,-100,4,1,0,84,0,1
66994,-100,4,1,0,84,0,1
67208,-100,4,1,0,83,0,1
67315,-100,4,1,0,83,0,1
67423,-100,4,1,0,82,0,1
67530,-100,4,1,0,82,0,1
67637,-100,4,1,0,81,0,1
67851,-100,4,1,0,81,0,1
68065,-100,4,1,0,80,0,1
75142,-100,4,1,0,70,0,0
85636,-100,4,1,0,70,0,0
85744,-100,4,1,0,70,0,0
85851,-100,4,1,0,69,0,0
86065,-100,4,1,0,69,0,0
86279,-100,4,1,0,69,0,0
86494,-100,4,1,0,68,0,0
86708,-100,4,1,0,68,0,0
87351,-100,4,1,0,67,0,0
87565,-100,4,1,0,67,0,0
87779,-100,4,1,0,67,0,0
87994,-100,4,1,0,66,0,0
88101,-100,4,1,0,66,0,0
88208,-100,4,1,0,66,0,0
88315,-100,4,1,0,66,0,0
88423,-100,4,1,0,66,0,0
88637,-100,4,1,0,65,0,0
88851,-100,4,1,0,65,0,0
100637,-100,4,1,0,65,0,0
101065,-100,4,1,0,66,0,0
101494,-100,4,1,0,67,0,0
101708,-100,4,1,0,68,0,0
101815,-100,4,1,0,68,0,0
101923,-100,4,1,0,68,0,0
102137,-100,4,1,0,69,0,0
102351,-100,4,1,0,69,0,0
102458,-100,4,1,0,70,0,0
102565,-100,4,1,0,70,0,0
114780,-100,4,1,0,75,0,0
116285,-100,4,1,0,85,0,1
140280,-100,4,1,0,85,0,1
140495,-100,4,1,0,84,0,1
140709,-100,4,1,0,84,0,1
140923,-100,4,1,0,83,0,1
141030,-100,4,1,0,83,0,1
141138,-100,4,1,0,82,0,1
141245,-100,4,1,0,82,0,1
141352,-100,4,1,0,81,0,1
141566,-100,4,1,0,81,0,1
141780,-100,4,1,0,80,0,1
147137,-100,4,1,0,78,0,1
147351,-100,4,1,0,76,0,1
147458,-100,4,1,0,74,0,1
147565,-100,4,1,0,73,0,1
147779,-100,4,1,0,71,0,1
147887,-100,4,1,0,70,0,1
147994,-100,4,1,0,69,0,1
148208,-100,4,1,0,67,0,1
148422,-100,4,1,0,64,0,1
148637,-100,4,1,0,62,0,1
148856,-100,4,1,0,60,0,0
162780,-100,4,1,0,60,0,0
162994,-100,4,1,0,59,0,0
163208,-100,4,1,0,57,0,0
163315,-100,4,1,0,56,0,0
163423,-100,4,1,0,56,0,0
163637,-100,4,1,0,54,0,0
163851,-100,4,1,0,53,0,0
164065,-100,4,1,0,51,0,0
164280,-100,4,1,0,50,0,0
176065,-100,4,1,0,50,0,0
176494,-100,4,1,0,56,0,0
176708,-100,4,1,0,59,0,0
176923,-100,4,1,0,61,0,0
177137,-100,4,1,0,64,0,0
177351,-100,4,1,0,67,0,0
177565,-100,4,1,0,70,0,0
177999,-100,4,1,0,85,0,1
188280,-100,4,1,0,85,0,1
188495,-100,4,1,0,84,0,1
188709,-100,4,1,0,84,0,1
188923,-100,4,1,0,83,0,1
189030,-100,4,1,0,83,0,1
189138,-100,4,1,0,82,0,1
189245,-100,4,1,0,82,0,1
189352,-100,4,1,0,81,0,1
189566,-100,4,1,0,81,0,1
189780,-100,4,1,0,80,0,1
196856,-100,4,1,0,70,0,0
207137,-100,4,1,0,70,0,0
207351,-100,4,1,0,69,0,0
207459,-100,4,1,0,69,0,0
207566,-100,4,1,0,69,0,0
207780,-100,4,1,0,68,0,0
207994,-100,4,1,0,68,0,0
208209,-100,4,1,0,67,0,0
208423,-100,4,1,0,66,0,0
209066,-100,4,1,0,64,0,0
209280,-100,4,1,0,64,0,0
209494,-100,4,1,0,63,0,0
209923,-100,4,1,0,62,0,0
210566,-100,4,1,0,60,0,0
210994,-100,4,1,0,60,0,0
211423,-100,4,1,0,54,0,0
211851,-100,4,1,0,50,0,0
212280,-100,4,1,0,44,0,0
212708,-100,4,1,0,38,0,0
213137,-100,4,1,0,30,0,0
213565,-100,4,1,0,26,0,0
213994,-100,4,1,0,22,0,0
214423,-100,4,1,0,18,0,0
214852,-100,4,1,0,14,0,0
215280,-100,4,1,0,10,0,0
215709,-100,4,1,0,6,0,0

[HitObjects]
272,312,356,5,8,0:0:0:0:
272,312,464,1,8,0:0:0:0:
272,312,571,1,8,0:0:0:0:
256,236,785,1,0,0:0:0:0:
204,152,999,1,0,0:0:0:0:
92,164,1428,1,12,0:0:0:0:
236,164,1856,1,0,0:0:0:0:
192,196,2285,1,8,0:0:0:0:
188,120,2499,1,0,0:0:0:0:
176,200,2713,1,0,0:0:0:0:
180,128,2928,1,8,0:0:0:0:
232,268,3356,1,0,0:0:0:0:
220,212,3570,1,8,0:0:0:0:
204,284,3785,1,8,0:0:0:0:
208,252,3999,1,0,0:0:0:0:
296,248,4428,1,8,0:0:0:0:
232,196,4642,1,0,0:0:0:0:
232,196,4856,1,8,0:0:0:0:
232,196,5070,1,0,0:0:0:0:
232,196,5285,1,8,0:0:0:0:
232,196,5499,1,0,0:0:0:0:
232,196,5713,1,0,0:0:0:0:
276,196,5928,1,8,0:0:0:0:
232,196,6356,1,8,0:0:0:0:
92,112,6785,1,8,0:0:0:0:
156,156,6999,1,8,0:0:0:0:
232,204,7213,1,0,0:0:0:0:
232,204,7642,1,0,0:0:0:0:
176,148,7856,1,8,0:0:0:0:
316,212,8285,1,12,0:0:0:0:
236,164,8713,1,0,0:0:0:0:
192,196,9142,1,8,0:0:0:0:
188,120,9356,1,0,0:0:0:0:
176,200,9570,1,0,0:0:0:0:
180,128,9785,1,8,0:0:0:0:
232,268,10213,1,0,0:0:0:0:
220,212,10427,1,8,0:0:0:0:
204,284,10642,1,8,0:0:0:0:
208,252,10856,1,0,0:0:0:0:
296,248,11285,1,8,0:0:0:0:
232,196,11499,1,0,0:0:0:0:
232,196,11713,1,8,0:0:0:0:
232,196,11927,1,8,0:0:0:0:
257,163,12035,1,8,0:0:0:0:
232,196,12142,1,8,0:0:0:0:
199,118,12356,1,0,0:0:0:0:
276,127,12570,1,8,0:0:0:0:
90,228,12785,1,0,0:0:0:0:
143,174,12999,1,8,0:0:0:0:
143,174,13642,1,8,0:0:0:0:
143,174,13856,1,8,0:0:0:0:
212,129,14070,1,8,0:0:0:0:
143,174,14499,1,0,0:0:0:0:
138,143,15142,1,8,0:0:0:0:
493,371,16213,1,8,0:0:0:0:
437,335,16428,1,0,0:0:0:0:
349,286,16642,1,8,0:0:0:0:
208,207,17070,1,0,0:0:0:0:
273,248,17285,1,0,0:0:0:0:
204,211,17499,1,8,0:0:0:0:
204,211,17928,1,8,0:0:0:0:
204,211,18142,1,0,0:0:0:0:
204,211,18570,1,8,0:0:0:0:
204,211,19213,1,8,0:0:0:0:
204,211,19428,1,8,0:0:0:0:
204,211,19642,1,0,0:0:0:0:
257,261,20070,1,8,0:0:0:0:
365,369,20499,1,0,0:0:0:0:
313,317,20928,1,8,0:0:0:0:
267,259,21142,1,8,0:0:0:0:
232,198,21356,1,0,0:0:0:0:
191,129,21570,1,8,0:0:0:0:
262,160,21999,1,0,0:0:0:0:
6,211,22856,1,8,0:0:0:0:
135,173,23285,1,0,0:0:0:0:
211,147,23499,1,8,0:0:0:0:
359,89,23928,1,0,0:0:0:0:
283,118,24142,1,0,0:0:0:0:
206,150,24356,1,8,0:0:0:0:
356,88,24785,1,0,0:0:0:0:
285,117,24999,1,8,0:0:0:0:
129,173,25428,1,8,0:0:0:0:
364,87,26070,1,0,0:0:0:0:
292,112,26285,1,8,0:0:0:0:
217,142,26499,1,8,0:0:0:0:
289,113,26713,1,0,0:0:0:0:
218,140,26928,1,8,0:0:0:0:
369,82,27356,1,8,0:0:0:0:
221,139,27785,1,0,0:0:0:0:
280,167,27999,1,8,0:0:0:0:
313,182,28106,1,8,0:0:0:0:
368,209,28213,1,8,0:0:0:0:
294,176,28428,1,0,0:0:0:0:
294,176,28642,1,0,0:0:0:0:
294,176,28856,1,12,0:0:0:0:
151,258,29285,1,0,0:0:0:0:
221,218,29713,1,0,0:0:0:0:
222,215,30142,1,0,0:0:0:0:
252,137,30356,1,8,0:0:0:0:
202,142,30785,1,0,0:0:0:0:
182,66,30999,1,0,0:0:0:0:
182,66,31213,1,8,0:0:0:0:
329,94,31642,1,0,0:0:0:0:
258,123,31856,1,8,0:0:0:0:
258,123,32070,1,0,0:0:0:0:
258,123,32285,1,8,0:0:0:0:
361,230,32713,1,8,0:0:0:0:
290,223,32928,1,8,0:0:0:0:
218,216,33142,1,0,0:0:0:0:
280,192,33356,1,0,0:0:0:0:
218,216,33570,1,0,0:0:0:0:
218,216,33785,1,8,0:0:0:0:
333,99,34213,1,8,0:0:0:0:
290,141,34428,1,0,0:0:0:0:
216,218,34642,1,8,0:0:0:0:
268,164,34856,1,8,0:0:0:0:
290,141,35070,1,0,0:0:0:0:
317,205,35285,1,8,0:0:0:0:
317,205,35499,1,0,0:0:0:0:
317,205,35713,1,12,0:0:0:0:
317,205,36142,1,8,0:0:0:0:
317,205,36356,1,0,0:0:0:0:
317,205,36784,1,0,0:0:0:0:
317,205,36998,1,8,0:0:0:0:
266,163,37213,1,0,0:0:0:0:
200,128,37428,1,8,0:0:0:0:
251,75,37856,1,0,0:0:0:0:
251,75,38070,1,8,0:0:0:0:
349,200,38499,1,0,0:0:0:0:
297,140,38713,1,8,0:0:0:0:
299,146,39142,1,8,0:0:0:0:
235,164,39356,1,8,0:0:0:0:
292,146,39570,1,0,0:0:0:0:
210,172,39785,1,8,0:0:0:0:
208,168,40213,1,0,0:0:0:0:
269,218,40428,1,0,0:0:0:0:
214,166,40642,1,8,0:0:0:0:
283,236,41070,1,8,0:0:0:0:
228,186,41285,1,8,0:0:0:0:
228,186,41499,5,8,0:0:0:0:
220,180,41713,1,8,0:0:0:0:
220,180,42570,5,12,0:0:0:0:
220,180,42999,1,0,0:0:0:0:
220,180,43213,1,8,0:0:0:0:
220,180,43320,1,8,0:0:0:0:
220,180,43428,1,8,0:0:0:0:
128,152,43642,1,0,0:0:0:0:
128,152,43856,1,0,0:0:0:0:
212,192,44070,1,8,0:0:0:0:
296,228,44499,1,0,0:0:0:0:
212,188,44713,1,8,0:0:0:0:
160,128,44928,1,8,0:0:0:0:
184,148,45035,1,8,0:0:0:0:
160,128,45142,1,8,0:0:0:0:
160,128,45356,1,0,0:0:0:0:
176,36,45570,1,8,0:0:0:0:
304,80,45999,1,8,0:0:0:0:
280,160,46213,1,0,0:0:0:0:
304,80,46428,1,0,0:0:0:0:
240,188,46642,1,8,0:0:0:0:
244,280,46856,1,0,0:0:0:0:
432,200,47070,1,0,0:0:0:0:
332,200,47285,1,8,0:0:0:0:
248,232,47499,1,0,0:0:0:0:
368,196,47713,1,0,0:0:0:0:
368,196,47928,1,8,0:0:0:0:
280,220,48142,1,0,0:0:0:0:
368,196,48356,1,0,0:0:0:0:
280,212,48785,1,8,0:0:0:0:
324,136,48999,1,0,0:0:0:0:
304,156,49106,1,0,0:0:0:0:
276,216,49213,1,0,0:0:0:0:
328,136,49428,1,12,0:0:0:0:
180,260,49856,1,0,0:0:0:0:
240,180,50070,1,8,0:0:0:0:
164,276,50499,1,8,0:0:0:0:
220,200,50713,1,8,0:0:0:0:
304,204,50928,1,0,0:0:0:0:
216,216,51356,1,8,0:0:0:0:
284,152,51570,1,0,0:0:0:0:
272,164,51785,1,0,0:0:0:0:
264,200,51892,1,0,0:0:0:0:
200,220,51999,1,0,0:0:0:0:
280,244,52213,1,8,0:0:0:0:
280,244,52428,1,8,0:0:0:0:
300,256,52856,1,8,0:0:0:0:
300,256,53070,1,8,0:0:0:0:
280,244,53285,1,0,0:0:0:0:
280,244,53499,1,0,0:0:0:0:
280,244,53713,1,8,0:0:0:0:
308,248,53928,1,8,0:0:0:0:
264,228,54035,1,8,0:0:0:0:
224,208,54142,1,8,0:0:0:0:
280,244,54356,1,0,0:0:0:0:
352,288,54570,1,8,0:0:0:0:
280,252,54785,1,0,0:0:0:0:
280,252,54892,1,0,0:0:0:0:
280,252,54999,1,0,0:0:0:0:
280,252,55213,1,8,0:0:0:0:
444,148,55642,1,0,0:0:0:0:
352,176,55856,1,8,0:0:0:0:
276,200,56285,1,12,0:0:0:0:
368,380,56713,1,8,0:0:0:0:
300,200,57142,1,0,0:0:0:0:
248,132,57356,1,8,0:0:0:0:
328,212,57570,1,8,0:0:0:0:
256,148,57785,1,0,0:0:0:0:
340,248,58213,1,0,0:0:0:0:
268,200,58428,1,8,0:0:0:0:
348,248,58642,1,0,0:0:0:0:
308,224,58749,1,0,0:0:0:0:
308,224,58856,1,0,0:0:0:0:
308,224,59070,1,8,0:0:0:0:
308,224,59285,1,8,0:0:0:0:
308,224,59713,1,8,0:0:0:0:
272,176,60142,1,0,0:0:0:0:
196,156,60356,1,8,0:0:0:0:
224,184,60463,1,8,0:0:0:0:
224,232,60570,1,8,0:0:0:0:
184,148,60785,1,0,0:0:0:0:
272,176,60999,1,8,0:0:0:0:
308,264,61213,1,8,0:0:0:0:
228,92,61642,1,0,0:0:0:0:
296,240,62070,1,8,0:0:0:0:
284,204,62499,1,0,0:0:0:0:
284,204,62713,1,8,0:0:0:0:
284,204,63142,1,12,0:0:0:0:
304,256,63570,1,8,0:0:0:0:
304,256,63999,1,0,0:0:0:0:
304,256,64213,1,8,0:0:0:0:
384,216,64428,1,0,0:0:0:0:
456,152,64642,1,8,0:0:0:0:
312,280,65070,1,0,0:0:0:0:
360,228,65285,1,8,0:0:0:0:
360,228,65499,1,0,0:0:0:0:
332,248,65606,1,0,0:0:0:0:
296,276,65713,1,0,0:0:0:0:
224,324,65928,1,8,0:0:0:0:
304,272,66142,1,0,0:0:0:0:
264,296,66570,1,8,0:0:0:0:
240,212,66785,1,0,0:0:0:0:
264,296,66999,1,8,0:0:0:0:
264,296,67213,1,8,0:0:0:0:
276,272,67320,1,8,0:0:0:0:
232,224,67428,1,8,0:0:0:0:
264,296,67642,1,0,0:0:0:0:
264,296,67856,1,8,0:0:0:0:
264,296,68070,1,0,0:0:0:0:
353,128,68499,1,8,0:0:0:0:
311,208,68713,1,0,0:0:0:0:
311,208,68928,1,0,0:0:0:0:
299,178,69035,1,0,0:0:0:0:
249,162,69142,1,0,0:0:0:0:
311,208,69356,1,8,0:0:0:0:
311,208,69570,1,0,0:0:0:0:
311,208,69785,1,8,0:0:0:0:
311,208,70213,1,8,0:0:0:0:
311,208,70428,1,8,0:0:0:0:
311,208,70642,1,0,0:0:0:0:
311,208,71070,1,0,0:0:0:0:
311,208,71285,1,8,0:0:0:0:
311,208,71499,1,8,0:0:0:0:
335,230,71606,1,8,0:0:0:0:
311,208,71713,1,8,0:0:0:0:
246,132,71928,1,0,0:0:0:0:
311,208,72142,1,8,0:0:0:0:
311,208,72356,1,0,0:0:0:0:
149,184,72999,1,0,0:0:0:0:
243,165,73213,1,8,0:0:0:0:
235,161,73642,1,0,0:0:0:0:
323,194,73856,1,8,0:0:0:0:
235,160,74070,1,0,0:0:0:0:
302,189,74178,1,0,0:0:0:0:
276,171,74285,1,0,0:0:0:0:
181,109,74499,1,8,0:0:0:0:
263,163,74713,1,8,0:0:0:0:
97,135,75142,1,12,0:0:0:0:
236,164,75570,1,0,0:0:0:0:
192,196,75999,1,8,0:0:0:0:
188,120,76213,1,0,0:0:0:0:
176,200,76427,1,8,0:0:0:0:
180,128,76642,1,0,0:0:0:0:
232,268,77070,1,0,0:0:0:0:
220,212,77284,1,0,0:0:0:0:
204,284,77499,1,8,0:0:0:0:
208,252,77713,1,0,0:0:0:0:
296,248,78142,1,8,0:0:0:0:
232,196,78356,1,8,0:0:0:0:
232,196,78570,1,0,0:0:0:0:
232,196,78784,1,0,0:0:0:0:
232,196,78999,1,8,0:0:0:0:
232,196,79213,1,8,0:0:0:0:
232,196,79427,1,8,0:0:0:0:
276,196,79642,1,0,0:0:0:0:
232,196,80070,1,8,0:0:0:0:
92,112,80499,1,8,0:0:0:0:
232,204,80713,1,0,0:0:0:0:
156,156,80927,1,8,0:0:0:0:
232,204,81356,1,8,0:0:0:0:
176,148,81570,1,0,0:0:0:0:
316,212,81999,1,12,0:0:0:0:
236,164,82427,1,0,0:0:0:0:
192,196,82856,1,8,0:0:0:0:
188,120,83070,1,8,0:0:0:0:
176,200,83284,1,0,0:0:0:0:
180,128,83499,1,8,0:0:0:0:
232,268,83927,1,0,0:0:0:0:
220,212,84141,1,8,0:0:0:0:
204,284,84356,5,0,0:0:0:0:
208,252,84570,1,8,0:0:0:0:
296,248,84999,1,8,0:0:0:0:
232,196,85213,1,0,0:0:0:0:
232,196,85427,1,8,0:0:0:0:
232,196,85641,1,0,0:0:0:0:
257,163,85749,1,0,0:0:0:0:
232,196,85856,1,0,0:0:0:0:
199,118,86070,1,8,0:0:0:0:
276,127,86284,1,0,0:0:0:0:
90,228,86499,1,0,0:0:0:0:
143,174,86713,1,8,0:0:0:0:
143,174,87356,1,8,0:0:0:0:
143,174,87570,1,8,0:0:0:0:
212,129,87784,1,8,0:0:0:0:
285,206,87999,1,0,0:0:0:0:
324,247,88106,1,0,0:0:0:0:
143,174,88213,1,0,0:0:0:0:
220,213,88428,1,8,0:0:0:0:
311,259,88642,1,0,0:0:0:0:
138,143,88856,1,8,0:0:0:0:
312,228,89285,1,8,0:0:0:0:
312,228,89713,1,8,0:0:0:0:
312,228,89928,1,0,0:0:0:0:
312,228,90142,1,8,0:0:0:0:
312,228,90356,1,0,0:0:0:0:
312,228,90785,1,0,0:0:0:0:
220,216,90999,1,8,0:0:0:0:
312,228,91213,1,8,0:0:0:0:
124,204,91642,1,0,0:0:0:0:
236,220,91856,1,8,0:0:0:0:
436,236,92285,1,8,0:0:0:0:
340,228,92499,1,0,0:0:0:0:
248,220,92713,1,0,0:0:0:0:
336,232,92928,1,8,0:0:0:0:
248,220,93142,1,8,0:0:0:0:
340,232,93356,1,0,0:0:0:0:
240,220,93570,1,8,0:0:0:0:
372,232,93785,1,0,0:0:0:0:
284,204,94213,1,0,0:0:0:0:
292,116,94428,1,8,0:0:0:0:
292,116,94642,1,8,0:0:0:0:
292,116,94856,1,0,0:0:0:0:
292,116,95070,1,8,0:0:0:0:
292,116,95285,1,0,0:0:0:0:
292,116,95499,1,8,0:0:0:0:
292,116,95713,1,0,0:0:0:0:
376,132,96142,1,8,0:0:0:0:
300,188,96570,1,0,0:0:0:0:
188,56,96999,1,0,0:0:0:0:
188,56,97213,1,8,0:0:0:0:
188,56,97642,1,0,0:0:0:0:
252,116,97856,1,8,0:0:0:0:
308,180,98070,1,0,0:0:0:0:
304,176,98499,1,8,0:0:0:0:
244,108,98713,1,0,0:0:0:0:
196,28,99142,1,0,0:0:0:0:
224,112,99356,1,8,0:0:0:0:
252,192,99570,1,8,0:0:0:0:
252,192,99785,1,0,0:0:0:0:
228,108,99999,1,0,0:0:0:0:
196,4,100213,1,8,0:0:0:0:
232,100,100428,1,0,0:0:0:0:
200,16,100642,1,8,0:0:0:0:
200,20,101070,1,8,0:0:0:0:
208,212,101499,1,0,0:0:0:0:
184,116,101713,1,8,0:0:0:0:
148,128,101820,1,8,0:0:0:0:
204,140,101928,1,8,0:0:0:0:
172,232,102142,1,0,0:0:0:0:
204,140,102356,1,0,0:0:0:0:
294,176,102570,1,12,0:0:0:0:
151,258,102999,1,8,0:0:0:0:
221,218,103427,1,0,0:0:0:0:
222,215,103856,1,8,0:0:0:0:
252,137,104070,1,8,0:0:0:0:
202,142,104499,1,8,0:0:0:0:
182,66,104713,1,0,0:0:0:0:
182,66,104927,1,8,0:0:0:0:
329,94,105356,1,8,0:0:0:0:
258,123,105570,1,0,0:0:0:0:
258,123,105784,1,0,0:0:0:0:
258,123,105999,1,8,0:0:0:0:
361,230,106427,1,8,0:0:0:0:
218,216,106642,1,0,0:0:0:0:
290,223,106856,1,8,0:0:0:0:
236,268,107070,1,0,0:0:0:0:
218,216,107284,1,0,0:0:0:0:
218,216,107499,1,8,0:0:0:0:
333,99,107927,1,8,0:0:0:0:
290,141,108142,1,0,0:0:0:0:
216,218,108356,1,8,0:0:0:0:
268,164,108570,1,0,0:0:0:0:
290,141,108784,1,8,0:0:0:0:
317,205,108999,1,8,0:0:0:0:
317,205,109213,1,0,0:0:0:0:
317,205,109427,1,12,0:0:0:0:
317,205,109856,1,8,0:0:0:0:
317,205,110070,1,0,0:0:0:0:
317,205,110498,1,0,0:0:0:0:
317,205,110712,1,8,0:0:0:0:
266,163,110927,1,8,0:0:0:0:
200,128,111142,1,0,0:0:0:0:
251,75,111570,1,0,0:0:0:0:
251,75,111784,1,8,0:0:0:0:
349,200,112213,1,8,0:0:0:0:
297,140,112427,1,8,0:0:0:0:
299,146,112856,1,8,0:0:0:0:
235,164,113070,1,0,0:0:0:0:
292,146,113284,1,0,0:0:0:0:
210,172,113499,1,8,0:0:0:0:
210,172,113713,1,0,0:0:0:0:
208,168,113927,1,0,0:0:0:0:
269,218,114142,1,0,0:0:0:0:
214,166,114356,1,8,0:0:0:0:
283,236,114784,1,8,0:0:0:0:
228,186,114999,1,8,0:0:0:0:
228,186,115213,5,8,0:0:0:0:
220,180,115427,1,8,0:0:0:0:
220,180,116284,5,12,0:0:0:0:
220,180,116713,1,0,0:0:0:0:
220,180,116927,1,0,0:0:0:0:
220,180,117034,1,0,0:0:0:0:
220,180,117142,1,0,0:0:0:0:
128,152,117356,1,8,0:0:0:0:
128,152,117570,1,0,0:0:0:0:
212,192,117784,1,8,0:0:0:0:
296,228,118213,1,0,0:0:0:0:
212,188,118427,1,8,0:0:0:0:
160,128,118642,1,0,0:0:0:0:
184,148,118749,1,0,0:0:0:0:
160,128,118856,1,0,0:0:0:0:
160,128,119070,1,8,0:0:0:0:
176,36,119284,1,8,0:0:0:0:
304,80,119713,1,0,0:0:0:0:
280,160,119927,1,8,0:0:0:0:
304,80,120142,1,8,0:0:0:0:
240,188,120356,1,0,0:0:0:0:
244,280,120570,1,8,0:0:0:0:
432,200,120784,1,8,0:0:0:0:
332,200,120999,1,0,0:0:0:0:
248,232,121213,1,8,0:0:0:0:
368,196,121427,1,8,0:0:0:0:
368,196,121642,1,0,0:0:0:0:
280,220,121856,1,8,0:0:0:0:
368,196,122070,1,8,0:0:0:0:
280,212,122499,1,8,0:0:0:0:
324,136,122713,1,0,0:0:0:0:
304,156,122820,1,0,0:0:0:0:
276,216,122927,1,0,0:0:0:0:
328,136,123142,1,12,0:0:0:0:
180,260,123570,1,8,0:0:0:0:
240,180,123784,1,0,0:0:0:0:
168,104,123999,1,0,0:0:0:0:
164,276,124213,1,8,0:0:0:0:
220,200,124427,1,8,0:0:0:0:
304,204,124642,1,0,0:0:0:0:
216,216,125070,1,8,0:0:0:0:
284,152,125284,1,0,0:0:0:0:
272,164,125499,1,8,0:0:0:0:
264,200,125606,1,8,0:0:0:0:
200,220,125713,1,8,0:0:0:0:
280,244,125927,1,8,0:0:0:0:
280,244,126142,1,8,0:0:0:0:
300,256,126570,1,8,0:0:0:0:
280,244,126784,1,0,0:0:0:0:
300,256,126999,1,8,0:0:0:0:
280,244,127213,1,0,0:0:0:0:
280,244,127427,1,8,0:0:0:0:
308,248,127642,1,0,0:0:0:0:
264,228,127749,1,0,0:0:0:0:
224,208,127856,1,0,0:0:0:0:
280,244,128070,1,8,0:0:0:0:
352,288,128284,1,0,0:0:0:0:
280,252,128499,1,8,0:0:0:0:
280,252,128606,1,8,0:0:0:0:
280,252,128713,1,8,0:0:0:0:
280,252,128927,1,0,0:0:0:0:
444,148,129356,1,0,0:0:0:0:
352,176,129570,1,8,0:0:0:0:
276,200,129999,1,12,0:0:0:0:
368,380,130427,1,8,0:0:0:0:
300,200,130856,1,0,0:0:0:0:
248,132,131070,1,8,0:0:0:0:
328,212,131284,1,8,0:0:0:0:
256,148,131499,1,0,0:0:0:0:
340,248,131927,1,8,0:0:0:0:
268,200,132142,1,8,0:0:0:0:
348,248,132356,1,0,0:0:0:0:
308,224,132463,1,0,0:0:0:0:
308,224,132570,1,0,0:0:0:0:
308,224,132784,1,8,0:0:0:0:
308,224,132999,1,8,0:0:0:0:
308,224,133427,1,8,0:0:0:0:
272,176,133856,1,0,0:0:0:0:
196,156,134070,1,0,0:0:0:0:
224,184,134177,1,0,0:0:0:0:
224,232,134284,1,0,0:0:0:0:
184,148,134499,1,8,0:0:0:0:
272,176,134713,1,0,0:0:0:0:
308,264,134927,1,8,0:0:0:0:
228,92,135356,1,0,0:0:0:0:
296,240,135784,1,8,0:0:0:0:
284,204,136213,1,0,0:0:0:0:
284,204,136427,1,8,0:0:0:0:
284,204,136856,1,12,0:0:0:0:
304,256,137284,1,8,0:0:0:0:
304,256,137713,1,0,0:0:0:0:
304,256,137927,1,8,0:0:0:0:
384,216,138142,1,0,0:0:0:0:
456,152,138356,1,8,0:0:0:0:
312,280,138784,1,0,0:0:0:0:
360,228,138999,1,8,0:0:0:0:
360,228,139213,1,0,0:0:0:0:
332,248,139320,1,0,0:0:0:0:
296,276,139427,1,0,0:0:0:0:
224,324,139642,1,8,0:0:0:0:
304,272,139856,1,8,0:0:0:0:
264,296,140284,1,8,0:0:0:0:
240,212,140499,1,0,0:0:0:0:
264,296,140713,1,8,0:0:0:0:
264,296,140927,1,8,0:0:0:0:
276,272,141034,1,8,0:0:0:0:
232,224,141142,1,8,0:0:0:0:
264,296,141356,1,0,0:0:0:0:
264,296,141570,1,8,0:0:0:0:
264,296,141784,1,0,0:0:0:0:
353,128,142213,1,8,0:0:0:0:
311,208,142427,1,0,0:0:0:0:
311,208,142642,1,8,0:0:0:0:
299,178,142749,1,8,0:0:0:0:
249,162,142856,1,8,0:0:0:0:
311,208,143070,1,0,0:0:0:0:
311,208,143284,1,0,0:0:0:0:
311,208,143499,1,8,0:0:0:0:
311,208,143927,1,0,0:0:0:0:
311,208,144142,1,8,0:0:0:0:
311,208,144356,1,0,0:0:0:0:
311,208,144784,1,0,0:0:0:0:
311,208,144999,1,8,0:0:0:0:
311,208,145213,1,0,0:0:0:0:
335,230,145320,1,0,0:0:0:0:
311,208,145427,1,0,0:0:0:0:
246,132,145642,1,8,0:0:0:0:
311,208,145856,1,8,0:0:0:0:
311,208,146070,5,0,0:0:0:0:
149,184,146713,1,0,0:0:0:0:
243,165,146927,1,8,0:0:0:0:
235,161,147356,1,8,0:0:0:0:
323,194,147570,1,0,0:0:0:0:
235,160,147784,1,0,0:0:0:0:
302,189,147892,1,0,0:0:0:0:
276,171,147999,1,0,0:0:0:0:
181,109,148213,1,8,0:0:0:0:
263,163,148427,1,8,0:0:0:0:
208,244,148642,1,8,0:0:0:0:
92,164,148856,1,4,0:0:0:0:
296,200,149285,1,8,0:0:0:0:
484,268,149713,1,0,0:0:0:0:
288,200,150142,1,8,0:0:0:0:
184,148,150356,1,0,0:0:0:0:
360,232,150785,1,0,0:0:0:0:
292,180,150999,1,8,0:0:0:0:
236,116,151213,1,0,0:0:0:0:
312,184,151642,1,0,0:0:0:0:
336,272,151856,1,8,0:0:0:0:
336,272,152070,1,0,0:0:0:0:
336,272,152285,1,8,0:0:0:0:
276,204,152713,1,8,0:0:0:0:
400,308,153142,1,0,0:0:0:0:
392,304,153570,1,8,0:0:0:0:
368,284,153785,1,0,0:0:0:0:
204,164,154213,1,0,0:0:0:0:
280,212,154428,1,8,0:0:0:0:
372,264,154642,1,8,0:0:0:0:
284,212,155070,1,0,0:0:0:0:
196,180,155285,1,8,0:0:0:0:
104,144,155499,1,0,0:0:0:0:
132,48,155713,1,12,0:0:0:0:
176,84,156142,1,8,0:0:0:0:
212,152,156356,1,0,0:0:0:0:
148,80,156785,1,8,0:0:0:0:
208,156,156999,1,8,0:0:0:0:
208,156,157213,1,0,0:0:0:0:
308,176,157642,1,0,0:0:0:0:
220,152,157856,1,8,0:0:0:0:
275,185,158070,1,0,0:0:0:0:
124,116,158499,1,0,0:0:0:0:
216,168,158713,1,8,0:0:0:0:
280,208,158928,1,0,0:0:0:0:
232,172,159142,1,12,0:0:0:0:
40,176,159570,1,0,0:0:0:0:
124,172,159785,1,8,0:0:0:0:
124,172,160213,1,0,0:0:0:0:
220,148,160428,1,0,0:0:0:0:
124,172,160642,1,8,0:0:0:0:
284,60,161070,1,0,0:0:0:0:
212,112,161285,1,8,0:0:0:0:
120,160,161499,1,8,0:0:0:0:
156,136,161606,1,8,0:0:0:0:
248,88,161713,1,8,0:0:0:0:
200,164,161928,1,0,0:0:0:0:
148,248,162142,1,8,0:0:0:0:
200,164,162356,1,0,0:0:0:0:
96,324,162785,1,0,0:0:0:0:
148,244,162999,1,8,0:0:0:0:
196,168,163213,5,0,0:0:0:0:
176,204,163428,1,8,0:0:0:0:
176,204,163642,1,8,0:0:0:0:
176,204,163856,1,0,0:0:0:0:
176,204,164070,1,0,0:0:0:0:
200,180,164285,5,12,0:0:0:0:
280,200,165356,1,12,0:0:0:0:
280,200,165785,1,4,0:0:0:0:
320,204,167070,1,12,0:0:0:0:
320,204,167285,1,12,0:0:0:0:
204,40,167713,1,4,0:0:0:0:
308,168,168785,1,12,0:0:0:0:
308,168,169213,1,12,0:0:0:0:
180,140,169642,1,0,0:0:0:0:
308,168,169856,1,8,0:0:0:0:
264,236,170285,1,8,0:0:0:0:
80,88,170713,1,0,0:0:0:0:
240,160,171142,1,12,0:0:0:0:
108,160,172213,1,12,0:0:0:0:
296,152,172642,1,12,0:0:0:0:
248,180,173928,1,4,0:0:0:0:
248,180,174142,1,4,0:0:0:0:
60,124,174570,1,12,0:0:0:0:
248,176,175642,1,4,0:0:0:0:
248,176,176070,1,12,0:0:0:0:
248,176,176499,1,0,0:0:0:0:
160,200,176713,1,8,0:0:0:0:
248,176,176928,1,0,0:0:0:0:
244,180,177356,1,0,0:0:0:0:
160,200,177570,1,8,0:0:0:0:
276,200,177999,1,12,0:0:0:0:
368,380,178427,1,8,0:0:0:0:
300,200,178856,1,0,0:0:0:0:
248,132,179070,1,8,0:0:0:0:
328,212,179284,1,8,0:0:0:0:
256,148,179499,1,0,0:0:0:0:
340,248,179927,1,0,0:0:0:0:
268,200,180142,1,8,0:0:0:0:
348,248,180356,1,0,0:0:0:0:
308,224,180463,1,0,0:0:0:0:
308,224,180570,1,0,0:0:0:0:
308,224,180784,1,8,0:0:0:0:
308,224,180999,1,8,0:0:0:0:
308,224,181427,1,8,0:0:0:0:
272,176,181856,1,0,0:0:0:0:
196,156,182070,1,8,0:0:0:0:
224,184,182177,1,8,0:0:0:0:
224,232,182284,1,8,0:0:0:0:
184,148,182499,1,0,0:0:0:0:
272,176,182713,1,8,0:0:0:0:
308,264,182927,1,8,0:0:0:0:
228,92,183356,1,0,0:0:0:0:
296,240,183784,1,8,0:0:0:0:
284,204,184213,1,0,0:0:0:0:
284,204,184427,1,8,0:0:0:0:
284,204,184856,1,12,0:0:0:0:
304,256,185284,1,8,0:0:0:0:
304,256,185713,1,0,0:0:0:0:
304,256,185927,1,8,0:0:0:0:
384,216,186142,1,0,0:0:0:0:
456,152,186356,1,8,0:0:0:0:
312,280,186784,1,0,0:0:0:0:
360,228,186999,1,8,0:0:0:0:
360,228,187213,1,0,0:0:0:0:
332,248,187320,1,0,0:0:0:0:
296,276,187427,1,0,0:0:0:0:
224,324,187642,1,8,0:0:0:0:
304,272,187856,1,0,0:0:0:0:
264,296,188284,1,8,0:0:0:0:
240,212,188499,1,0,0:0:0:0:
264,296,188713,1,8,0:0:0:0:
264,296,188927,1,8,0:0:0:0:
276,272,189034,1,8,0:0:0:0:
232,224,189142,1,8,0:0:0:0:
264,296,189356,1,0,0:0:0:0:
264,296,189570,1,8,0:0:0:0:
264,296,189784,1,0,0:0:0:0:
353,128,190213,1,8,0:0:0:0:
311,208,190427,1,0,0:0:0:0:
311,208,190642,1,0,0:0:0:0:
299,178,190749,1,0,0:0:0:0:
249,162,190856,1,0,0:0:0:0:
311,208,191070,1,8,0:0:0:0:
311,208,191284,1,0,0:0:0:0:
311,208,191499,1,8,0:0:0:0:
311,208,191927,1,8,0:0:0:0:
311,208,192142,1,8,0:0:0:0:
311,208,192356,1,0,0:0:0:0:
311,208,192784,1,0,0:0:0:0:
311,208,192999,1,8,0:0:0:0:
311,208,193213,1,8,0:0:0:0:
335,230,193320,1,8,0:0:0:0:
311,208,193427,1,8,0:0:0:0:
246,132,193642,1,0,0:0:0:0:
311,208,193856,1,8,0:0:0:0:
311,208,194070,1,0,0:0:0:0:
149,184,194713,1,0,0:0:0:0:
243,165,194927,1,8,0:0:0:0:
235,161,195356,1,0,0:0:0:0:
323,194,195570,1,8,0:0:0:0:
235,160,195784,1,0,0:0:0:0:
302,189,195892,1,0,0:0:0:0:
276,171,195999,1,0,0:0:0:0:
181,109,196213,5,8,0:0:0:0:
263,163,196427,1,8,0:0:0:0:
97,135,196856,1,12,0:0:0:0:
236,164,197285,1,0,0:0:0:0:
192,196,197714,1,8,0:0:0:0:
188,120,197928,1,0,0:0:0:0:
176,200,198142,1,0,0:0:0:0:
180,128,198357,1,8,0:0:0:0:
232,268,198785,1,0,0:0:0:0:
220,212,198999,1,8,0:0:0:0:
204,284,199214,1,8,0:0:0:0:
208,252,199428,1,0,0:0:0:0:
296,248,199857,1,8,0:0:0:0:
232,196,200071,1,0,0:0:0:0:
232,196,200285,1,8,0:0:0:0:
232,196,200499,1,0,0:0:0:0:
232,196,200714,1,8,0:0:0:0:
232,196,200928,1,0,0:0:0:0:
232,196,201142,1,0,0:0:0:0:
276,196,201357,1,8,0:0:0:0:
232,196,201785,1,8,0:0:0:0:
92,112,202214,1,8,0:0:0:0:
156,156,202428,1,8,0:0:0:0:
232,204,202642,1,0,0:0:0:0:
232,204,203071,1,0,0:0:0:0:
176,148,203285,1,8,0:0:0:0:
316,212,203714,1,12,0:0:0:0:
236,164,204142,1,0,0:0:0:0:
192,196,204571,1,8,0:0:0:0:
188,120,204785,1,0,0:0:0:0:
176,200,204999,1,0,0:0:0:0:
180,128,205214,1,8,0:0:0:0:
232,268,205642,1,0,0:0:0:0:
220,212,205856,1,8,0:0:0:0:
204,284,206071,1,8,0:0:0:0:
208,252,206285,1,0,0:0:0:0:
296,248,206714,1,8,0:0:0:0:
232,196,206928,1,0,0:0:0:0:
232,196,207142,1,8,0:0:0:0:
232,196,207356,1,8,0:0:0:0:
257,163,207464,1,8,0:0:0:0:
232,196,207571,1,8,0:0:0:0:
199,118,207785,1,0,0:0:0:0:
276,127,207999,1,8,0:0:0:0:
90,228,208214,1,0,0:0:0:0:
143,174,208428,1,8,0:0:0:0:
143,174,209071,1,8,0:0:0:0:
143,174,209285,1,8,0:0:0:0:
212,129,209499,5,8,0:0:0:0:
143,174,209928,1,0,0:0:0:0:
138,143,210571,1,0,0:0:0:0:
256,192,210785,12,0,215713,0:0:0:0:
