osu file format v14

[General]
AudioFilename: audio.mp3
AudioLeadIn: 0
PreviewTime: 115535
Countdown: 0
SampleSet: Normal
StackLeniency: 0.7
Mode: 1
LetterboxInBreaks: 0
WidescreenStoryboard: 1

[Editor]
Bookmarks: 1600,15314,29028,42742,68242,75314,89028,102742,149028,164457
DistanceSpacing: 1.2
BeatDivisor: 4
GridSize: 32
TimelineZoom: 1.199998

[Metadata]
Title:Koi no Yukue
TitleUnicode:恋ノ行方
Artist:Akase Akari
ArtistUnicode:あかせあかり
Creator:Linkff001
Version:D0UG's Futsuu
Source:その着せ替え人形は恋をする
Tags:d0ug d0ug_yt japanese pop jpop j-pop ed ending full ver size 着せ恋 kisekoi sono bisque doll wa koi wo o suru my dress-up darling 喜多川海夢 kitagawa marin
BeatmapID:4506898
BeatmapSetID:2135326

[Difficulty]
HPDrainRate:8
CircleSize:2
OverallDifficulty:3
ApproachRate:5.5
SliderMultiplier:1.4
SliderTickRate:1

[Events]
//Background and Video events
0,0,"my-dress-up-darling-marin-beautiful-2k-wallpaper-uhdpaper.com-78@1@g.jpg",0,0
//Break Periods
//Storyboard Layer 0 (Background)
//Storyboard Layer 1 (Fail)
//Storyboard Layer 2 (Pass)
//Storyboard Layer 3 (Foreground)
//Storyboard Layer 4 (Overlay)
//Storyboard Sound Samples

[TimingPoints]
-286,428.571428571429,4,1,0,70,1,0
1428,428.571428571429,4,1,0,70,1,0
11922,-100,4,1,0,69,0,0
12351,-100,4,1,0,68,0,0
12780,-100,4,1,0,67,0,0
12994,-100,4,1,0,66,0,0
13637,-100,4,1,0,64,0,0
14065,-100,4,1,0,63,0,0
14494,-100,4,1,0,62,0,0
15137,-100,4,1,0,60,0,0
27351,-100,4,1,0,62,0,0
27780,-100,4,1,0,64,0,0
27994,-100,4,1,0,66,0,0
28208,-100,4,1,0,67,0,0
28423,-100,4,1,0,68,0,0
28637,-100,4,1,0,69,0,0
28851,-100,4,1,0,70,0,0
41065,-100,4,1,0,75,0,0
42570,-90.9090909090909,4,1,0,85,0,1
66780,-90.9090909090909,4,1,0,84,0,1
67208,-90.9090909090909,4,1,0,83,0,1
67423,-90.9090909090909,4,1,0,82,0,1
67637,-90.9090909090909,4,1,0,81,0,1
68065,-90.9090909090909,4,1,0,80,0,1
75142,-100,4,1,0,70,0,0
85851,-100,4,1,0,69,0,0
86494,-100,4,1,0,68,0,0
87351,-100,4,1,0,67,0,0
87994,-100,4,1,0,66,0,0
88637,-100,4,1,0,65,0,0
101065,-100,4,1,0,66,0,0
101494,-100,4,1,0,67,0,0
101708,-100,4,1,0,68,0,0
102137,-100,4,1,0,69,0,0
102458,-100,4,1,0,70,0,0
114780,-100,4,1,0,75,0,0
116285,-90.9090909090909,4,1,0,85,0,1
140495,-90.9090909090909,4,1,0,84,0,1
140923,-90.9090909090909,4,1,0,83,0,1
141138,-90.9090909090909,4,1,0,82,0,1
141352,-90.9090909090909,4,1,0,81,0,1
141780,-90.9090909090909,4,1,0,80,0,1
147137,-90.9090909090909,4,1,0,78,0,1
147351,-90.9090909090909,4,1,0,76,0,1
147458,-90.9090909090909,4,1,0,74,0,1
147565,-90.9090909090909,4,1,0,73,0,1
147779,-90.9090909090909,4,1,0,71,0,1
147887,-90.9090909090909,4,1,0,70,0,1
147994,-90.9090909090909,4,1,0,69,0,1
148208,-90.9090909090909,4,1,0,67,0,1
148213,-94.3396226415094,4,1,0,67,0,1
148422,-96.1538461538461,4,1,0,64,0,1
148637,-98.0392156862745,4,1,0,62,0,1
148856,-100,4,1,0,60,0,0
162994,-100,4,1,0,59,0,0
163208,-100,4,1,0,57,0,0
163315,-100,4,1,0,56,0,0
163637,-100,4,1,0,54,0,0
163851,-100,4,1,0,53,0,0
164065,-100,4,1,0,51,0,0
164280,-100,4,1,0,50,0,0
176494,-100,4,1,0,56,0,0
176708,-100,4,1,0,59,0,0
176923,-100,4,1,0,61,0,0
177137,-100,4,1,0,64,0,0
177351,-100,4,1,0,67,0,0
177565,-100,4,1,0,70,0,0
177999,-90.9090909090909,4,1,0,85,0,1
188495,-90.9090909090909,4,1,0,84,0,1
188923,-90.9090909090909,4,1,0,83,0,1
189138,-90.9090909090909,4,1,0,82,0,1
189352,-90.9090909090909,4,1,0,81,0,1
189780,-90.9090909090909,4,1,0,80,0,1
196856,-100,4,1,0,70,0,0
207351,-100,4,1,0,69,0,0
207780,-100,4,1,0,68,0,0
208209,-100,4,1,0,67,0,0
208423,-100,4,1,0,66,0,0
209066,-100,4,1,0,64,0,0
209494,-100,4,1,0,63,0,0
209923,-100,4,1,0,62,0,0
210566,-100,4,1,0,60,0,0
211423,-100,4,1,0,54,0,0
211851,-100,4,1,0,50,0,0
212280,-100,4,1,0,44,0,0
212708,-100,4,1,0,38,0,0
213137,-100,4,1,0,30,0,0
213565,-100,4,1,0,26,0,0
213994,-100,4,1,0,22,0,0
214423,-100,4,1,0,18,0,0
214852,-100,4,1,0,14,0,0
215280,-100,4,1,0,10,0,0
215709,-100,4,1,0,6,0,0

[HitObjects]
256,192,571,5,0,0:0:0:0:
256,192,999,1,0,0:0:0:0:
256,192,1428,1,12,0:0:0:0:
256,192,1856,1,8,0:0:0:0:
256,192,2285,1,8,0:0:0:0:
256,192,2499,1,0,0:0:0:0:
256,192,2713,1,0,0:0:0:0:
256,192,2928,1,8,0:0:0:0:
256,192,3570,1,8,0:0:0:0:
256,192,3785,1,8,0:0:0:0:
256,192,3999,1,0,0:0:0:0:
256,192,4428,1,8,0:0:0:0:
256,192,4856,1,0,0:0:0:0:
256,192,5285,1,8,0:0:0:0:
256,192,5499,1,0,0:0:0:0:
256,192,5713,1,8,0:0:0:0:
256,192,5928,1,0,0:0:0:0:
256,192,6356,1,0,0:0:0:0:
256,192,6785,1,8,0:0:0:0:
256,192,6999,1,8,0:0:0:0:
256,192,7213,1,8,0:0:0:0:
256,192,7642,1,0,0:0:0:0:
256,192,7856,1,8,0:0:0:0:
256,192,8285,1,12,0:0:0:0:
256,192,8713,1,0,0:0:0:0:
256,192,9142,1,0,0:0:0:0:
256,192,9356,1,8,0:0:0:0:
256,192,9570,1,8,0:0:0:0:
256,192,9785,1,0,0:0:0:0:
256,192,10428,1,8,0:0:0:0:
256,192,10642,1,0,0:0:0:0:
256,192,10856,1,8,0:0:0:0:
256,192,11285,1,0,0:0:0:0:
256,192,11713,1,12,0:0:0:0:
256,192,12356,1,4,0:0:0:0:
256,192,12999,1,12,0:0:0:0:
256,192,13642,1,8,0:0:0:0:
256,192,13856,1,8,0:0:0:0:
256,192,14070,1,8,0:0:0:0:
256,192,14499,1,0,0:0:0:0:
256,192,15142,1,8,0:0:0:0:
256,192,16213,1,0,0:0:0:0:
256,192,16428,1,8,0:0:0:0:
256,192,16642,1,4,0:0:0:0:
256,192,17070,1,0,0:0:0:0:
256,192,17285,1,0,0:0:0:0:
256,192,17499,1,8,0:0:0:0:
256,192,17928,1,0,0:0:0:0:
256,192,18142,1,8,0:0:0:0:
256,192,18570,1,0,0:0:0:0:
256,192,19428,1,8,0:0:0:0:
256,192,19642,1,8,0:0:0:0:
256,192,19856,1,0,0:0:0:0:
256,192,20070,1,8,0:0:0:0:
256,192,20499,1,8,0:0:0:0:
256,192,20928,1,8,0:0:0:0:
256,192,21142,1,0,0:0:0:0:
256,192,21570,1,8,0:0:0:0:
256,192,21999,1,0,0:0:0:0:
256,192,22856,1,0,0:0:0:0:
256,192,23070,1,8,0:0:0:0:
256,192,23285,1,8,0:0:0:0:
256,192,23499,1,4,0:0:0:0:
256,192,23928,1,8,0:0:0:0:
256,192,24142,1,0,0:0:0:0:
256,192,24356,1,8,0:0:0:0:
256,192,24785,1,0,0:0:0:0:
256,192,24999,1,8,0:0:0:0:
256,192,25428,1,8,0:0:0:0:
256,192,26285,1,8,0:0:0:0:
256,192,26499,1,8,0:0:0:0:
256,192,26713,1,0,0:0:0:0:
256,192,26928,1,8,0:0:0:0:
256,192,27356,1,0,0:0:0:0:
256,192,27785,1,8,0:0:0:0:
256,192,27999,1,0,0:0:0:0:
256,192,28213,1,0,0:0:0:0:
256,192,28428,1,8,0:0:0:0:
256,192,28856,1,12,0:0:0:0:
256,192,29285,1,0,0:0:0:0:
256,192,29928,1,0,0:0:0:0:
256,192,30142,1,8,0:0:0:0:
256,192,30356,1,8,0:0:0:0:
256,192,30785,1,0,0:0:0:0:
256,192,30999,1,8,0:0:0:0:
256,192,31213,1,0,0:0:0:0:
256,192,31642,1,0,0:0:0:0:
256,192,31856,1,8,0:0:0:0:
256,192,32285,1,0,0:0:0:0:
256,192,32928,1,0,0:0:0:0:
256,192,33142,1,8,0:0:0:0:
256,192,33570,1,8,0:0:0:0:
256,192,33785,1,0,0:0:0:0:
256,192,34213,1,8,0:0:0:0:
256,192,34428,1,0,0:0:0:0:
256,192,34642,1,8,0:0:0:0:
256,192,35285,1,8,0:0:0:0:
256,192,35713,1,4,0:0:0:0:
256,192,36142,1,8,0:0:0:0:
256,192,36356,1,0,0:0:0:0:
256,192,36785,1,0,0:0:0:0:
256,192,36999,1,8,0:0:0:0:
256,192,37428,1,8,0:0:0:0:
256,192,37856,1,0,0:0:0:0:
256,192,38070,1,8,0:0:0:0:
256,192,38499,1,0,0:0:0:0:
256,192,38713,1,8,0:0:0:0:
256,192,38928,1,8,0:0:0:0:
256,192,39142,1,0,0:0:0:0:
256,192,39570,1,8,0:0:0:0:
256,192,39785,1,0,0:0:0:0:
256,192,40213,1,8,0:0:0:0:
256,192,40428,1,0,0:0:0:0:
256,192,40642,1,0,0:0:0:0:
256,192,41070,1,4,0:0:0:0:
256,192,41285,1,4,0:0:0:0:
256,192,41499,1,4,0:0:0:0:
256,192,41713,1,4,0:0:0:0:
256,192,42570,1,12,0:0:0:0:
256,192,42999,1,0,0:0:0:0:
256,192,43213,1,0,0:0:0:0:
256,192,43428,1,8,0:0:0:0:
256,192,43642,1,0,0:0:0:0:
256,192,43856,1,8,0:0:0:0:
256,192,44499,1,8,0:0:0:0:
256,192,44713,1,8,0:0:0:0:
256,192,44928,1,0,0:0:0:0:
256,192,45142,1,0,0:0:0:0:
256,192,45356,1,8,0:0:0:0:
256,192,45570,1,8,0:0:0:0:
256,192,45999,1,0,0:0:0:0:
256,192,46428,1,8,0:0:0:0:
256,192,46642,1,0,0:0:0:0:
256,192,47070,1,0,0:0:0:0:
256,192,47285,1,8,0:0:0:0:
256,192,47713,1,0,0:0:0:0:
256,192,47928,1,0,0:0:0:0:
256,192,48356,1,8,0:0:0:0:
256,192,48785,1,0,0:0:0:0:
256,192,48999,1,8,0:0:0:0:
256,192,49213,1,0,0:0:0:0:
256,192,49428,1,12,0:0:0:0:
256,192,49856,1,8,0:0:0:0:
256,192,50070,1,0,0:0:0:0:
256,192,50499,1,0,0:0:0:0:
256,192,50713,1,8,0:0:0:0:
256,192,51356,1,0,0:0:0:0:
256,192,51570,1,8,0:0:0:0:
256,192,51785,1,0,0:0:0:0:
256,192,51999,1,0,0:0:0:0:
256,192,52213,1,8,0:0:0:0:
256,192,52428,1,8,0:0:0:0:
256,192,52856,1,0,0:0:0:0:
256,192,53070,1,0,0:0:0:0:
256,192,53285,1,8,0:0:0:0:
256,192,53713,1,8,0:0:0:0:
256,192,54142,1,0,0:0:0:0:
256,192,54356,1,8,0:0:0:0:
256,192,54785,1,8,0:0:0:0:
256,192,54999,1,0,0:0:0:0:
256,192,55213,1,8,0:0:0:0:
256,192,55856,1,0,0:0:0:0:
256,192,56285,1,12,0:0:0:0:
256,192,56713,1,8,0:0:0:0:
256,192,57142,1,0,0:0:0:0:
256,192,57356,1,0,0:0:0:0:
256,192,57570,1,8,0:0:0:0:
256,192,57785,1,0,0:0:0:0:
256,192,58213,1,8,0:0:0:0:
256,192,58642,1,0,0:0:0:0:
256,192,59070,1,8,0:0:0:0:
256,192,59285,1,8,0:0:0:0:
256,192,59713,1,0,0:0:0:0:
256,192,60142,1,8,0:0:0:0:
256,192,60356,1,0,0:0:0:0:
256,192,60570,1,0,0:0:0:0:
256,192,60785,1,8,0:0:0:0:
256,192,61213,1,0,0:0:0:0:
256,192,61642,1,0,0:0:0:0:
256,192,62070,1,8,0:0:0:0:
256,192,62499,1,0,0:0:0:0:
256,192,62713,1,8,0:0:0:0:
256,192,62928,1,0,0:0:0:0:
256,192,63142,1,12,0:0:0:0:
256,192,63570,1,8,0:0:0:0:
256,192,63999,1,0,0:0:0:0:
256,192,64428,1,8,0:0:0:0:
256,192,64642,1,0,0:0:0:0:
256,192,65070,1,8,0:0:0:0:
256,192,65499,1,0,0:0:0:0:
256,192,65928,1,8,0:0:0:0:
256,192,66142,1,8,0:0:0:0:
256,192,66999,1,8,0:0:0:0:
256,192,67213,1,0,0:0:0:0:
256,192,67428,1,8,0:0:0:0:
256,192,67856,1,8,0:0:0:0:
256,192,68070,1,0,0:0:0:0:
256,192,68499,1,0,0:0:0:0:
256,192,68713,1,8,0:0:0:0:
256,192,68928,1,0,0:0:0:0:
256,192,69142,1,8,0:0:0:0:
256,192,69356,1,8,0:0:0:0:
256,192,69785,1,0,0:0:0:0:
256,192,70213,1,0,0:0:0:0:
256,192,70428,1,8,0:0:0:0:
256,192,70642,1,0,0:0:0:0:
256,192,71070,1,0,0:0:0:0:
256,192,71285,1,8,0:0:0:0:
256,192,71713,1,8,0:0:0:0:
256,192,72356,1,0,0:0:0:0:
256,192,72999,1,8,0:0:0:0:
256,192,73213,1,0,0:0:0:0:
256,192,73642,1,0,0:0:0:0:
256,192,73856,1,8,0:0:0:0:
256,192,74070,1,0,0:0:0:0:
256,192,74713,1,0,0:0:0:0:
256,192,75142,1,12,0:0:0:0:
256,192,75570,1,0,0:0:0:0:
256,192,75999,1,0,0:0:0:0:
256,192,76213,1,8,0:0:0:0:
256,192,76428,1,8,0:0:0:0:
256,192,76642,1,0,0:0:0:0:
256,192,77285,1,8,0:0:0:0:
256,192,77499,1,0,0:0:0:0:
256,192,77713,1,8,0:0:0:0:
256,192,78142,1,8,0:0:0:0:
256,192,78570,1,0,0:0:0:0:
256,192,78999,1,8,0:0:0:0:
256,192,79213,1,0,0:0:0:0:
256,192,79428,1,8,0:0:0:0:
256,192,79642,1,0,0:0:0:0:
256,192,80070,1,8,0:0:0:0:
256,192,80499,1,0,0:0:0:0:
256,192,80713,1,8,0:0:0:0:
256,192,80928,1,8,0:0:0:0:
256,192,81356,1,0,0:0:0:0:
256,192,81570,1,0,0:0:0:0:
256,192,81999,1,12,0:0:0:0:
256,192,82428,1,8,0:0:0:0:
256,192,82856,1,0,0:0:0:0:
256,192,83070,1,8,0:0:0:0:
256,192,83285,1,0,0:0:0:0:
256,192,83499,1,8,0:0:0:0:
256,192,84142,1,8,0:0:0:0:
256,192,84356,1,8,0:0:0:0:
256,192,84570,1,0,0:0:0:0:
256,192,84999,1,0,0:0:0:0:
256,192,85428,1,12,0:0:0:0:
256,192,86070,1,4,0:0:0:0:
256,192,86713,1,12,0:0:0:0:
256,192,87356,1,8,0:0:0:0:
256,192,87570,1,8,0:0:0:0:
256,192,87785,1,8,0:0:0:0:
256,192,88213,1,0,0:0:0:0:
256,192,88856,1,12,0:0:0:0:
256,192,89285,1,0,0:0:0:0:
256,192,90142,1,8,0:0:0:0:
256,192,90356,1,0,0:0:0:0:
256,192,90785,1,0,0:0:0:0:
256,192,90999,1,0,0:0:0:0:
256,192,91213,1,8,0:0:0:0:
256,192,91642,1,0,0:0:0:0:
256,192,91856,1,8,0:0:0:0:
256,192,92285,1,0,0:0:0:0:
256,192,93142,1,0,0:0:0:0:
256,192,93356,1,8,0:0:0:0:
256,192,93785,1,8,0:0:0:0:
256,192,94213,1,0,0:0:0:0:
256,192,94642,1,8,0:0:0:0:
256,192,94856,1,0,0:0:0:0:
256,192,95285,1,8,0:0:0:0:
256,192,95713,1,4,0:0:0:0:
256,192,96142,1,8,0:0:0:0:
256,192,96570,1,0,0:0:0:0:
256,192,96999,1,8,0:0:0:0:
256,192,97213,1,0,0:0:0:0:
256,192,97642,1,0,0:0:0:0:
256,192,97856,1,8,0:0:0:0:
256,192,98070,1,0,0:0:0:0:
256,192,98499,1,0,0:0:0:0:
256,192,98713,1,8,0:0:0:0:
256,192,99142,1,0,0:0:0:0:
256,192,99999,1,8,0:0:0:0:
256,192,100213,1,0,0:0:0:0:
256,192,100642,1,8,0:0:0:0:
256,192,101070,1,8,0:0:0:0:
256,192,101499,1,8,0:0:0:0:
256,192,101713,1,0,0:0:0:0:
256,192,101928,1,0,0:0:0:0:
256,192,102142,1,8,0:0:0:0:
256,192,102570,1,12,0:0:0:0:
256,192,102999,1,8,0:0:0:0:
256,192,103642,1,0,0:0:0:0:
256,192,103856,1,8,0:0:0:0:
256,192,104070,1,0,0:0:0:0:
256,192,104499,1,8,0:0:0:0:
256,192,104713,1,0,0:0:0:0:
256,192,104928,1,8,0:0:0:0:
256,192,105356,1,0,0:0:0:0:
256,192,105570,1,8,0:0:0:0:
256,192,105999,1,0,0:0:0:0:
256,192,106642,1,8,0:0:0:0:
256,192,106856,1,0,0:0:0:0:
256,192,107285,1,0,0:0:0:0:
256,192,107499,1,8,0:0:0:0:
256,192,107928,1,0,0:0:0:0:
256,192,108142,1,0,0:0:0:0:
256,192,108356,1,8,0:0:0:0:
256,192,108999,1,0,0:0:0:0:
256,192,109428,1,12,0:0:0:0:
256,192,109856,1,8,0:0:0:0:
256,192,110070,1,0,0:0:0:0:
256,192,110499,1,0,0:0:0:0:
256,192,110713,1,8,0:0:0:0:
256,192,111142,1,8,0:0:0:0:
256,192,111570,1,0,0:0:0:0:
256,192,111785,1,8,0:0:0:0:
256,192,112213,1,0,0:0:0:0:
256,192,112428,1,8,0:0:0:0:
256,192,112642,1,0,0:0:0:0:
256,192,112856,1,8,0:0:0:0:
256,192,113285,1,8,0:0:0:0:
256,192,113499,1,0,0:0:0:0:
256,192,113928,1,8,0:0:0:0:
256,192,114142,1,0,0:0:0:0:
256,192,114356,1,0,0:0:0:0:
256,192,114785,1,4,0:0:0:0:
256,192,114999,1,4,0:0:0:0:
256,192,115213,1,4,0:0:0:0:
256,192,115428,1,4,0:0:0:0:
256,192,116285,1,12,0:0:0:0:
256,192,116713,1,8,0:0:0:0:
256,192,116928,1,0,0:0:0:0:
256,192,117142,1,0,0:0:0:0:
256,192,117356,1,0,0:0:0:0:
256,192,117570,1,8,0:0:0:0:
256,192,118213,1,0,0:0:0:0:
256,192,118428,1,8,0:0:0:0:
256,192,118642,1,0,0:0:0:0:
256,192,118856,1,8,0:0:0:0:
256,192,119070,1,0,0:0:0:0:
256,192,119285,1,0,0:0:0:0:
256,192,119713,1,0,0:0:0:0:
256,192,120142,1,8,0:0:0:0:
256,192,120356,1,0,0:0:0:0:
256,192,120785,1,0,0:0:0:0:
256,192,120999,1,8,0:0:0:0:
256,192,121428,1,0,0:0:0:0:
256,192,121642,1,0,0:0:0:0:
256,192,122070,1,8,0:0:0:0:
256,192,122499,1,8,0:0:0:0:
256,192,122713,1,8,0:0:0:0:
256,192,122928,1,0,0:0:0:0:
256,192,123142,1,12,0:0:0:0:
256,192,123570,1,8,0:0:0:0:
256,192,123785,1,0,0:0:0:0:
256,192,123999,1,8,0:0:0:0:
256,192,124213,1,0,0:0:0:0:
256,192,124428,1,8,0:0:0:0:
256,192,125070,1,0,0:0:0:0:
256,192,125285,1,8,0:0:0:0:
256,192,125499,1,8,0:0:0:0:
256,192,125713,1,8,0:0:0:0:
256,192,125928,1,0,0:0:0:0:
256,192,126142,1,0,0:0:0:0:
256,192,126570,1,8,0:0:0:0:
256,192,126785,1,0,0:0:0:0:
256,192,126999,1,8,0:0:0:0:
256,192,127428,1,0,0:0:0:0:
256,192,127856,1,8,0:0:0:0:
256,192,128070,1,0,0:0:0:0:
256,192,128499,1,8,0:0:0:0:
256,192,128713,1,8,0:0:0:0:
256,192,128928,1,0,0:0:0:0:
256,192,129570,1,0,0:0:0:0:
256,192,129999,1,12,0:0:0:0:
256,192,130428,1,8,0:0:0:0:
256,192,130856,1,0,0:0:0:0:
256,192,131070,1,0,0:0:0:0:
256,192,131285,1,8,0:0:0:0:
256,192,131499,1,0,0:0:0:0:
256,192,131928,1,8,0:0:0:0:
256,192,132356,1,0,0:0:0:0:
256,192,132785,1,8,0:0:0:0:
256,192,132999,1,8,0:0:0:0:
256,192,133428,1,0,0:0:0:0:
256,192,133856,1,8,0:0:0:0:
256,192,134070,1,8,0:0:0:0:
256,192,134285,1,0,0:0:0:0:
256,192,134499,1,0,0:0:0:0:
256,192,134928,1,8,0:0:0:0:
256,192,135356,1,0,0:0:0:0:
256,192,135785,1,8,0:0:0:0:
256,192,136213,1,8,0:0:0:0:
256,192,136428,1,0,0:0:0:0:
256,192,136642,1,0,0:0:0:0:
256,192,136856,1,12,0:0:0:0:
256,192,137285,1,8,0:0:0:0:
256,192,137713,1,0,0:0:0:0:
256,192,138142,1,8,0:0:0:0:
256,192,138356,1,8,0:0:0:0:
256,192,138785,1,0,0:0:0:0:
256,192,139213,1,8,0:0:0:0:
256,192,139642,1,8,0:0:0:0:
256,192,139856,1,8,0:0:0:0:
256,192,140713,1,8,0:0:0:0:
256,192,140928,1,0,0:0:0:0:
256,192,141142,1,8,0:0:0:0:
256,192,141570,1,8,0:0:0:0:
256,192,141785,1,0,0:0:0:0:
256,192,142213,1,8,0:0:0:0:
256,192,142428,1,8,0:0:0:0:
256,192,142642,1,0,0:0:0:0:
256,192,142856,1,8,0:0:0:0:
256,192,143070,1,8,0:0:0:0:
256,192,143499,1,0,0:0:0:0:
256,192,143928,1,8,0:0:0:0:
256,192,144142,1,8,0:0:0:0:
256,192,144356,1,0,0:0:0:0:
256,192,144785,1,0,0:0:0:0:
256,192,144999,1,8,0:0:0:0:
256,192,145428,1,8,0:0:0:0:
256,192,146070,1,0,0:0:0:0:
256,192,146713,1,8,0:0:0:0:
256,192,146928,1,4,0:0:0:0:
256,192,147356,1,4,0:0:0:0:
256,192,147785,1,4,0:0:0:0:
256,192,148213,1,4,0:0:0:0:
256,192,148642,1,0,0:0:0:0:
256,192,148856,1,12,0:0:0:0:
256,192,149713,1,0,0:0:0:0:
256,192,150142,1,8,0:0:0:0:
256,192,150356,1,0,0:0:0:0:
256,192,150785,1,0,0:0:0:0:
256,192,151213,1,0,0:0:0:0:
256,192,151642,1,0,0:0:0:0:
256,192,151856,1,8,0:0:0:0:
256,192,152285,1,0,0:0:0:0:
256,192,153142,1,0,0:0:0:0:
256,192,153570,1,8,0:0:0:0:
256,192,153785,1,8,0:0:0:0:
256,192,154213,1,0,0:0:0:0:
256,192,154642,1,0,0:0:0:0:
256,192,155070,1,0,0:0:0:0:
256,192,155285,1,8,0:0:0:0:
256,192,155713,1,4,0:0:0:0:
256,192,156142,1,8,0:0:0:0:
256,192,156356,1,0,0:0:0:0:
256,192,156999,1,8,0:0:0:0:
256,192,157213,1,0,0:0:0:0:
256,192,157642,1,0,0:0:0:0:
256,192,158070,1,8,0:0:0:0:
256,192,158499,1,0,0:0:0:0:
256,192,158713,1,8,0:0:0:0:
256,192,159142,1,12,0:0:0:0:
256,192,159570,1,8,0:0:0:0:
256,192,159785,1,0,0:0:0:0:
256,192,160213,1,0,0:0:0:0:
256,192,160642,1,12,0:0:0:0:
256,192,161070,1,0,0:0:0:0:
256,192,161285,1,8,0:0:0:0:
256,192,161499,1,8,0:0:0:0:
256,192,161713,1,8,0:0:0:0:
256,192,162356,1,8,0:0:0:0:
256,192,162785,1,8,0:0:0:0:
256,192,162999,1,8,0:0:0:0:
256,192,163213,1,0,0:0:0:0:
256,192,163642,1,0,0:0:0:0:
256,192,163856,1,8,0:0:0:0:
256,192,164070,1,8,0:0:0:0:
256,192,164285,1,4,0:0:0:0:
256,192,165356,1,0,0:0:0:0:
256,192,165785,1,0,0:0:0:0:
256,192,167070,1,8,0:0:0:0:
256,192,167285,1,8,0:0:0:0:
256,192,167713,1,0,0:0:0:0:
256,192,168785,1,8,0:0:0:0:
256,192,168999,1,0,0:0:0:0:
256,192,169213,1,12,0:0:0:0:
256,192,169642,1,0,0:0:0:0:
256,192,169856,1,8,0:0:0:0:
256,192,170285,1,8,0:0:0:0:
256,192,170713,1,8,0:0:0:0:
256,192,170928,1,8,0:0:0:0:
256,192,171142,1,4,0:0:0:0:
256,192,172213,1,0,0:0:0:0:
256,192,172642,1,0,0:0:0:0:
256,192,173928,1,8,0:0:0:0:
256,192,174142,1,8,0:0:0:0:
256,192,174570,1,0,0:0:0:0:
256,192,175642,1,8,0:0:0:0:
256,192,175856,1,8,0:0:0:0:
256,192,176070,1,4,0:0:0:0:
256,192,176499,1,0,0:0:0:0:
256,192,176713,1,8,0:0:0:0:
256,192,176928,1,0,0:0:0:0:
256,192,177142,1,8,0:0:0:0:
256,192,177570,1,0,0:0:0:0:
256,192,177999,1,12,0:0:0:0:
256,192,178428,1,8,0:0:0:0:
256,192,178856,1,0,0:0:0:0:
256,192,179070,1,0,0:0:0:0:
256,192,179285,1,8,0:0:0:0:
256,192,179499,1,8,0:0:0:0:
256,192,179928,1,0,0:0:0:0:
256,192,180356,1,8,0:0:0:0:
256,192,180785,1,8,0:0:0:0:
256,192,180999,1,8,0:0:0:0:
256,192,181428,1,0,0:0:0:0:
256,192,181856,1,8,0:0:0:0:
256,192,182070,1,8,0:0:0:0:
256,192,182285,1,8,0:0:0:0:
256,192,182499,1,0,0:0:0:0:
256,192,182928,1,0,0:0:0:0:
256,192,183356,1,0,0:0:0:0:
256,192,183785,1,8,0:0:0:0:
256,192,184213,1,8,0:0:0:0:
256,192,184428,1,8,0:0:0:0:
256,192,184642,1,0,0:0:0:0:
256,192,184856,1,12,0:0:0:0:
256,192,185285,1,8,0:0:0:0:
256,192,185713,1,0,0:0:0:0:
256,192,186142,1,0,0:0:0:0:
256,192,186356,1,8,0:0:0:0:
256,192,186785,1,8,0:0:0:0:
256,192,187213,1,0,0:0:0:0:
256,192,187642,1,8,0:0:0:0:
256,192,187856,1,8,0:0:0:0:
256,192,188713,1,0,0:0:0:0:
256,192,188928,1,0,0:0:0:0:
256,192,189142,1,8,0:0:0:0:
256,192,189570,1,8,0:0:0:0:
256,192,189785,1,0,0:0:0:0:
256,192,190213,1,0,0:0:0:0:
256,192,190428,1,8,0:0:0:0:
256,192,190642,1,0,0:0:0:0:
256,192,190856,1,8,0:0:0:0:
256,192,191070,1,0,0:0:0:0:
256,192,191499,1,8,0:0:0:0:
256,192,191928,1,8,0:0:0:0:
256,192,192142,1,8,0:0:0:0:
256,192,192356,1,0,0:0:0:0:
256,192,192785,1,0,0:0:0:0:
256,192,192999,1,8,0:0:0:0:
256,192,193428,1,8,0:0:0:0:
256,192,194070,1,0,0:0:0:0:
256,192,194713,1,8,0:0:0:0:
256,192,194928,1,0,0:0:0:0:
256,192,195356,1,0,0:0:0:0:
256,192,195570,1,8,0:0:0:0:
256,192,195785,1,0,0:0:0:0:
256,192,196428,1,0,0:0:0:0:
256,192,196856,1,12,0:0:0:0:
256,192,197285,1,0,0:0:0:0:
256,192,197713,1,0,0:0:0:0:
256,192,197928,1,8,0:0:0:0:
256,192,198142,1,8,0:0:0:0:
256,192,198356,1,0,0:0:0:0:
256,192,198999,1,8,0:0:0:0:
256,192,199213,1,0,0:0:0:0:
256,192,199428,1,8,0:0:0:0:
256,192,199856,1,0,0:0:0:0:
256,192,200285,1,0,0:0:0:0:
256,192,200713,1,8,0:0:0:0:
256,192,200928,1,0,0:0:0:0:
256,192,201142,1,8,0:0:0:0:
256,192,201356,1,8,0:0:0:0:
256,192,201785,1,0,0:0:0:0:
256,192,202213,1,8,0:0:0:0:
256,192,202428,1,8,0:0:0:0:
256,192,202642,1,8,0:0:0:0:
256,192,203070,1,8,0:0:0:0:
256,192,203285,1,0,0:0:0:0:
256,192,203713,1,12,0:0:0:0:
256,192,204142,1,8,0:0:0:0:
256,192,204570,1,0,0:0:0:0:
256,192,204785,1,8,0:0:0:0:
256,192,204999,1,8,0:0:0:0:
256,192,205213,1,8,0:0:0:0:
256,192,205856,1,8,0:0:0:0:
256,192,206070,1,8,0:0:0:0:
256,192,206285,1,0,0:0:0:0:
256,192,206713,1,0,0:0:0:0:
256,192,207142,1,12,0:0:0:0:
256,192,207785,1,4,0:0:0:0:
256,192,208428,1,12,0:0:0:0:
256,192,209070,1,8,0:0:0:0:
256,192,209285,1,8,0:0:0:0:
256,192,209499,1,8,0:0:0:0:
256,192,209928,1,0,0:0:0:0:
256,192,210570,1,0,0:0:0:0:
256,192,210785,8,0,215713,0:0:0:0:
