osu file format v14

[General]
AudioFilename: audio.mp3
AudioLeadIn: 0
PreviewTime: 115535
Countdown: 0
SampleSet: Normal
StackLeniency: 0.7
Mode: 1
LetterboxInBreaks: 0
WidescreenStoryboard: 0

[Editor]
Bookmarks: 1636,15350,29064,42778,68278,75350,89064,102778,149064,164493
DistanceSpacing: 1.2
BeatDivisor: 4
GridSize: 4
TimelineZoom: 4.799998

[Metadata]
Title:Koi no Yukue
TitleUnicode:恋ノ行方
Artist:Akase Akari
ArtistUnicode:あかせあかり
Creator:Linkff001
Version:<3
Source:その着せ替え人形は恋をする
Tags:d0ug d0ug_yt japanese pop jpop j-pop ed ending full ver size 着せ恋 kisekoi sono bisque doll wa koi wo o suru my dress-up darling 喜多川海夢 kitagawa marin
BeatmapID:4493159
BeatmapSetID:2135326

[Difficulty]
HPDrainRate:6
CircleSize:5
OverallDifficulty:5
ApproachRate:5
SliderMultiplier:1.4
SliderTickRate:1

[Events]
//Background and Video events
0,0,"my-dress-up-darling-marin-beautiful-2k-wallpaper-uhdpaper.com-78@1@g.jpg",0,0
//Break Periods
//Storyboard Layer 0 (Background)
//Storyboard Layer 1 (Fail)
//Storyboard Layer 2 (Pass)
//Storyboard Layer 3 (Foreground)
//Storyboard Layer 4 (Overlay)
//Storyboard Sound Samples

[TimingPoints]
-286,428.571428571429,4,1,0,70,1,0
356,-117.647058823529,4,1,0,70,0,0
459,-115.591977571706,4,1,0,70,0,0
566,-113.625523345169,4,1,0,70,0,0
780,-109.886730562247,4,1,0,70,0,0
994,-106.386145983228,4,1,0,70,0,0
1101,-104.718179154049,4,1,0,70,0,0
1209,-103.086835272622,4,1,0,70,0,0
1428,428.571428571429,4,1,0,70,1,0
1428,-100,4,1,0,70,0,0
11708,-100,4,1,0,70,0,0
11922,-100.628007982158,4,1,0,69,0,0
12030,-100.947951012718,4,1,0,69,0,0
12137,-101.266944272172,4,1,0,69,0,0
12351,-101.911017326953,4,1,0,68,0,0
12565,-102.563335626477,4,1,0,68,0,0
12780,-103.22716599434,4,1,0,67,0,0
12994,-103.896497394255,4,1,0,66,0,0
13637,-105.960878835635,4,1,0,64,0,0
13851,-106.66625190531,4,1,0,64,0,0
14065,-107.381079134438,4,1,0,63,0,0
14494,-108.843321482986,4,1,0,62,0,0
15137,-111.111111111111,4,1,0,60,0,0
26923,-111.111111111111,4,1,0,60,0,0
27142,-109.89010989011,4,1,0,61,0,0
27351,-108.436445444319,4,1,0,62,0,0
27780,-105.881706848262,4,1,0,64,0,0
27994,-104.651793953211,4,1,0,66,0,0
28101,-104.047490555855,4,1,0,66,0,0
28208,-103.450126093255,4,1,0,67,0,0
28423,-102.270316146828,4,1,0,68,0,0
28530,-101.693127274645,4,1,0,68,0,0
28637,-101.122416867723,4,1,0,69,0,0
28744,-100.558076461691,4,1,0,69,0,0
28851,-100,4,1,0,70,0,0
41065,-95.2380952380952,4,1,0,75,0,0
42570,-86.9565217391304,4,1,0,85,0,1
66565,-86.95652173913,4,1,0,85,0,1
66780,-87.501822954645,4,1,0,84,0,1
66994,-88.051422030466,4,1,0,84,0,1
67208,-88.607968809995,4,1,0,83,0,1
67315,-88.888888888889,4,1,0,83,0,1
67423,-89.174246477617,4,1,0,82,0,1
67530,-89.458774414791,4,1,0,82,0,1
67637,-89.745123848271,4,1,0,81,0,1
67851,-90.323357620281,4,1,0,81,0,1
68065,-90.909090909091,4,1,0,80,0,1
75142,-100,4,1,0,70,0,0
85636,-100.311644988076,4,1,0,70,0,0
85744,-100.470405486599,4,1,0,70,0,0
85851,-100.628192332531,4,1,0,69,0,0
86065,-100.945257516417,4,1,0,69,0,0
86279,-101.264327070779,4,1,0,69,0,0
86494,-101.586925276712,4,1,0,68,0,0
86708,-101.910070605723,4,1,0,68,0,0
87142,-103.092783505155,4,1,0,67,0,0
87351,-102.893504622404,4,1,0,67,0,0
87565,-103.225029359511,4,1,0,67,0,0
87779,-103.558697359676,4,1,0,67,0,0
87994,-103.896103896104,4,1,0,66,0,0
88101,-104.064843204517,4,1,0,66,0,0
88208,-104.234131508932,4,1,0,66,0,0
88315,-104.403971492965,4,1,0,66,0,0
88423,-104.5759609518,4,1,0,66,0,0
88637,-104.918434181128,4,1,0,65,0,0
88851,-105.263157894737,4,1,0,65,0,0
100637,-105.263157894737,4,1,0,65,0,0
100856,-104.166666666667,4,1,0,66,0,0
101065,-104.047490555855,4,1,0,66,0,0
101494,-102.856838005815,4,1,0,67,0,0
101708,-102.273028671459,4,1,0,68,0,0
101815,-101.983602221634,4,1,0,68,0,0
101923,-101.693127274645,4,1,0,68,0,0
102137,-101.122416867723,4,1,0,69,0,0
102351,-100.558076461691,4,1,0,69,0,0
102458,-100.278261774114,4,1,0,70,0,0
102565,-100,4,1,0,70,0,0
114780,-95.2380952380952,4,1,0,75,0,0
116285,-86.9565217391304,4,1,0,85,0,1
140280,-86.95652173913,4,1,0,85,0,1
140495,-87.501822954645,4,1,0,84,0,1
140709,-88.051422030466,4,1,0,84,0,1
140923,-88.607968809995,4,1,0,83,0,1
141030,-88.888888888889,4,1,0,83,0,1
141138,-89.174246477617,4,1,0,82,0,1
141245,-89.458774414791,4,1,0,82,0,1
141352,-89.745123848271,4,1,0,81,0,1
141566,-90.323357620281,4,1,0,81,0,1
141780,-90.909090909091,4,1,0,80,0,1
147137,-92.781520692974,4,1,0,78,0,1
147351,-94.732704402516,4,1,0,76,0,1
147458,-95.739398152746,4,1,0,74,0,1
147565,-96.767717325838,4,1,0,73,0,1
147779,-98.892080426754,4,1,0,71,0,1
147887,-100,4,1,0,70,0,1
147994,-101.122416867723,4,1,0,69,0,1
148208,-103.44457559824,4,1,0,67,0,1
148422,-105.875892366831,4,1,0,64,0,1
148637,-108.436445444319,4,1,0,62,0,1
148856,-111.111111111111,4,1,0,60,0,0
162780,-111.111111111111,4,1,0,60,0,0
162994,-112.900797832305,4,1,0,59,0,0
163208,-114.749082007344,4,1,0,57,0,0
163315,-115.696104897802,4,1,0,56,0,0
163423,-116.667962977366,4,1,0,56,0,0
163637,-118.642727200823,4,1,0,54,0,0
163851,-120.685493603669,4,1,0,53,0,0
164065,-122.799836266885,4,1,0,51,0,0
164280,-125,4,1,0,50,0,0
176065,-125,4,1,0,50,0,0
176285,-120.481927710843,4,1,0,53,0,0
176494,-116.658889407373,4,1,0,56,0,0
176708,-112.900797832305,4,1,0,59,0,0
176923,-109.361329833771,4,1,0,61,0,0
177137,-106.052036199095,4,1,0,64,0,0
177351,-102.937139720011,4,1,0,67,0,0
177565,-100,4,1,0,70,0,0
177999,-86.9565217391304,4,1,0,85,0,1
188280,-86.95652173913,4,1,0,85,0,1
188495,-87.501822954645,4,1,0,84,0,1
188709,-88.051422030466,4,1,0,84,0,1
188923,-88.607968809995,4,1,0,83,0,1
189030,-88.888888888889,4,1,0,83,0,1
189138,-89.174246477617,4,1,0,82,0,1
189245,-89.458774414791,4,1,0,82,0,1
189352,-89.745123848271,4,1,0,81,0,1
189566,-90.323357620281,4,1,0,81,0,1
189780,-90.909090909091,4,1,0,80,0,1
196856,-100,4,1,0,70,0,0
207137,-100,4,1,0,70,0,0
207351,-100.628007982158,4,1,0,69,0,0
207459,-100.947951012718,4,1,0,69,0,0
207566,-101.266944272172,4,1,0,69,0,0
207780,-101.911017326953,4,1,0,68,0,0
207994,-102.563335626477,4,1,0,68,0,0
208209,-103.22716599434,4,1,0,67,0,0
208423,-103.896497394255,4,1,0,66,0,0
208856,-105.263157894737,4,1,0,65,0,0
209066,-105.960878835635,4,1,0,64,0,0
209280,-106.66625190531,4,1,0,64,0,0
209494,-107.381079134438,4,1,0,63,0,0
209923,-108.843321482986,4,1,0,62,0,0
210566,-111.111111111111,4,1,0,60,0,0
210994,-111.111111111111,4,1,0,60,0,0
211423,-111.111111111111,4,1,0,54,0,0
211851,-111.111111111111,4,1,0,50,0,0
212280,-111.111111111111,4,1,0,44,0,0
212708,-111.111111111111,4,1,0,38,0,0
213137,-111.111111111111,4,1,0,30,0,0
213565,-111.111111111111,4,1,0,26,0,0
213994,-111.111111111111,4,1,0,22,0,0
214423,-111.111111111111,4,1,0,18,0,0
214852,-111.111111111111,4,1,0,14,0,0
215280,-111.111111111111,4,1,0,10,0,0
215709,-111.111111111111,4,1,0,6,0,0

[HitObjects]
272,312,356,5,8,0:0:0:0:
272,312,464,1,8,0:0:0:0:
272,312,571,1,0,0:0:0:0:
256,236,785,1,8,0:0:0:0:
204,152,999,1,0,0:0:0:0:
216,184,1106,1,8,0:0:0:0:
216,184,1214,1,0,0:0:0:0:
92,164,1428,1,12,0:0:0:0:
236,164,1856,1,0,0:0:0:0:
156,228,2070,1,0,0:0:0:0:
192,196,2285,1,8,0:0:0:0:
188,120,2499,1,0,0:0:0:0:
176,200,2713,1,0,0:0:0:0:
180,128,2928,1,8,0:0:0:0:
232,268,3356,1,0,0:0:0:0:
220,212,3570,1,8,0:0:0:0:
204,284,3785,1,8,0:0:0:0:
208,252,3892,1,8,0:0:0:0:
208,252,3999,1,0,0:0:0:0:
296,248,4213,1,0,0:0:0:0:
296,248,4428,1,8,0:0:0:0:
232,196,4642,1,0,0:0:0:0:
232,196,4749,1,0,0:0:0:0:
232,196,4856,1,8,0:0:0:0:
232,196,5070,1,0,0:0:0:0:
232,196,5285,1,8,0:0:0:0:
232,196,5499,1,0,0:0:0:0:
232,196,5713,1,8,0:0:0:0:
232,196,5820,1,0,0:0:0:0:
276,196,5928,1,8,0:0:0:0:
232,196,6142,1,0,0:0:0:0:
232,196,6356,1,8,0:0:0:0:
92,112,6785,1,8,0:0:0:0:
156,156,6999,1,8,0:0:0:0:
232,204,7213,1,0,0:0:0:0:
232,204,7320,1,8,0:0:0:0:
232,204,7535,1,8,0:0:0:0:
232,204,7642,1,0,0:0:0:0:
176,148,7856,1,8,0:0:0:0:
252,180,8070,1,0,0:0:0:0:
209,177,8178,1,0,0:0:0:0:
316,212,8285,1,12,0:0:0:0:
236,164,8713,1,0,0:0:0:0:
156,228,8927,1,0,0:0:0:0:
192,196,9142,1,8,0:0:0:0:
188,120,9356,1,0,0:0:0:0:
176,200,9570,1,0,0:0:0:0:
180,128,9785,1,8,0:0:0:0:
232,268,10213,1,0,0:0:0:0:
220,212,10427,1,8,0:0:0:0:
204,284,10642,1,8,0:0:0:0:
208,252,10749,1,8,0:0:0:0:
208,252,10856,1,0,0:0:0:0:
296,248,11070,1,0,0:0:0:0:
296,248,11285,1,8,0:0:0:0:
232,196,11499,1,0,0:0:0:0:
232,196,11713,1,8,0:0:0:0:
232,196,11927,1,0,0:0:0:0:
257,163,12035,1,0,0:0:0:0:
232,196,12142,1,8,0:0:0:0:
199,118,12356,1,0,0:0:0:0:
276,127,12570,1,8,0:0:0:0:
90,228,12785,1,0,0:0:0:0:
143,174,12999,1,8,0:0:0:0:
143,174,13642,1,8,0:0:0:0:
143,174,13856,1,8,0:0:0:0:
212,129,14070,1,8,0:0:0:0:
143,174,14499,1,0,0:0:0:0:
138,143,15142,1,8,0:0:0:0:
493,371,16213,1,8,0:0:0:0:
464,352,16320,1,8,0:0:0:0:
437,335,16428,1,0,0:0:0:0:
349,286,16642,1,8,0:0:0:0:
208,207,17070,1,0,0:0:0:0:
273,248,17285,1,0,0:0:0:0:
204,211,17499,1,8,0:0:0:0:
204,211,17928,1,8,0:0:0:0:
204,211,18142,1,0,0:0:0:0:
204,211,18570,1,8,0:0:0:0:
204,211,19213,1,8,0:0:0:0:
204,211,19320,1,8,0:0:0:0:
204,211,19428,1,0,0:0:0:0:
204,211,19642,1,8,0:0:0:0:
204,211,19856,1,0,0:0:0:0:
257,261,20070,1,8,0:0:0:0:
365,369,20499,1,0,0:0:0:0:
313,317,20928,1,8,0:0:0:0:
267,259,21142,1,0,0:0:0:0:
250,229,21249,1,0,0:0:0:0:
232,198,21356,1,8,0:0:0:0:
191,129,21570,1,0,0:0:0:0:
262,160,21785,1,8,0:0:0:0:
262,160,21892,1,8,0:0:0:0:
262,160,21999,1,0,0:0:0:0:
6,211,22856,1,8,0:0:0:0:
71,192,23070,1,0,0:0:0:0:
102,183,23178,1,0,0:0:0:0:
135,173,23285,1,0,0:0:0:0:
211,147,23499,1,8,0:0:0:0:
359,89,23928,1,0,0:0:0:0:
283,118,24142,1,0,0:0:0:0:
206,150,24356,1,8,0:0:0:0:
356,88,24785,1,0,0:0:0:0:
285,117,24999,1,8,0:0:0:0:
129,173,25428,1,8,0:0:0:0:
364,87,26070,1,0,0:0:0:0:
329,99,26178,1,0,0:0:0:0:
292,112,26285,1,8,0:0:0:0:
217,142,26499,1,0,0:0:0:0:
289,113,26713,1,0,0:0:0:0:
218,140,26928,1,8,0:0:0:0:
369,82,27356,1,8,0:0:0:0:
221,139,27785,1,0,0:0:0:0:
280,167,27999,1,8,0:0:0:0:
313,182,28106,1,8,0:0:0:0:
368,209,28213,1,8,0:0:0:0:
294,176,28428,1,0,0:0:0:0:
294,176,28535,1,0,0:0:0:0:
294,176,28642,1,0,0:0:0:0:
294,176,28749,1,0,0:0:0:0:
294,176,28856,1,12,0:0:0:0:
151,258,29285,1,0,0:0:0:0:
221,218,29499,1,8,0:0:0:0:
221,218,29606,1,8,0:0:0:0:
221,218,29713,1,0,0:0:0:0:
250,140,29928,1,8,0:0:0:0:
222,215,30142,1,0,0:0:0:0:
252,137,30356,1,0,0:0:0:0:
230,108,30463,1,0,0:0:0:0:
221,215,30570,1,8,0:0:0:0:
202,142,30785,1,0,0:0:0:0:
182,66,30999,1,0,0:0:0:0:
182,66,31213,1,8,0:0:0:0:
329,94,31642,1,0,0:0:0:0:
258,123,31856,1,8,0:0:0:0:
258,123,32070,1,0,0:0:0:0:
258,123,32285,1,8,0:0:0:0:
361,230,32713,1,8,0:0:0:0:
290,223,32928,1,8,0:0:0:0:
218,216,33142,1,0,0:0:0:0:
235,193,33249,5,0,0:0:0:0:
301,233,33356,1,8,0:0:0:0:
218,216,33570,1,0,0:0:0:0:
218,216,33785,1,8,0:0:0:0:
246,187,33892,1,8,0:0:0:0:
277,156,33999,1,0,0:0:0:0:
333,99,34213,1,8,0:0:0:0:
290,141,34428,1,0,0:0:0:0:
216,218,34642,1,8,0:0:0:0:
244,188,34749,1,8,0:0:0:0:
268,164,34856,1,8,0:0:0:0:
290,141,34963,1,8,0:0:0:0:
290,141,35070,1,0,0:0:0:0:
317,205,35285,1,8,0:0:0:0:
317,205,35499,1,0,0:0:0:0:
317,205,35713,1,12,0:0:0:0:
317,205,36142,1,8,0:0:0:0:
317,205,36356,1,0,0:0:0:0:
286,187,36463,1,0,0:0:0:0:
253,168,36570,1,8,0:0:0:0:
317,205,36784,1,0,0:0:0:0:
317,205,36998,1,8,0:0:0:0:
200,128,37106,1,8,0:0:0:0:
266,163,37213,1,0,0:0:0:0:
200,128,37428,1,8,0:0:0:0:
272,152,37642,1,0,0:0:0:0:
251,75,37856,1,0,0:0:0:0:
251,75,38070,1,8,0:0:0:0:
349,200,38499,1,0,0:0:0:0:
297,140,38713,1,8,0:0:0:0:
350,200,38928,1,8,0:0:0:0:
328,189,39035,1,0,0:0:0:0:
299,146,39142,1,8,0:0:0:0:
235,164,39356,1,0,0:0:0:0:
292,146,39570,1,0,0:0:0:0:
210,172,39785,1,8,0:0:0:0:
270,218,39999,1,0,0:0:0:0:
208,168,40213,1,0,0:0:0:0:
269,218,40428,1,8,0:0:0:0:
214,166,40642,1,8,0:0:0:0:
283,236,41070,1,8,0:0:0:0:
228,186,41285,1,8,0:0:0:0:
228,186,41499,5,8,0:0:0:0:
220,180,41713,1,8,0:0:0:0:
220,180,42570,5,12,0:0:0:0:
220,180,42999,1,0,0:0:0:0:
220,180,43213,1,0,0:0:0:0:
220,180,43320,1,0,0:0:0:0:
220,180,43428,1,8,0:0:0:0:
128,152,43642,1,0,0:0:0:0:
128,152,43856,1,0,0:0:0:0:
212,192,44070,1,8,0:0:0:0:
296,228,44499,1,0,0:0:0:0:
212,188,44713,1,8,0:0:0:0:
188,160,44820,1,8,0:0:0:0:
160,128,44928,1,0,0:0:0:0:
184,148,45035,1,0,0:0:0:0:
160,128,45142,1,8,0:0:0:0:
160,128,45356,1,0,0:0:0:0:
176,36,45570,1,8,0:0:0:0:
264,64,45785,1,0,0:0:0:0:
304,80,45999,1,8,0:0:0:0:
292,112,46106,1,8,0:0:0:0:
280,160,46213,1,0,0:0:0:0:
304,80,46428,1,8,0:0:0:0:
240,188,46642,1,8,0:0:0:0:
232,216,46749,1,8,0:0:0:0:
244,280,46856,1,0,0:0:0:0:
432,200,47070,1,8,0:0:0:0:
332,200,47285,1,8,0:0:0:0:
296,212,47392,1,8,0:0:0:0:
248,232,47499,1,0,0:0:0:0:
368,196,47713,1,8,0:0:0:0:
368,196,47928,1,8,0:0:0:0:
312,212,48035,1,0,0:0:0:0:
280,220,48142,1,8,0:0:0:0:
368,196,48356,1,0,0:0:0:0:
280,212,48570,1,8,0:0:0:0:
280,212,48785,1,0,0:0:0:0:
240,176,48892,1,0,0:0:0:0:
324,136,48999,1,8,0:0:0:0:
304,156,49106,1,8,0:0:0:0:
276,216,49213,1,0,0:0:0:0:
328,136,49428,1,12,0:0:0:0:
180,260,49856,1,0,0:0:0:0:
240,180,50070,1,8,0:0:0:0:
204,228,50178,1,0,0:0:0:0:
228,188,50285,1,0,0:0:0:0:
164,276,50499,1,8,0:0:0:0:
220,200,50713,1,8,0:0:0:0:
304,204,50928,1,0,0:0:0:0:
216,216,51356,1,8,0:0:0:0:
284,152,51570,1,0,0:0:0:0:
232,196,51678,1,0,0:0:0:0:
272,164,51785,1,8,0:0:0:0:
264,200,51892,1,0,0:0:0:0:
200,220,51999,1,8,0:0:0:0:
280,244,52213,1,0,0:0:0:0:
280,244,52428,1,8,0:0:0:0:
280,244,52642,1,0,0:0:0:0:
300,256,52749,1,0,0:0:0:0:
300,256,52856,1,8,0:0:0:0:
300,256,53070,1,8,0:0:0:0:
300,256,53178,1,8,0:0:0:0:
280,244,53285,1,0,0:0:0:0:
280,244,53499,1,0,0:0:0:0:
280,244,53713,1,8,0:0:0:0:
336,260,53820,1,8,0:0:0:0:
308,248,53928,1,0,0:0:0:0:
264,228,54035,1,0,0:0:0:0:
224,208,54142,1,8,0:0:0:0:
280,244,54356,1,0,0:0:0:0:
352,288,54570,1,8,0:0:0:0:
280,252,54785,1,0,0:0:0:0:
280,252,54892,1,0,0:0:0:0:
280,252,54999,1,8,0:0:0:0:
280,252,55213,1,8,0:0:0:0:
444,148,55642,1,0,0:0:0:0:
352,176,55856,1,8,0:0:0:0:
276,200,56070,1,0,0:0:0:0:
276,200,56178,1,0,0:0:0:0:
276,200,56285,1,12,0:0:0:0:
368,380,56713,1,8,0:0:0:0:
300,200,57142,1,0,0:0:0:0:
248,132,57356,1,8,0:0:0:0:
328,212,57570,1,8,0:0:0:0:
256,148,57785,1,0,0:0:0:0:
340,248,58213,1,0,0:0:0:0:
268,200,58428,1,8,0:0:0:0:
348,248,58642,1,0,0:0:0:0:
308,224,58749,1,0,0:0:0:0:
308,224,58856,1,8,0:0:0:0:
308,224,59070,1,0,0:0:0:0:
308,224,59285,1,8,0:0:0:0:
308,224,59392,1,8,0:0:0:0:
308,224,59499,1,0,0:0:0:0:
308,224,59606,1,0,0:0:0:0:
308,224,59713,1,8,0:0:0:0:
272,176,60142,1,0,0:0:0:0:
308,200,60249,1,0,0:0:0:0:
196,156,60356,1,8,0:0:0:0:
224,184,60463,1,0,0:0:0:0:
224,232,60570,1,8,0:0:0:0:
184,148,60785,1,0,0:0:0:0:
272,176,60999,1,8,0:0:0:0:
308,264,61213,1,0,0:0:0:0:
228,92,61642,1,0,0:0:0:0:
264,164,61856,1,8,0:0:0:0:
296,240,62070,1,8,0:0:0:0:
284,204,62178,1,8,0:0:0:0:
284,204,62285,1,8,0:0:0:0:
284,204,62499,1,0,0:0:0:0:
284,204,62713,1,8,0:0:0:0:
284,204,62928,1,0,0:0:0:0:
284,204,63035,1,0,0:0:0:0:
284,204,63142,1,12,0:0:0:0:
304,256,63570,1,8,0:0:0:0:
304,256,63999,1,0,0:0:0:0:
304,256,64213,1,8,0:0:0:0:
384,216,64428,1,0,0:0:0:0:
456,152,64642,1,8,0:0:0:0:
312,280,65070,1,0,0:0:0:0:
360,228,65285,1,0,0:0:0:0:
360,228,65499,1,8,0:0:0:0:
332,248,65606,1,8,0:0:0:0:
296,276,65713,1,0,0:0:0:0:
224,324,65928,1,8,0:0:0:0:
304,272,66142,1,0,0:0:0:0:
264,296,66249,1,0,0:0:0:0:
264,296,66356,1,0,0:0:0:0:
264,296,66463,1,0,0:0:0:0:
264,296,66570,1,8,0:0:0:0:
240,212,66785,1,0,0:0:0:0:
264,296,66999,1,8,0:0:0:0:
264,296,67213,1,8,0:0:0:0:
276,272,67320,1,8,0:0:0:0:
232,224,67428,1,0,0:0:0:0:
228,260,67535,1,0,0:0:0:0:
264,296,67642,1,0,0:0:0:0:
264,296,67856,1,8,0:0:0:0:
264,296,68070,1,0,0:0:0:0:
353,128,68499,1,8,0:0:0:0:
311,208,68713,1,0,0:0:0:0:
311,208,68928,1,0,0:0:0:0:
299,178,69035,1,0,0:0:0:0:
249,162,69142,1,8,0:0:0:0:
311,208,69356,1,0,0:0:0:0:
311,208,69570,1,8,0:0:0:0:
311,208,69785,1,8,0:0:0:0:
391,284,69999,1,0,0:0:0:0:
311,208,70213,1,8,0:0:0:0:
335,230,70320,1,8,0:0:0:0:
311,208,70428,1,8,0:0:0:0:
311,208,70642,1,0,0:0:0:0:
311,208,71070,1,0,0:0:0:0:
311,208,71285,1,8,0:0:0:0:
311,208,71499,1,0,0:0:0:0:
335,230,71606,1,8,0:0:0:0:
311,208,71713,1,8,0:0:0:0:
246,132,71928,1,0,0:0:0:0:
311,208,72142,1,8,0:0:0:0:
311,208,72356,1,0,0:0:0:0:
83,177,72785,1,0,0:0:0:0:
149,184,72999,1,8,0:0:0:0:
243,165,73213,1,8,0:0:0:0:
336,199,73428,1,0,0:0:0:0:
235,161,73642,1,8,0:0:0:0:
283,220,73749,1,8,0:0:0:0:
323,194,73856,1,0,0:0:0:0:
235,160,74070,1,0,0:0:0:0:
302,189,74178,1,0,0:0:0:0:
276,171,74285,1,8,0:0:0:0:
181,109,74499,1,0,0:0:0:0:
263,163,74713,1,8,0:0:0:0:
92,164,75142,1,12,0:0:0:0:
236,164,75570,1,0,0:0:0:0:
156,228,75784,1,8,0:0:0:0:
192,196,75999,1,8,0:0:0:0:
188,120,76213,1,0,0:0:0:0:
176,200,76427,1,8,0:0:0:0:
180,128,76642,1,0,0:0:0:0:
232,268,77070,1,0,0:0:0:0:
220,212,77284,1,8,0:0:0:0:
204,284,77499,1,0,0:0:0:0:
208,252,77606,1,8,0:0:0:0:
208,252,77713,1,0,0:0:0:0:
296,248,77927,1,0,0:0:0:0:
296,248,78142,1,8,0:0:0:0:
232,196,78356,1,8,0:0:0:0:
232,196,78463,1,0,0:0:0:0:
232,196,78570,1,8,0:0:0:0:
232,196,78784,1,0,0:0:0:0:
232,196,78999,1,8,0:0:0:0:
232,196,79213,1,0,0:0:0:0:
232,196,79427,1,0,0:0:0:0:
232,196,79534,1,0,0:0:0:0:
276,196,79642,1,8,0:0:0:0:
232,196,79856,1,0,0:0:0:0:
232,196,80070,1,8,0:0:0:0:
92,112,80499,1,8,0:0:0:0:
156,156,80713,1,8,0:0:0:0:
232,204,80927,1,8,0:0:0:0:
232,204,81034,1,0,0:0:0:0:
232,204,81249,1,0,0:0:0:0:
232,204,81356,1,8,0:0:0:0:
176,148,81570,1,0,0:0:0:0:
252,180,81784,1,0,0:0:0:0:
242,221,81892,1,0,0:0:0:0:
316,212,81999,1,12,0:0:0:0:
236,164,82427,1,0,0:0:0:0:
156,228,82641,1,0,0:0:0:0:
192,196,82856,1,8,0:0:0:0:
188,120,83070,1,8,0:0:0:0:
176,200,83284,1,0,0:0:0:0:
180,128,83499,1,8,0:0:0:0:
232,268,83927,1,0,0:0:0:0:
220,212,84141,1,8,0:0:0:0:
204,284,84356,1,0,0:0:0:0:
208,252,84463,1,8,0:0:0:0:
208,252,84570,1,0,0:0:0:0:
296,248,84784,1,8,0:0:0:0:
296,248,84999,1,8,0:0:0:0:
232,196,85213,1,0,0:0:0:0:
232,196,85427,1,8,0:0:0:0:
232,196,85641,1,8,0:0:0:0:
257,163,85749,1,8,0:0:0:0:
232,196,85856,1,8,0:0:0:0:
199,118,86070,1,0,0:0:0:0:
276,127,86284,1,8,0:0:0:0:
90,228,86499,1,0,0:0:0:0:
143,174,86713,1,8,0:0:0:0:
143,174,87356,1,8,0:0:0:0:
143,174,87570,1,8,0:0:0:0:
212,129,87784,1,0,0:0:0:0:
285,206,87999,1,8,0:0:0:0:
324,247,88106,1,8,0:0:0:0:
143,174,88213,1,0,0:0:0:0:
179,192,88320,1,0,0:0:0:0:
220,213,88428,1,0,0:0:0:0:
311,259,88642,1,0,0:0:0:0:
138,143,88856,1,8,0:0:0:0:
312,228,89285,1,8,0:0:0:0:
312,228,89499,1,0,0:0:0:0:
312,228,89606,1,0,0:0:0:0:
312,228,89713,1,8,0:0:0:0:
312,228,89928,1,8,0:0:0:0:
312,228,90035,1,0,0:0:0:0:
312,228,90142,1,8,0:0:0:0:
312,228,90356,1,0,0:0:0:0:
312,228,90785,1,0,0:0:0:0:
220,216,90999,1,8,0:0:0:0:
312,228,91213,1,8,0:0:0:0:
124,204,91642,1,0,0:0:0:0:
236,220,91856,1,8,0:0:0:0:
436,236,92285,1,8,0:0:0:0:
340,228,92499,1,0,0:0:0:0:
248,220,92713,1,0,0:0:0:0:
336,232,92928,1,8,0:0:0:0:
296,228,93035,1,0,0:0:0:0:
248,220,93142,1,8,0:0:0:0:
340,232,93356,1,0,0:0:0:0:
240,220,93570,1,8,0:0:0:0:
372,232,93785,1,0,0:0:0:0:
284,204,94213,1,0,0:0:0:0:
292,116,94428,1,8,0:0:0:0:
292,116,94642,1,8,0:0:0:0:
292,116,94856,1,0,0:0:0:0:
292,116,94963,1,0,0:0:0:0:
292,116,95070,1,8,0:0:0:0:
292,116,95285,1,0,0:0:0:0:
292,116,95499,1,8,0:0:0:0:
292,160,95606,1,8,0:0:0:0:
292,116,95713,1,0,0:0:0:0:
376,132,96142,1,8,0:0:0:0:
317,185,96356,1,0,0:0:0:0:
277,221,96463,1,0,0:0:0:0:
300,188,96570,1,8,0:0:0:0:
224,100,96785,1,8,0:0:0:0:
188,56,96892,1,8,0:0:0:0:
188,56,96999,1,0,0:0:0:0:
188,56,97213,1,8,0:0:0:0:
188,56,97642,1,0,0:0:0:0:
252,116,97856,1,8,0:0:0:0:
308,180,98070,1,0,0:0:0:0:
252,116,98285,1,8,0:0:0:0:
304,176,98499,1,8,0:0:0:0:
244,108,98713,1,0,0:0:0:0:
196,28,99142,1,0,0:0:0:0:
224,112,99356,1,8,0:0:0:0:
252,192,99570,1,8,0:0:0:0:
252,192,99785,1,8,0:0:0:0:
240,148,99892,1,8,0:0:0:0:
228,108,99999,1,0,0:0:0:0:
196,4,100213,1,8,0:0:0:0:
232,100,100428,1,0,0:0:0:0:
200,16,100642,1,8,0:0:0:0:
200,20,101070,1,8,0:0:0:0:
208,212,101499,1,0,0:0:0:0:
184,116,101713,1,8,0:0:0:0:
148,128,101820,1,8,0:0:0:0:
204,140,101928,1,0,0:0:0:0:
172,232,102142,1,8,0:0:0:0:
204,140,102356,1,0,0:0:0:0:
152,140,102463,1,0,0:0:0:0:
172,240,102570,1,12,0:0:0:0:
151,258,102999,1,0,0:0:0:0:
221,218,103213,1,8,0:0:0:0:
221,218,103320,1,8,0:0:0:0:
221,218,103427,1,0,0:0:0:0:
250,140,103642,1,8,0:0:0:0:
222,215,103856,1,0,0:0:0:0:
252,137,104070,1,8,0:0:0:0:
230,108,104177,1,0,0:0:0:0:
221,215,104284,1,8,0:0:0:0:
202,142,104499,1,0,0:0:0:0:
182,66,104713,1,0,0:0:0:0:
182,66,104927,1,8,0:0:0:0:
329,94,105356,1,8,0:0:0:0:
258,123,105570,1,0,0:0:0:0:
258,123,105784,1,8,0:0:0:0:
258,123,105999,1,0,0:0:0:0:
361,230,106427,1,8,0:0:0:0:
290,223,106642,1,8,0:0:0:0:
218,216,106856,1,0,0:0:0:0:
235,193,106963,5,0,0:0:0:0:
301,233,107070,1,8,0:0:0:0:
218,216,107284,1,0,0:0:0:0:
218,216,107499,1,8,0:0:0:0:
246,187,107606,1,8,0:0:0:0:
277,156,107713,1,8,0:0:0:0:
333,99,107927,1,0,0:0:0:0:
290,141,108142,1,8,0:0:0:0:
216,218,108356,1,0,0:0:0:0:
244,188,108463,1,0,0:0:0:0:
268,164,108570,1,8,0:0:0:0:
290,141,108677,1,8,0:0:0:0:
290,141,108784,1,0,0:0:0:0:
317,205,108999,1,8,0:0:0:0:
317,205,109213,1,0,0:0:0:0:
317,205,109427,1,12,0:0:0:0:
317,205,109856,1,8,0:0:0:0:
317,205,110070,1,8,0:0:0:0:
286,187,110177,1,0,0:0:0:0:
253,168,110284,1,8,0:0:0:0:
317,205,110498,1,0,0:0:0:0:
317,205,110712,1,8,0:0:0:0:
200,128,110820,1,8,0:0:0:0:
266,163,110927,1,0,0:0:0:0:
200,128,111142,1,8,0:0:0:0:
272,152,111356,1,0,0:0:0:0:
251,75,111570,1,8,0:0:0:0:
251,75,111784,1,0,0:0:0:0:
349,200,112213,1,0,0:0:0:0:
297,140,112427,1,8,0:0:0:0:
350,200,112642,1,0,0:0:0:0:
328,189,112749,1,0,0:0:0:0:
299,146,112856,1,8,0:0:0:0:
235,164,113070,1,0,0:0:0:0:
292,146,113284,1,0,0:0:0:0:
210,172,113499,1,8,0:0:0:0:
270,218,113713,1,0,0:0:0:0:
208,168,113927,1,0,0:0:0:0:
269,218,114142,1,8,0:0:0:0:
214,166,114356,1,0,0:0:0:0:
283,236,114785,1,8,0:0:0:0:
228,186,114999,1,8,0:0:0:0:
228,186,115213,5,8,0:0:0:0:
220,180,115427,1,8,0:0:0:0:
220,180,116285,5,12,0:0:0:0:
220,180,116714,1,0,0:0:0:0:
220,180,116928,1,8,0:0:0:0:
220,180,117035,1,0,0:0:0:0:
220,180,117143,1,8,0:0:0:0:
128,152,117357,1,0,0:0:0:0:
128,152,117571,1,0,0:0:0:0:
212,192,117785,1,8,0:0:0:0:
296,228,118214,1,0,0:0:0:0:
212,188,118428,1,8,0:0:0:0:
188,160,118535,1,8,0:0:0:0:
160,128,118643,1,0,0:0:0:0:
184,148,118750,1,0,0:0:0:0:
160,128,118856,1,0,0:0:0:0:
160,128,119071,1,8,0:0:0:0:
176,36,119285,1,8,0:0:0:0:
264,64,119500,1,0,0:0:0:0:
304,80,119714,1,0,0:0:0:0:
292,112,119821,1,0,0:0:0:0:
280,160,119928,1,8,0:0:0:0:
304,80,120142,1,8,0:0:0:0:
240,188,120356,1,0,0:0:0:0:
232,216,120464,1,0,0:0:0:0:
244,280,120570,1,8,0:0:0:0:
432,200,120785,1,8,0:0:0:0:
332,200,121000,1,0,0:0:0:0:
296,212,121107,1,0,0:0:0:0:
248,232,121214,1,8,0:0:0:0:
368,196,121428,1,8,0:0:0:0:
368,196,121643,1,0,0:0:0:0:
312,212,121749,1,8,0:0:0:0:
280,220,121857,1,0,0:0:0:0:
368,196,122071,1,0,0:0:0:0:
280,212,122285,1,8,0:0:0:0:
280,212,122500,1,0,0:0:0:0:
240,176,122607,1,0,0:0:0:0:
324,136,122714,1,8,0:0:0:0:
304,156,122821,1,8,0:0:0:0:
276,216,122928,1,0,0:0:0:0:
328,136,123143,1,12,0:0:0:0:
180,260,123571,1,0,0:0:0:0:
240,180,123785,1,8,0:0:0:0:
204,228,123893,1,0,0:0:0:0:
228,188,124000,1,0,0:0:0:0:
200,152,124106,1,0,0:0:0:0:
164,276,124213,1,8,0:0:0:0:
220,200,124428,1,0,0:0:0:0:
304,204,124643,1,8,0:0:0:0:
216,216,125071,1,8,0:0:0:0:
284,152,125285,1,0,0:0:0:0:
232,196,125392,1,8,0:0:0:0:
272,164,125500,1,0,0:0:0:0:
264,200,125607,1,0,0:0:0:0:
200,220,125714,1,8,0:0:0:0:
280,244,125928,1,0,0:0:0:0:
280,244,126143,1,8,0:0:0:0:
280,244,126357,1,0,0:0:0:0:
300,256,126464,1,0,0:0:0:0:
300,256,126571,1,8,0:0:0:0:
300,256,126785,1,8,0:0:0:0:
300,256,126893,1,8,0:0:0:0:
280,244,127000,1,0,0:0:0:0:
280,244,127214,1,0,0:0:0:0:
280,244,127428,1,8,0:0:0:0:
336,260,127535,1,8,0:0:0:0:
308,248,127643,1,0,0:0:0:0:
264,228,127750,1,0,0:0:0:0:
224,208,127857,1,8,0:0:0:0:
280,244,128071,1,0,0:0:0:0:
352,288,128285,1,8,0:0:0:0:
280,252,128500,1,0,0:0:0:0:
280,252,128607,1,0,0:0:0:0:
280,252,128714,1,8,0:0:0:0:
280,252,128928,1,8,0:0:0:0:
444,148,129357,1,0,0:0:0:0:
352,176,129571,1,8,0:0:0:0:
276,200,129785,1,0,0:0:0:0:
276,200,129893,1,0,0:0:0:0:
276,200,130000,1,12,0:0:0:0:
368,380,130428,1,8,0:0:0:0:
300,200,130857,1,0,0:0:0:0:
248,132,131071,1,8,0:0:0:0:
328,212,131285,1,8,0:0:0:0:
256,148,131500,1,0,0:0:0:0:
340,248,131928,1,0,0:0:0:0:
268,200,132143,1,8,0:0:0:0:
348,248,132357,1,0,0:0:0:0:
308,224,132464,1,0,0:0:0:0:
308,224,132571,1,8,0:0:0:0:
308,224,132785,1,0,0:0:0:0:
308,224,133000,1,8,0:0:0:0:
308,224,133107,1,8,0:0:0:0:
308,224,133214,1,0,0:0:0:0:
308,224,133321,1,0,0:0:0:0:
308,224,133428,1,8,0:0:0:0:
272,176,133857,1,0,0:0:0:0:
308,200,133964,1,0,0:0:0:0:
196,156,134071,1,8,0:0:0:0:
224,184,134178,1,0,0:0:0:0:
224,232,134285,1,8,0:0:0:0:
184,148,134500,1,0,0:0:0:0:
272,176,134714,1,8,0:0:0:0:
308,264,134928,1,8,0:0:0:0:
228,92,135357,1,0,0:0:0:0:
264,164,135571,1,8,0:0:0:0:
296,240,135785,1,8,0:0:0:0:
284,204,135893,1,0,0:0:0:0:
284,204,135999,1,0,0:0:0:0:
284,204,136213,1,8,0:0:0:0:
284,204,136428,1,8,0:0:0:0:
284,204,136643,1,0,0:0:0:0:
284,204,136750,1,0,0:0:0:0:
284,204,136857,1,12,0:0:0:0:
304,256,137285,1,0,0:0:0:0:
304,256,137713,1,8,0:0:0:0:
304,256,137928,1,8,0:0:0:0:
384,216,138143,1,0,0:0:0:0:
456,152,138357,1,8,0:0:0:0:
312,280,138785,1,0,0:0:0:0:
360,228,139000,1,0,0:0:0:0:
360,228,139214,1,8,0:0:0:0:
332,248,139321,1,8,0:0:0:0:
296,276,139428,1,0,0:0:0:0:
224,324,139643,1,8,0:0:0:0:
304,272,139857,1,0,0:0:0:0:
264,296,139964,1,0,0:0:0:0:
264,296,140071,1,0,0:0:0:0:
264,296,140178,1,0,0:0:0:0:
264,296,140285,1,8,0:0:0:0:
240,212,140500,1,0,0:0:0:0:
264,296,140714,1,8,0:0:0:0:
264,296,140928,1,8,0:0:0:0:
276,272,141035,1,8,0:0:0:0:
232,224,141143,1,0,0:0:0:0:
228,260,141249,1,8,0:0:0:0:
264,296,141357,1,0,0:0:0:0:
264,296,141571,1,8,0:0:0:0:
264,296,141785,1,0,0:0:0:0:
353,128,142213,1,8,0:0:0:0:
311,208,142427,1,0,0:0:0:0:
311,208,142642,1,8,0:0:0:0:
299,178,142749,1,0,0:0:0:0:
249,162,142856,1,8,0:0:0:0:
311,208,143070,1,0,0:0:0:0:
311,208,143284,1,8,0:0:0:0:
311,208,143499,1,8,0:0:0:0:
391,284,143713,1,0,0:0:0:0:
311,208,143927,1,8,0:0:0:0:
335,230,144034,1,8,0:0:0:0:
311,208,144142,1,0,0:0:0:0:
311,208,144356,1,0,0:0:0:0:
311,208,144784,1,0,0:0:0:0:
311,208,144999,1,8,0:0:0:0:
311,208,145213,1,0,0:0:0:0:
335,230,145320,1,8,0:0:0:0:
311,208,145427,1,8,0:0:0:0:
246,132,145642,1,0,0:0:0:0:
311,208,145856,1,8,0:0:0:0:
311,208,146070,1,0,0:0:0:0:
83,177,146499,1,0,0:0:0:0:
149,184,146713,1,8,0:0:0:0:
243,165,146927,1,8,0:0:0:0:
235,161,147356,1,8,0:0:0:0:
283,220,147463,1,8,0:0:0:0:
323,194,147570,1,8,0:0:0:0:
235,160,147784,1,0,0:0:0:0:
302,189,147892,1,0,0:0:0:0:
276,171,147999,1,0,0:0:0:0:
181,109,148213,1,8,0:0:0:0:
263,163,148427,1,8,0:0:0:0:
208,244,148642,1,8,0:0:0:0:
92,164,148856,1,4,0:0:0:0:
296,200,149285,1,8,0:0:0:0:
484,268,149713,1,0,0:0:0:0:
400,236,149928,1,0,0:0:0:0:
288,200,150142,1,8,0:0:0:0:
184,148,150356,1,0,0:0:0:0:
360,232,150785,1,0,0:0:0:0:
292,180,150999,1,8,0:0:0:0:
236,116,151213,1,0,0:0:0:0:
312,184,151642,1,0,0:0:0:0:
336,272,151856,1,8,0:0:0:0:
336,272,152070,1,0,0:0:0:0:
336,272,152178,1,0,0:0:0:0:
336,272,152285,1,8,0:0:0:0:
336,272,152499,1,0,0:0:0:0:
276,204,152713,1,8,0:0:0:0:
400,308,153142,1,0,0:0:0:0:
324,256,153356,1,0,0:0:0:0:
392,304,153570,1,8,0:0:0:0:
368,284,153785,1,0,0:0:0:0:
204,164,154213,1,0,0:0:0:0:
280,212,154428,1,8,0:0:0:0:
372,264,154642,1,8,0:0:0:0:
284,212,155070,1,0,0:0:0:0:
196,180,155285,1,8,0:0:0:0:
104,144,155499,1,0,0:0:0:0:
132,48,155713,1,12,0:0:0:0:
176,84,156142,1,8,0:0:0:0:
212,152,156356,1,0,0:0:0:0:
148,80,156785,1,8,0:0:0:0:
208,156,156999,1,8,0:0:0:0:
208,156,157213,1,0,0:0:0:0:
308,176,157642,1,0,0:0:0:0:
220,152,157856,1,8,0:0:0:0:
275,185,158070,1,0,0:0:0:0:
124,116,158499,1,0,0:0:0:0:
216,168,158713,1,8,0:0:0:0:
280,208,158928,1,0,0:0:0:0:
232,172,159142,1,12,0:0:0:0:
40,176,159570,1,0,0:0:0:0:
124,172,159785,1,8,0:0:0:0:
124,172,160213,1,0,0:0:0:0:
220,148,160428,1,0,0:0:0:0:
124,172,160642,1,8,0:0:0:0:
284,60,161070,1,0,0:0:0:0:
212,112,161285,1,8,0:0:0:0:
120,160,161499,1,8,0:0:0:0:
156,136,161606,1,0,0:0:0:0:
248,88,161713,1,8,0:0:0:0:
228,124,161820,1,8,0:0:0:0:
200,164,161928,1,0,0:0:0:0:
148,248,162142,1,8,0:0:0:0:
200,164,162356,1,0,0:0:0:0:
96,324,162785,1,0,0:0:0:0:
148,244,162999,1,8,0:0:0:0:
196,168,163213,5,0,0:0:0:0:
176,204,163320,1,0,0:0:0:0:
176,204,163428,1,8,0:0:0:0:
176,204,163642,1,0,0:0:0:0:
176,204,163856,1,0,0:0:0:0:
176,204,164070,1,0,0:0:0:0:
200,180,164285,5,12,0:0:0:0:
280,200,165356,1,12,0:0:0:0:
280,200,165785,1,4,0:0:0:0:
320,204,167070,1,12,0:0:0:0:
320,204,167285,1,12,0:0:0:0:
204,40,167713,1,4,0:0:0:0:
308,168,168785,1,12,0:0:0:0:
308,168,168999,1,0,0:0:0:0:
308,168,169213,1,12,0:0:0:0:
308,168,169642,1,0,0:0:0:0:
308,168,169856,1,0,0:0:0:0:
264,236,170070,1,0,0:0:0:0:
264,236,170285,1,8,0:0:0:0:
80,88,170713,1,0,0:0:0:0:
240,160,171142,1,12,0:0:0:0:
448,180,171570,1,0,0:0:0:0:
108,160,172213,1,12,0:0:0:0:
296,152,172642,1,12,0:0:0:0:
248,180,173928,1,4,0:0:0:0:
248,180,174142,1,4,0:0:0:0:
60,124,174570,1,12,0:0:0:0:
248,176,175642,1,4,0:0:0:0:
248,176,175856,1,8,0:0:0:0:
248,176,176070,1,4,0:0:0:0:
248,176,176499,1,0,0:0:0:0:
160,200,176713,1,8,0:0:0:0:
248,176,176928,1,8,0:0:0:0:
160,200,177142,1,0,0:0:0:0:
244,180,177356,1,0,0:0:0:0:
160,200,177570,1,8,0:0:0:0:
276,200,177999,5,12,0:0:0:0:
368,380,178427,1,8,0:0:0:0:
300,200,178856,1,0,0:0:0:0:
248,132,179070,1,8,0:0:0:0:
328,212,179284,1,8,0:0:0:0:
256,148,179499,1,0,0:0:0:0:
340,248,179927,1,0,0:0:0:0:
268,200,180142,1,8,0:0:0:0:
348,248,180356,1,0,0:0:0:0:
308,224,180463,1,0,0:0:0:0:
308,224,180570,1,8,0:0:0:0:
308,224,180784,1,0,0:0:0:0:
308,224,180999,1,8,0:0:0:0:
308,224,181106,1,8,0:0:0:0:
308,224,181213,1,0,0:0:0:0:
308,224,181320,1,0,0:0:0:0:
308,224,181427,1,8,0:0:0:0:
272,176,181856,1,0,0:0:0:0:
308,200,181963,1,0,0:0:0:0:
196,156,182070,1,8,0:0:0:0:
224,184,182177,1,0,0:0:0:0:
224,232,182284,1,8,0:0:0:0:
184,148,182499,1,0,0:0:0:0:
272,176,182713,1,8,0:0:0:0:
308,264,182927,1,8,0:0:0:0:
228,92,183356,1,0,0:0:0:0:
264,164,183570,1,8,0:0:0:0:
296,240,183784,1,8,0:0:0:0:
284,204,183892,1,8,0:0:0:0:
284,204,183999,1,8,0:0:0:0:
284,204,184213,1,0,0:0:0:0:
284,204,184427,1,8,0:0:0:0:
284,204,184642,1,0,0:0:0:0:
284,204,184749,1,0,0:0:0:0:
284,204,184856,1,12,0:0:0:0:
304,256,185284,1,8,0:0:0:0:
304,256,185713,1,0,0:0:0:0:
304,256,185927,1,8,0:0:0:0:
384,216,186142,1,0,0:0:0:0:
456,152,186356,1,8,0:0:0:0:
312,280,186784,1,0,0:0:0:0:
360,228,186999,1,0,0:0:0:0:
360,228,187213,1,8,0:0:0:0:
332,248,187320,1,8,0:0:0:0:
296,276,187427,1,0,0:0:0:0:
224,324,187642,1,8,0:0:0:0:
304,272,187856,1,0,0:0:0:0:
264,296,187963,1,0,0:0:0:0:
264,296,188070,1,0,0:0:0:0:
264,296,188177,1,0,0:0:0:0:
264,296,188284,1,8,0:0:0:0:
240,212,188499,1,0,0:0:0:0:
264,296,188713,1,8,0:0:0:0:
264,296,188927,1,8,0:0:0:0:
276,272,189034,1,8,0:0:0:0:
232,224,189142,1,0,0:0:0:0:
228,260,189249,1,0,0:0:0:0:
264,296,189356,1,0,0:0:0:0:
264,296,189570,1,8,0:0:0:0:
264,296,189784,1,0,0:0:0:0:
353,128,190213,1,8,0:0:0:0:
311,208,190427,1,0,0:0:0:0:
311,208,190642,1,0,0:0:0:0:
299,178,190749,1,0,0:0:0:0:
249,162,190856,1,8,0:0:0:0:
311,208,191070,1,0,0:0:0:0:
311,208,191284,1,8,0:0:0:0:
311,208,191499,1,8,0:0:0:0:
391,284,191713,1,0,0:0:0:0:
311,208,191927,1,8,0:0:0:0:
335,230,192034,1,8,0:0:0:0:
311,208,192142,1,8,0:0:0:0:
311,208,192356,1,0,0:0:0:0:
311,208,192784,1,0,0:0:0:0:
311,208,192999,1,8,0:0:0:0:
311,208,193213,1,0,0:0:0:0:
335,230,193320,1,8,0:0:0:0:
311,208,193427,1,8,0:0:0:0:
246,132,193642,1,0,0:0:0:0:
311,208,193856,1,8,0:0:0:0:
311,208,194070,1,0,0:0:0:0:
83,177,194499,1,0,0:0:0:0:
149,184,194713,1,8,0:0:0:0:
243,165,194927,1,8,0:0:0:0:
336,199,195142,1,0,0:0:0:0:
235,161,195356,1,8,0:0:0:0:
283,220,195463,1,8,0:0:0:0:
323,194,195570,1,0,0:0:0:0:
235,160,195784,1,0,0:0:0:0:
302,189,195892,1,0,0:0:0:0:
276,171,195999,1,8,0:0:0:0:
181,109,196213,1,0,0:0:0:0:
263,163,196427,1,8,0:0:0:0:
263,163,196856,1,12,0:0:0:0:
236,164,197285,1,0,0:0:0:0:
156,228,197499,1,0,0:0:0:0:
192,196,197714,1,8,0:0:0:0:
188,120,197928,1,0,0:0:0:0:
176,200,198142,1,0,0:0:0:0:
180,128,198357,1,8,0:0:0:0:
232,268,198785,1,0,0:0:0:0:
220,212,198999,1,8,0:0:0:0:
204,284,199214,1,8,0:0:0:0:
208,252,199321,1,8,0:0:0:0:
208,252,199428,1,0,0:0:0:0:
296,248,199642,1,0,0:0:0:0:
296,248,199857,1,8,0:0:0:0:
232,196,200071,1,0,0:0:0:0:
232,196,200178,1,0,0:0:0:0:
232,196,200285,1,8,0:0:0:0:
232,196,200499,1,0,0:0:0:0:
232,196,200714,1,8,0:0:0:0:
232,196,200928,1,0,0:0:0:0:
232,196,201142,1,8,0:0:0:0:
232,196,201249,1,0,0:0:0:0:
276,196,201357,1,8,0:0:0:0:
232,196,201571,1,0,0:0:0:0:
232,196,201785,1,8,0:0:0:0:
92,112,202214,1,8,0:0:0:0:
156,156,202428,1,8,0:0:0:0:
232,204,202642,1,0,0:0:0:0:
232,204,202749,1,8,0:0:0:0:
232,204,202964,1,8,0:0:0:0:
232,204,203071,1,0,0:0:0:0:
176,148,203285,1,8,0:0:0:0:
265,169,203499,1,0,0:0:0:0:
197,172,203606,1,0,0:0:0:0:
316,212,203714,1,12,0:0:0:0:
236,164,204142,1,0,0:0:0:0:
156,228,204356,1,0,0:0:0:0:
192,196,204571,1,8,0:0:0:0:
188,120,204785,1,0,0:0:0:0:
176,200,204999,1,0,0:0:0:0:
180,128,205214,1,8,0:0:0:0:
232,268,205642,1,0,0:0:0:0:
220,212,205856,1,8,0:0:0:0:
204,284,206071,1,8,0:0:0:0:
208,252,206178,1,8,0:0:0:0:
208,252,206285,1,0,0:0:0:0:
296,248,206499,1,0,0:0:0:0:
296,248,206714,1,8,0:0:0:0:
232,196,206928,1,0,0:0:0:0:
232,196,207142,1,8,0:0:0:0:
232,196,207356,1,0,0:0:0:0:
257,163,207463,1,0,0:0:0:0:
232,196,207570,1,8,0:0:0:0:
199,118,207785,1,0,0:0:0:0:
276,127,207999,1,8,0:0:0:0:
90,228,208213,1,0,0:0:0:0:
143,174,208428,1,8,0:0:0:0:
143,174,209070,1,8,0:0:0:0:
143,174,209285,1,8,0:0:0:0:
212,129,209499,1,0,0:0:0:0:
27,199,209928,1,8,0:0:0:0:
138,143,210570,1,0,0:0:0:0:
256,192,210785,12,0,215713,0:0:0:0:
