osu file format v14

[General]
AudioFilename: audio.mp3
AudioLeadIn: 0
PreviewTime: 50667
Countdown: 0
SampleSet: Soft
StackLeniency: 0.7
Mode: 3
LetterboxInBreaks: 0
SpecialStyle: 0
WidescreenStoryboard: 1

[Editor]
Bookmarks: 42,7542,15042,22542,37542,50667,73167
DistanceSpacing: 1.4
BeatDivisor: 4
GridSize: 32
TimelineZoom: 1.5

[Metadata]
Title:Wa! Moon! dass! cry! (TV Size)
TitleUnicode:輪!Moon!dass!cry!(TV Size)
Artist:Akasaki Chinatsu, Tomatsu Haruka, Toyosaki Aki
ArtistUnicode:赤﨑千夏, 戸松 遥, 豊崎愛生
Creator:Drum-Hitnormal
Version:Normal
Source:女子高生の無駄づかい
Tags:dudehacker Joshikousei no Mudazukai Wasteful Days of High School Girls japanese anime J-Pop JPop Pop opening op summer 2019 田中 望 Tanaka Nozomu 菊池 茜 Kikuchi Akane 鷺宮しおり Saginomiya Shiori ZMCZ-13201
BeatmapID:2130726
BeatmapSetID:1014130

[Difficulty]
HPDrainRate:7.5
CircleSize:4
OverallDifficulty:7.5
ApproachRate:5
SliderMultiplier:1.4
SliderTickRate:1

[Events]
//Background and Video events
Video,-250,"xgk4mu.mp4"
0,0,"86386799_p0.jpg",0,0
//Break Periods
//Storyboard Layer 0 (Background)
//Storyboard Layer 1 (Fail)
//Storyboard Layer 2 (Pass)
//Storyboard Layer 3 (Foreground)
//Storyboard Layer 4 (Overlay)
//Storyboard Sound Samples

[TimingPoints]
42,468.75,4,2,1,70,1,0
50667,-100,4,2,1,70,0,1
88167,-100,4,2,1,70,0,0

[HitObjects]
64,192,42,128,0,276:0:0:0:0:
192,192,276,128,0,510:0:0:0:0:
448,192,510,128,0,745:0:0:0:0:
320,192,745,128,0,979:0:0:0:0:
64,192,1448,1,0,0:0:0:0:
192,192,1565,1,0,0:0:0:0:
320,192,1682,1,0,0:0:0:0:
448,192,1799,1,0,0:0:0:0:
64,192,1917,128,0,2151:0:0:0:0:
448,192,2151,128,0,2385:0:0:0:0:
320,192,2385,128,0,2620:0:0:0:0:
192,192,2620,128,0,2854:0:0:0:0:
64,192,3323,128,0,3557:0:0:0:0:
448,192,3557,128,0,3792:0:0:0:0:
64,192,3792,1,0,0:0:0:70:LR_Hit Med Click.wav
320,192,3792,128,0,4026:0:0:0:0:
192,192,4026,128,0,4260:0:0:0:0:
320,192,4260,128,0,4495:0:0:0:0:
64,192,4495,1,0,0:0:0:70:LR_Hit Med Click.wav
192,192,4495,128,0,4729:0:0:0:0:
320,192,4729,1,0,0:0:0:70:LR_Hit Med Click.wav
448,192,4729,1,0,0:0:0:0:
64,192,5198,1,0,0:0:0:0:
192,192,5315,1,0,0:0:0:0:
320,192,5432,1,0,0:0:0:0:
448,192,5549,1,0,0:0:0:0:
64,192,5667,128,0,5901:0:0:0:70:LR_Hit Med Click.wav
192,192,5667,1,0,0:0:0:0:
320,192,5901,128,0,6135:0:0:0:0:
64,192,6135,128,0,6370:0:0:0:70:LR_Hit Med Click.wav
448,192,6135,1,0,0:0:0:0:
320,192,6370,128,0,6604:0:0:0:0:
192,192,6604,1,0,0:0:0:70:LR_Hit Med Click.wav
448,192,6604,1,0,0:0:0:0:
64,192,6838,1,0,0:0:0:0:
320,192,7073,1,8,0:0:0:0:
448,192,7073,1,0,0:0:0:0:
192,192,7307,128,0,7542:0:0:0:0:
320,192,7542,128,2,7893:0:0:0:0:
448,192,7542,128,0,7893:0:0:0:0:
64,192,8010,1,8,0:0:0:0:
192,192,8010,1,0,0:0:0:0:
64,192,8245,1,8,0:0:0:0:
192,192,8245,1,0,0:0:0:0:
320,192,8479,1,2,0:0:0:0:
448,192,8479,1,0,0:0:0:0:
448,192,8713,1,0,0:0:0:0:
192,192,8948,1,8,0:0:0:0:
320,192,8948,1,0,0:0:0:0:
64,192,9182,1,0,0:0:0:0:
320,192,9417,1,2,0:0:0:0:
448,192,9417,128,0,9885:0:0:0:0:
64,192,9885,1,8,0:0:0:0:
192,192,9885,1,0,0:0:0:0:
64,192,10120,1,8,0:0:0:0:
192,192,10120,1,0,0:0:0:0:
320,192,10354,1,2,0:0:0:0:
448,192,10354,1,0,0:0:0:0:
64,192,10588,1,8,0:0:0:0:
192,192,10588,1,0,0:0:0:0:
64,192,10823,1,8,0:0:0:0:
192,192,10823,1,0,0:0:0:0:
448,192,11057,1,0,0:0:0:0:
64,192,11292,128,2,11760:0:0:0:0:
320,192,11292,1,0,0:0:0:0:
320,192,11760,1,8,0:0:0:0:
448,192,11760,1,0,0:0:0:0:
320,192,11995,1,8,0:0:0:0:
448,192,11995,1,0,0:0:0:0:
64,192,12229,1,2,0:0:0:0:
192,192,12229,1,0,0:0:0:0:
64,192,12463,1,0,0:0:0:0:
192,192,12698,1,8,0:0:0:0:
448,192,12698,1,0,0:0:0:0:
320,192,12932,1,0,0:0:0:0:
64,192,13167,1,2,0:0:0:0:
448,192,13167,128,0,13635:0:0:0:0:
64,192,13635,1,8,0:0:0:0:
192,192,13635,1,0,0:0:0:0:
64,192,13870,1,8,0:0:0:0:
192,192,13870,1,0,0:0:0:0:
320,192,14104,1,2,0:0:0:0:
448,192,14104,1,0,0:0:0:0:
320,192,14338,1,0,0:0:0:0:
192,192,14573,1,8,0:0:0:0:
448,192,14573,1,0,0:0:0:0:
64,192,14807,1,0,0:0:0:0:
320,192,15042,128,2,15393:0:0:0:0:
448,192,15042,128,0,15393:0:0:0:0:
64,192,15510,1,8,0:0:0:0:
192,192,15510,1,0,0:0:0:0:
320,192,15745,1,8,0:0:0:0:
448,192,15745,1,0,0:0:0:0:
64,192,16682,128,0,16917:0:0:0:0:
192,192,16917,1,2,0:0:0:0:
448,192,16917,1,0,0:0:0:0:
64,192,17151,1,0,0:0:0:0:
320,192,17385,1,8,0:0:0:0:
448,192,17385,1,0,0:0:0:0:
320,192,17620,1,8,0:0:0:0:
448,192,17620,1,0,0:0:0:0:
64,192,17854,1,2,0:0:0:0:
192,192,17854,1,0,0:0:0:0:
320,192,18088,1,8,0:0:0:0:
448,192,18088,1,0,0:0:0:0:
320,192,18323,1,8,0:0:0:0:
448,192,18323,1,0,0:0:0:0:
64,192,18557,1,0,0:0:0:0:
64,192,18792,1,2,0:0:0:0:
192,192,18792,1,0,0:0:0:0:
192,192,19026,1,0,0:0:0:0:
320,192,19260,1,8,0:0:0:0:
448,192,19260,1,0,0:0:0:0:
320,192,19495,1,8,0:0:0:0:
448,192,19495,1,0,0:0:0:0:
64,192,19729,1,2,0:0:0:0:
192,192,19729,1,0,0:0:0:0:
192,192,19963,1,0,0:0:0:0:
64,192,20198,1,8,0:0:0:0:
320,192,20198,1,0,0:0:0:0:
448,192,20432,1,0,0:0:0:0:
192,192,20667,1,2,0:0:0:0:
320,192,20667,1,0,0:0:0:0:
192,192,20901,1,0,0:0:0:0:
320,192,21135,1,8,0:0:0:0:
448,192,21135,1,0,0:0:0:0:
64,192,21370,1,8,0:0:0:0:
192,192,21370,1,0,0:0:0:0:
320,192,22073,128,2,22307:0:0:0:0:
448,192,22307,128,0,22542:0:0:0:0:
64,192,22542,128,2,22893:0:0:0:0:
192,192,22542,128,0,22893:0:0:0:0:
320,192,23010,1,8,0:0:0:0:
448,192,23010,1,0,0:0:0:0:
320,192,23245,1,8,0:0:0:0:
448,192,23245,1,0,0:0:0:0:
64,192,23479,1,2,0:0:0:0:
192,192,23479,1,0,0:0:0:0:
192,192,23948,1,8,0:0:0:0:
448,192,23948,1,0,0:0:0:0:
64,192,24417,1,2,0:0:0:0:
320,192,24417,1,0,0:0:0:0:
64,192,24885,1,8,0:0:0:0:
192,192,24885,1,0,0:0:0:0:
64,192,25120,1,8,0:0:0:0:
192,192,25120,1,0,0:0:0:0:
320,192,25354,1,2,0:0:0:0:
448,192,25354,1,0,0:0:0:0:
64,192,25588,1,0,0:0:0:0:
192,192,25823,1,8,0:0:0:0:
320,192,25823,1,0,0:0:0:0:
448,192,26057,1,0,0:0:0:0:
64,192,26292,1,2,0:0:0:0:
192,192,26292,1,0,0:0:0:0:
320,192,26526,1,0,0:0:0:0:
64,192,26760,1,8,0:0:0:0:
448,192,26760,1,0,0:0:0:0:
64,192,26995,1,8,0:0:0:0:
448,192,26995,1,0,0:0:0:0:
192,192,27229,1,2,0:0:0:0:
320,192,27229,1,0,0:0:0:0:
448,192,27463,1,0,0:0:0:0:
64,192,27698,1,8,0:0:0:0:
192,192,27698,1,0,0:0:0:0:
64,192,27932,1,0,0:0:0:0:
192,192,28167,1,2,0:0:0:0:
320,192,28167,1,0,0:0:0:0:
192,192,28401,1,0,0:0:0:0:
320,192,28635,1,8,0:0:0:0:
448,192,28635,1,0,0:0:0:0:
320,192,28870,1,8,0:0:0:0:
448,192,28870,1,0,0:0:0:0:
64,192,29104,128,2,29573:0:0:0:0:
192,192,29104,1,0,0:0:0:0:
448,192,29338,128,0,29573:0:0:0:0:
192,192,29573,1,8,0:0:0:0:
320,192,29573,1,0,0:0:0:0:
64,192,29807,1,0,0:0:0:0:
192,192,29807,1,0,0:0:0:0:
320,192,30042,128,2,30393:0:0:0:0:
448,192,30042,128,0,30393:0:0:0:0:
64,192,30510,1,8,0:0:0:0:
192,192,30510,1,0,0:0:0:0:
64,192,30745,1,8,0:0:0:0:
192,192,30745,1,0,0:0:0:0:
320,192,30979,1,2,0:0:0:0:
448,192,30979,1,0,0:0:0:0:
64,192,31448,1,8,0:0:0:0:
320,192,31448,1,0,0:0:0:0:
192,192,31917,1,2,0:0:0:0:
448,192,31917,1,0,0:0:0:0:
64,192,32385,1,8,0:0:0:0:
192,192,32385,1,0,0:0:0:0:
64,192,32620,1,8,0:0:0:0:
192,192,32620,1,0,0:0:0:0:
320,192,32854,1,2,0:0:0:0:
448,192,32854,1,0,0:0:0:0:
192,192,33088,128,0,33323:0:0:0:0:
64,192,33323,128,8,33792:0:0:0:0:
448,192,33323,1,0,0:0:0:0:
192,192,33792,1,2,0:0:0:0:
320,192,33792,1,0,0:0:0:0:
192,192,34026,1,0,0:0:0:0:
320,192,34260,1,8,0:0:0:0:
448,192,34260,1,0,0:0:0:0:
320,192,34495,1,8,0:0:0:0:
448,192,34495,1,0,0:0:0:0:
64,192,34729,1,2,0:0:0:0:
192,192,34729,1,0,0:0:0:0:
320,192,34963,1,0,0:0:0:0:
192,192,35198,1,8,0:0:0:0:
448,192,35198,1,0,0:0:0:0:
320,192,35432,1,0,0:0:0:0:
192,192,35667,1,2,0:0:0:0:
448,192,35667,1,0,0:0:0:0:
64,192,35901,1,0,0:0:0:0:
192,192,36135,1,8,0:0:0:0:
320,192,36135,1,0,0:0:0:0:
192,192,36370,1,8,0:0:0:0:
320,192,36370,1,0,0:0:0:0:
64,192,36604,1,2,0:0:0:0:
448,192,36604,1,0,0:0:0:0:
192,192,36838,1,0,0:0:0:0:
320,192,37073,1,8,0:0:0:0:
448,192,37073,1,0,0:0:0:0:
192,192,37307,1,0,0:0:0:0:
64,192,37542,1,0,0:0:0:0:
448,192,37542,1,0,0:0:0:0:
320,192,38010,1,0,0:0:0:0:
64,192,38245,1,0,0:0:0:0:
192,192,38245,1,0,0:0:0:0:
320,192,38479,1,0,0:0:0:0:
448,192,38479,1,0,0:0:0:0:
320,192,38948,1,0,0:0:0:0:
64,192,39182,1,0,0:0:0:0:
192,192,39182,1,0,0:0:0:0:
320,192,39417,1,0,0:0:0:0:
448,192,39417,1,0,0:0:0:0:
192,192,39885,1,0,0:0:0:0:
320,192,40120,1,0,0:0:0:0:
448,192,40120,1,0,0:0:0:0:
64,192,40354,1,0,0:0:0:0:
192,192,40354,1,0,0:0:0:0:
192,192,40823,1,0,0:0:0:0:
320,192,41057,1,0,0:0:0:0:
448,192,41057,1,0,0:0:0:0:
64,192,41292,1,0,0:0:0:0:
192,192,41292,1,0,0:0:0:0:
320,192,41760,1,0,0:0:0:0:
64,192,41995,1,0,0:0:0:0:
192,192,41995,1,0,0:0:0:0:
320,192,42229,1,0,0:0:0:0:
448,192,42229,1,0,0:0:0:0:
320,192,42698,1,0,0:0:0:0:
64,192,42932,1,0,0:0:0:0:
192,192,42932,1,0,0:0:0:0:
320,192,43167,1,0,0:0:0:0:
448,192,43167,1,0,0:0:0:0:
192,192,43635,1,0,0:0:0:0:
320,192,43870,1,0,0:0:0:0:
448,192,43870,1,0,0:0:0:0:
64,192,44104,1,0,0:0:0:0:
192,192,44104,1,0,0:0:0:0:
320,192,44573,1,0,0:0:0:0:
448,192,44807,1,0,0:0:0:0:
64,192,45042,1,0,0:0:0:0:
192,192,45042,1,0,0:0:0:0:
320,192,45510,1,0,0:0:0:0:
64,192,45745,1,0,0:0:0:0:
192,192,45745,1,0,0:0:0:0:
320,192,45979,1,0,0:0:0:0:
448,192,45979,1,0,0:0:0:0:
192,192,46213,1,0,0:0:0:0:
64,192,46448,1,0,0:0:0:0:
448,192,46682,1,0,0:0:0:0:
192,192,46917,128,2,47151:0:0:0:0:
320,192,46917,128,0,47151:0:0:0:0:
192,192,47385,128,2,47620:0:0:0:0:
320,192,47385,128,0,47620:0:0:0:0:
448,192,48792,128,0,49260:0:0:0:0:
192,192,49260,128,0,49495:0:0:0:0:
64,192,49495,128,0,49729:0:0:0:0:
192,192,49729,1,0,0:0:0:0:
320,192,49846,1,0,0:0:0:0:
448,192,49963,128,0,50198:0:0:0:0:
64,192,50198,128,0,50549:0:0:0:0:
192,192,50198,128,0,50549:0:0:0:0:
320,192,50667,1,2,0:0:0:0:
448,192,50667,1,0,0:0:0:0:
320,192,50901,1,0,0:0:0:0:
192,192,51135,1,8,0:0:0:0:
448,192,51135,1,0,0:0:0:0:
64,192,51370,1,8,0:0:0:0:
448,192,51370,1,0,0:0:0:0:
192,192,51604,1,2,0:0:0:0:
320,192,51604,1,0,0:0:0:0:
64,192,51838,1,0,0:0:0:0:
192,192,51956,1,0,0:0:0:0:
320,192,52073,128,8,52424:0:0:0:0:
448,192,52073,128,0,52424:0:0:0:0:
64,192,52542,1,2,0:0:0:0:
192,192,52542,1,0,0:0:0:0:
192,192,52776,1,0,0:0:0:0:
64,192,53010,1,8,0:0:0:0:
320,192,53010,1,0,0:0:0:0:
64,192,53245,1,8,0:0:0:0:
448,192,53245,1,0,0:0:0:0:
192,192,53479,1,2,0:0:0:0:
448,192,53479,1,0,0:0:0:0:
320,192,53713,1,0,0:0:0:0:
64,192,53948,1,8,0:0:0:0:
192,192,53948,1,0,0:0:0:0:
64,192,54182,128,0,54417:0:0:0:0:
320,192,54417,1,2,0:0:0:0:
448,192,54417,128,0,54885:0:0:0:0:
64,192,54885,1,8,0:0:0:0:
192,192,54885,1,0,0:0:0:0:
64,192,55120,128,8,55354:0:0:0:0:
320,192,55354,1,2,0:0:0:0:
448,192,55354,128,0,55823:0:0:0:0:
192,192,55823,1,8,0:0:0:0:
320,192,55823,1,0,0:0:0:0:
64,192,56057,1,0,0:0:0:0:
320,192,56292,128,2,56526:0:0:0:0:
448,192,56292,1,0,0:0:0:0:
64,192,56526,128,0,56760:0:0:0:0:
192,192,56760,128,8,56995:0:0:0:0:
320,192,56760,1,0,0:0:0:0:
448,192,56995,128,8,57229:0:0:0:0:
64,192,57229,1,2,0:0:0:0:
320,192,57229,128,0,57463:0:0:0:0:
192,192,57463,128,0,57698:0:0:0:0:
64,192,57698,128,8,58049:0:0:0:0:
448,192,57698,128,0,58049:0:0:0:0:
192,192,58167,1,2,0:0:0:0:
320,192,58167,1,0,0:0:0:0:
192,192,58401,1,0,0:0:0:0:
320,192,58635,1,8,0:0:0:0:
448,192,58635,1,0,0:0:0:0:
64,192,58870,1,8,0:0:0:0:
192,192,58870,1,0,0:0:0:0:
192,192,59104,1,2,0:0:0:0:
320,192,59104,1,0,0:0:0:0:
448,192,59338,1,0,0:0:0:0:
320,192,59456,1,0,0:0:0:0:
64,192,59573,128,8,59924:0:0:0:0:
192,192,59573,128,0,59924:0:0:0:0:
320,192,60042,1,2,0:0:0:0:
448,192,60042,1,0,0:0:0:0:
192,192,60276,1,0,0:0:0:0:
320,192,60510,1,8,0:0:0:0:
448,192,60510,1,0,0:0:0:0:
64,192,60745,1,8,0:0:0:0:
192,192,60745,1,0,0:0:0:0:
64,192,60979,1,2,0:0:0:0:
448,192,60979,1,0,0:0:0:0:
192,192,61213,1,0,0:0:0:0:
320,192,61448,1,8,0:0:0:0:
448,192,61448,1,0,0:0:0:0:
64,192,61682,1,0,0:0:0:0:
192,192,61682,128,0,61917:0:0:0:0:
320,192,61917,128,2,62151:0:0:0:0:
448,192,61917,1,0,0:0:0:0:
192,192,62151,128,0,62385:0:0:0:0:
64,192,62385,128,8,62620:0:0:0:0:
448,192,62385,1,0,0:0:0:0:
320,192,62620,128,8,62854:0:0:0:0:
192,192,62854,1,2,0:0:0:0:
448,192,62854,128,0,63088:0:0:0:0:
64,192,63088,1,0,0:0:0:0:
64,192,63323,1,8,0:0:0:0:
320,192,63323,1,0,0:0:0:0:
448,192,63557,1,0,0:0:0:0:
192,192,63792,1,2,0:0:0:0:
320,192,63792,1,0,0:0:0:0:
64,192,64026,1,0,0:0:0:0:
320,192,64260,1,8,0:0:0:0:
448,192,64260,1,0,0:0:0:0:
320,192,64495,1,8,0:0:0:0:
448,192,64495,1,0,0:0:0:0:
64,192,64729,1,2,0:0:0:0:
192,192,64729,1,0,0:0:0:0:
192,192,64963,1,0,0:0:0:0:
64,192,65198,1,8,0:0:0:0:
448,192,65198,1,0,0:0:0:0:
448,192,65432,1,0,0:0:0:0:
320,192,65549,1,0,0:0:0:0:
64,192,65667,128,2,66018:0:0:0:0:
192,192,65667,128,0,66018:0:0:0:0:
320,192,66135,128,8,66370:0:0:0:0:
448,192,66135,1,0,0:0:0:0:
64,192,66370,1,8,0:0:0:0:
192,192,66370,128,0,66604:0:0:0:0:
320,192,66604,1,2,0:0:0:0:
448,192,66604,1,0,0:0:0:0:
192,192,66838,1,0,0:0:0:0:
64,192,67073,1,8,0:0:0:0:
320,192,67073,1,0,0:0:0:0:
320,192,67307,1,0,0:0:0:0:
192,192,67542,1,2,0:0:0:0:
448,192,67542,1,0,0:0:0:0:
64,192,67776,1,0,0:0:0:0:
192,192,68010,128,8,68245:0:0:0:0:
320,192,68010,1,0,0:0:0:0:
64,192,68245,1,8,0:0:0:0:
448,192,68245,128,0,68479:0:0:0:0:
64,192,68479,1,2,0:0:0:0:
192,192,68479,1,0,0:0:0:0:
320,192,68713,1,0,0:0:0:0:
192,192,68948,1,8,0:0:0:0:
448,192,68948,128,0,69182:0:0:0:0:
64,192,69182,128,0,69417:0:0:0:0:
192,192,69417,1,2,0:0:0:0:
320,192,69417,1,0,0:0:0:0:
448,192,69651,1,0,0:0:0:0:
64,192,69885,1,8,0:0:0:0:
320,192,69885,1,0,0:0:0:0:
64,192,70120,1,8,0:0:0:0:
320,192,70120,1,0,0:0:0:0:
192,192,70354,1,2,0:0:0:0:
448,192,70354,1,0,0:0:0:0:
64,192,70588,1,0,0:0:0:0:
320,192,70823,128,8,71057:0:0:0:0:
448,192,70823,1,0,0:0:0:0:
64,192,71057,128,0,71292:0:0:0:0:
192,192,71292,1,2,0:0:0:0:
448,192,71292,1,0,0:0:0:0:
192,192,71526,1,0,0:0:0:0:
320,192,71760,1,8,0:0:0:0:
448,192,71760,1,0,0:0:0:0:
320,192,71995,1,8,0:0:0:0:
448,192,71995,1,0,0:0:0:0:
64,192,72229,128,0,72698:0:0:0:0:
192,192,72229,128,0,72698:0:0:0:0:
320,192,72698,128,0,73049:0:0:0:0:
448,192,72698,128,0,73049:0:0:0:0:
64,192,73167,1,2,0:0:0:0:
192,192,73167,1,0,0:0:0:0:
64,192,73401,1,0,0:0:0:0:
192,192,73635,1,8,0:0:0:0:
320,192,73635,1,0,0:0:0:0:
64,192,73870,1,8,0:0:0:0:
448,192,73870,1,0,0:0:0:0:
192,192,74104,1,2,0:0:0:0:
320,192,74104,1,0,0:0:0:0:
448,192,74338,1,0,0:0:0:0:
320,192,74456,1,0,0:0:0:0:
64,192,74573,128,8,74924:0:0:0:0:
192,192,74573,128,0,74924:0:0:0:0:
320,192,75042,1,2,0:0:0:0:
448,192,75042,1,0,0:0:0:0:
448,192,75276,1,0,0:0:0:0:
192,192,75510,1,8,0:0:0:0:
320,192,75510,1,0,0:0:0:0:
64,192,75745,1,8,0:0:0:0:
448,192,75745,1,0,0:0:0:0:
192,192,75979,1,2,0:0:0:0:
320,192,75979,1,0,0:0:0:0:
64,192,76213,1,0,0:0:0:0:
320,192,76448,1,8,0:0:0:0:
448,192,76448,1,0,0:0:0:0:
192,192,76682,128,0,76917:0:0:0:0:
64,192,76917,128,2,77151:0:0:0:0:
320,192,77151,128,0,77385:0:0:0:0:
192,192,77385,1,8,0:0:0:0:
448,192,77385,128,0,77620:0:0:0:0:
64,192,77620,128,8,77854:0:0:0:0:
192,192,77854,128,2,78088:0:0:0:0:
320,192,77854,1,0,0:0:0:0:
448,192,78088,128,0,78323:0:0:0:0:
192,192,78323,1,8,0:0:0:0:
320,192,78323,128,0,78557:0:0:0:0:
64,192,78557,1,0,0:0:0:0:
320,192,78792,1,2,0:0:0:0:
448,192,78792,1,0,0:0:0:0:
192,192,79026,1,0,0:0:0:0:
320,192,79260,1,8,0:0:0:0:
448,192,79260,1,0,0:0:0:0:
320,192,79495,1,8,0:0:0:0:
448,192,79495,1,0,0:0:0:0:
64,192,79729,1,2,0:0:0:0:
192,192,79729,1,0,0:0:0:0:
320,192,79963,1,0,0:0:0:0:
192,192,80198,128,8,80549:0:0:0:0:
448,192,80198,128,0,80549:0:0:0:0:
64,192,80667,1,2,0:0:0:0:
320,192,80667,1,0,0:0:0:0:
192,192,80901,1,0,0:0:0:0:
320,192,81135,1,8,0:0:0:0:
448,192,81135,1,0,0:0:0:0:
320,192,81370,1,8,0:0:0:0:
448,192,81370,1,0,0:0:0:0:
64,192,81604,1,2,0:0:0:0:
192,192,81604,1,0,0:0:0:0:
448,192,81838,1,0,0:0:0:0:
192,192,81956,1,0,0:0:0:0:
64,192,82073,128,8,82424:0:0:0:0:
320,192,82073,128,0,82424:0:0:0:0:
192,192,82542,1,2,0:0:0:0:
448,192,82542,1,0,0:0:0:0:
192,192,82776,1,0,0:0:0:0:
320,192,83010,1,8,0:0:0:0:
448,192,83010,1,0,0:0:0:0:
320,192,83245,1,8,0:0:0:0:
448,192,83245,1,0,0:0:0:0:
64,192,83479,1,2,0:0:0:0:
192,192,83479,1,0,0:0:0:0:
192,192,83713,1,0,0:0:0:0:
320,192,83948,1,8,0:0:0:0:
448,192,83948,1,0,0:0:0:0:
64,192,84182,1,0,0:0:0:0:
192,192,84417,1,2,0:0:0:0:
320,192,84417,1,0,0:0:0:0:
448,192,84651,1,0,0:0:0:0:
64,192,84885,1,8,0:0:0:0:
192,192,84885,1,0,0:0:0:0:
64,192,85120,1,8,0:0:0:0:
192,192,85120,1,0,0:0:0:0:
320,192,85354,1,2,0:0:0:0:
448,192,85354,1,0,0:0:0:0:
320,192,85588,1,0,0:0:0:0:
192,192,85823,128,8,86174:0:0:0:0:
448,192,85823,128,0,86174:0:0:0:0:
64,192,86292,1,2,0:0:0:0:
320,192,86292,1,0,0:0:0:0:
320,192,86526,1,0,0:0:0:0:
192,192,86760,1,8,0:0:0:0:
448,192,86760,1,0,0:0:0:0:
192,192,86995,1,8,0:0:0:0:
448,192,86995,1,0,0:0:0:0:
64,192,87229,128,0,87463:0:0:0:0:
192,192,87463,128,0,87698:0:0:0:0:
448,192,87698,128,0,88167:0:0:0:0:
192,192,88167,1,0,0:0:0:0:
320,192,88284,1,0,0:0:0:0:
64,192,88401,128,0,88635:0:0:0:0:
192,192,88635,128,0,88987:0:0:0:0:
320,192,88635,128,0,88987:0:0:0:0:
