osu file format v14

[General]
AudioFilename: audio.mp3
AudioLeadIn: 0
PreviewTime: 29507
Countdown: 0
SampleSet: Soft
StackLeniency: 0.5
Mode: 0
LetterboxInBreaks: 0
WidescreenStoryboard: 0

[Editor]
Bookmarks: 530,4166,11439,29620,45984,60530,76893,85757,87120
DistanceSpacing: 1.4
BeatDivisor: 4
GridSize: 32
TimelineZoom: 1.8

[Metadata]
Title:Futari no Kimochi no Honto no Himitsu (TV Size)
TitleUnicode:ふたりのきもちのほんとのひみつ (TV Size)
Artist:Akasaki Chinatsu, Tamura Mutsumi
ArtistUnicode:赤﨑千夏、田村睦心
Creator:-Nenecchi
Version:Secret?
Source:Baby, please kill me.
Tags:j.c.staff manga time kirara carat yasuna to sonya ending 折部 やすな ソーニャ
BeatmapID:2234864
BeatmapSetID:1067449

[Difficulty]
HPDrainRate:5.1
CircleSize:3.5
OverallDifficulty:9.9
ApproachRate:9.7
SliderMultiplier:1.4
SliderTickRate:1

[Events]
//Background and Video events
0,0,"bb.jpg",0,0
//Break Periods
//Storyboard Layer 0 (Background)
//Storyboard Layer 1 (Fail)
//Storyboard Layer 2 (Pass)
//Storyboard Layer 3 (Foreground)
//Storyboard Layer 4 (Overlay)
//Storyboard Sound Samples

[TimingPoints]
530,454.545454545455,4,2,1,72,1,0
530,-100,4,2,1,72,0,0
4166,-27.027027027027,4,2,1,72,0,0
5757,-66.6666666666667,4,2,1,72,0,0
6893,-33.3333333333333,4,2,1,72,0,0
7348,-25,4,2,1,72,0,0
7802,-27.027027027027,4,2,1,72,0,0
9393,-50,4,2,1,72,0,0
10530,-100,4,2,1,72,0,0
10757,-133.333333333333,4,2,1,72,0,0
10984,-33.3333333333333,4,2,1,72,0,0
11211,-25,4,2,1,72,0,0
11439,-27.027027027027,4,2,1,72,0,0
12348,-100,4,2,1,72,0,0
15075,-27.027027027027,4,2,1,72,0,0
16666,-100,4,2,1,72,0,0
18711,-27.027027027027,4,2,1,72,0,0
19620,-100,4,2,1,72,0,0
22348,-27.027027027027,4,2,1,72,0,0
23257,-100,4,2,1,72,0,0
25984,-27.027027027027,4,2,1,72,0,0
28939,-100,4,2,1,72,0,0
29620,-100,4,2,1,72,0,1
32348,-100,4,2,1,72,0,0
33257,-100,4,2,1,72,0,1
35984,-100,4,2,1,72,0,0
36893,-100,4,2,1,72,0,1
39620,-100,4,2,1,72,0,0
40530,-100,4,2,1,72,0,1
43257,-100,4,2,1,72,0,0
44166,-100,4,2,1,72,0,1
45075,-100,4,2,1,72,0,0
45984,-200,4,2,1,72,0,0
60530,-100,4,2,1,72,0,1
75984,-100,4,2,1,72,0,0
76893,-27.027027027027,4,2,1,72,0,0
78484,-66.6666666666667,4,2,1,72,0,0
79620,-33.3333333333333,4,2,1,72,0,0
80075,-25,4,2,1,72,0,0
80530,-27.027027027027,4,2,1,72,0,0
82120,-50,4,2,1,72,0,0

[Colours]
Combo1 : 22,144,172
Combo2 : 171,19,140
Combo3 : 17,206,138
Combo4 : 224,125,0

[HitObjects]
55,39,530,6,0,L|42:100,3,35,12|0|2|0,0:3|0:0|0:0|0:0,0:0:0:0:
133,167,984,2,0,L|125:113,3,35,8|0|2|0,0:3|0:0|0:0|0:0,0:0:0:0:
254,40,1439,6,0,L|246:101,1,35,8|0,0:3|0:0,0:0:0:0:
358,188,1666,2,0,L|349:130,1,35,2|0,0:0|0:0,0:0:0:0:
462,10,1893,2,0,L|450:63,3,35,8|0|2|0,0:3|0:0|0:0|0:0,0:0:0:0:
358,188,2348,6,0,L|349:130,3,35,8|0|2|0,0:3|0:0|0:0|0:0,0:0:0:0:
464,268,2802,2,0,L|471:202,3,35,8|0|2|0,0:3|0:0|0:0|0:0,0:0:0:0:
342,358,3257,2,0,L|323:299,3,35,8|0|2|0,0:3|0:0|0:0|0:0,0:0:0:0:
215,194,3711,6,0,L|209:245,1,35,8|0,0:3|0:0,0:0:0:0:
80,360,3939,2,0,L|73:313,1,35,2|0,0:0|0:0,0:0:0:0:
0,69,4166,6,0,P|117:77|296:70,1,258.999999011993,12|2,0:3|0:0,0:0:0:0:
512,181,4620,2,0,P|355:163|225:172,1,258.999999011993,8|2,0:0|0:0,0:0:0:0:
81,235,4961,1,2,0:0:0:0:
81,235,5075,5,8,0:3:0:0:
258,357,5302,1,2,0:0:0:0:
407,272,5530,1,8,0:0:0:0:
95,360,5757,6,0,P|119:297|117:244,1,105.000004005432,2|8,0:0|0:3,0:0:0:0:
2,113,6211,1,2,0:0:0:0:
116,333,6439,1,8,0:0:0:0:
242,128,6666,1,2,0:0:0:0:
0,262,6893,6,0,P|81:212|232:252,1,210.000008010864,8|2,0:3|0:0,0:0:0:0:
264,320,7234,1,2,0:0:0:0:
264,320,7348,2,0,P|423:362|382:156,1,420,8|8,0:0|0:3,0:0:0:0:
6,200,7802,6,0,P|158:209|280:204,1,258.999999011993,8|2,0:3|0:0,0:0:0:0:
512,98,8257,2,0,P|371:102|233:95,1,258.999999011993,8|2,0:0|0:0,0:0:0:0:
43,92,8598,1,0,0:0:0:0:
43,92,8711,5,10,0:3:0:0:
131,122,8825,1,2,0:0:0:0:
86,18,8939,1,2,0:0:0:0:
0,334,9166,5,8,0:0:0:0:
358,263,9393,2,0,P|307:239|271:232,1,70,2|0,0:0|0:0,0:0:0:0:
299,346,9620,5,8,1:3:0:0:
331,364,9696,1,0,1:0:0:0:
368,368,9772,1,0,3:0:0:0:
447,320,9848,5,2,1:2:0:0:
474,321,9923,1,0,1:0:0:0:
498,334,9999,1,0,3:0:0:0:
461,248,10075,5,8,1:2:0:0:
458,229,10151,1,0,1:0:0:0:
460,210,10226,1,0,3:0:0:0:
506,128,10302,5,2,1:2:0:0:
499,134,10378,1,0,1:0:0:0:
490,137,10454,1,0,3:0:0:0:
398,121,10530,6,0,L|426:100,2,23.3333333333333,8|0|0,3:3|3:0|3:0,3:0:0:0:
325,77,10757,2,0,L|354:78,2,17.500000667572,0|0|0,3:0|3:0|3:0,3:0:0:0:
406,210,10984,6,0,P|393:274|324:349,1,105.000004005432,8|0,3:3|3:0,3:0:0:0:
158,348,11211,2,0,P|247:267|320:261,1,140,8|0,3:3|3:0,3:0:0:0:
512,189,11439,6,0,P|368:177|241:177,1,258.999999011993,12|2,0:3|0:0,0:0:0:0:
0,103,11893,2,0,P|205:96|272:81,1,258.999999011993,8|2,0:0|0:0,0:0:0:0:
512,297,12348,6,0,P|451:296|420:291,1,70,8|2,0:3|0:0,0:0:0:0:
279,358,12802,1,8,0:0:0:0:
279,358,13030,2,0,P|315:325|310:210,1,140,2|2,0:0|0:0,0:0:0:0:
80,166,13711,5,8,0:0:0:0:
217,264,13939,1,2,0:0:0:0:
345,208,14166,5,8,0:3:0:0:
448,249,14393,1,2,0:0:0:0:
318,334,14620,5,10,0:0:0:0:
318,334,14848,1,2,0:0:0:0:
389,0,15075,6,0,P|389:185|402:288,1,258.999999011993,8|2,0:3|0:0,0:0:0:0:
232,384,15530,2,0,P|246:223|245:106,1,258.999999011993,8|2,0:0|0:0,0:0:0:0:
1,44,15984,5,8,0:3:0:0:
125,167,16211,1,2,0:0:0:0:
106,66,16439,1,8,0:0:0:0:
23,219,16666,6,0,P|27:284|55:362,1,140,2|2,0:0|0:0,0:0:0:0:
268,195,17348,1,8,0:0:0:0:
164,273,17575,1,2,0:0:0:0:
434,298,17802,5,8,0:0:0:0:
157,179,18030,1,10,0:0:0:0:
157,179,18143,1,8,0:0:0:0:
157,179,18257,1,8,0:0:0:0:
265,384,18484,1,10,0:0:0:0:
512,261,18711,6,0,P|350:263|238:277,1,258.999999011993,8|2,0:3|0:0,0:0:0:0:
0,162,19166,2,0,P|176:180|312:169,1,258.999999011993,8|2,0:0|0:0,0:0:0:0:
512,40,19620,6,0,P|466:55|417:63,1,70,8|2,0:3|0:0,0:0:0:0:
310,62,20075,1,8,0:0:0:0:
512,116,20302,2,0,P|461:74|387:52,1,140,2|2,0:0|0:0,0:0:0:0:
230,292,20984,5,8,0:0:0:0:
391,184,21211,1,2,0:0:0:0:
183,119,21439,6,0,P|123:124|87:132,1,70,8|2,0:3|0:0,0:0:0:0:
349,280,21893,2,0,P|401:281|437:286,1,70,8|2,0:0|0:0,0:0:0:0:
101,384,22234,1,10,0:3:0:0:
101,384,22348,6,0,P|118:200|113:120,1,258.999999011993,8|2,0:3|0:0,0:0:0:0:
270,0,22802,2,0,P|250:174|259:302,1,258.999999011993,8|2,0:0|0:0,0:0:0:0:
470,380,23257,2,0,P|466:325|458:283,1,70,8|2,0:3|0:0,0:0:0:0:
369,126,23711,5,8,0:0:0:0:
473,384,23939,2,0,P|462:326|462:231,1,140,2|2,0:0|0:0,0:0:0:0:
510,97,24620,5,8,0:0:0:0:
365,304,24848,1,2,0:0:0:0:
196,218,25075,5,8,0:3:0:0:
77,317,25302,1,2,0:0:0:0:
87,195,25530,5,10,0:0:0:0:
161,293,25757,1,2,0:0:0:0:
512,148,25984,6,0,P|365:155|220:143,1,258.999999011993,8|2,0:3|0:0,0:0:0:0:
0,265,26439,2,0,P|192:235|306:234,1,258.999999011993,8|2,0:0|0:0,0:0:0:0:
510,308,26780,1,2,0:0:0:0:
510,308,26893,5,8,0:3:0:0:
392,115,27120,1,2,0:0:0:0:
236,300,27348,1,8,0:0:0:0:
324,196,27575,1,2,0:0:0:0:
156,166,27802,5,8,0:3:0:0:
239,296,28030,1,2,0:0:0:0:
262,131,28257,5,8,0:0:0:0:
141,262,28484,1,2,0:0:0:0:
7,57,28711,5,8,1:3:0:0:
19,68,28787,1,0,3:0:0:0:
34,76,28863,1,0,3:0:0:0:
112,55,28939,2,0,L|60:50,1,35,2|0,3:0|3:0,3:0:0:0:
190,34,29166,5,8,3:3:0:0:
206,34,29242,1,0,3:0:0:0:
222,38,29318,1,0,3:0:0:0:
281,95,29393,2,0,L|280:147,1,35,2|0,3:0|3:0,3:0:0:0:
40,330,29620,5,12,0:3:0:0:
117,249,29848,1,2,0:0:0:0:
138,325,30075,1,8,0:0:0:0:
41,211,30302,1,2,0:0:0:0:
314,180,30530,5,8,0:3:0:0:
132,338,30757,1,2,0:0:0:0:
150,80,30984,1,8,0:0:0:0:
294,366,31211,1,2,0:0:0:0:
405,136,31439,5,8,0:3:0:0:
340,195,31666,1,2,0:0:0:0:
320,97,31893,1,8,0:0:0:0:
320,97,32120,1,2,0:0:0:0:
512,342,32348,5,10,0:3:0:0:
37,235,32575,1,2,0:0:0:0:
37,235,32689,1,2,0:0:0:0:
37,235,32802,1,10,0:0:0:0:
441,28,33030,1,2,0:0:0:0:
392,91,33143,1,8,0:3:0:0:
392,91,33257,5,8,0:3:0:0:
485,140,33484,1,2,0:0:0:0:
289,135,33711,1,8,0:0:0:0:
333,8,33939,1,2,0:0:0:0:
476,268,34166,5,8,0:3:0:0:
225,26,34393,1,2,0:0:0:0:
156,343,34620,1,8,0:0:0:0:
432,119,34848,1,2,0:0:0:0:
26,118,35075,5,8,0:3:0:0:
119,198,35302,1,2,0:0:0:0:
160,84,35530,1,8,0:0:0:0:
15,222,35757,1,2,0:0:0:0:
497,278,35984,5,10,0:3:0:0:
497,278,36098,1,2,0:0:0:0:
363,217,36211,1,10,0:0:0:0:
363,217,36325,1,10,0:0:0:0:
506,136,36439,5,10,0:0:0:0:
343,348,36666,1,10,0:3:0:0:
184,48,36893,5,8,0:3:0:0:
262,103,37120,1,2,0:0:0:0:
168,162,37348,1,8,0:0:0:0:
273,6,37575,1,2,0:0:0:0:
360,233,37802,5,8,0:3:0:0:
88,96,38030,1,2,0:0:0:0:
398,70,38257,1,8,0:0:0:0:
120,258,38484,1,2,0:0:0:0:
466,345,38711,5,8,0:3:0:0:
466,345,38939,1,2,0:0:0:0:
306,260,39166,1,8,0:0:0:0:
354,336,39393,1,2,0:0:0:0:
500,83,39620,5,10,0:3:0:0:
95,182,39848,1,2,0:0:0:0:
95,182,39961,1,2,0:0:0:0:
95,182,40075,1,10,0:0:0:0:
512,233,40302,1,2,0:0:0:0:
459,211,40416,1,8,0:3:0:0:
459,211,40530,5,8,0:3:0:0:
395,267,40757,1,2,0:0:0:0:
496,340,40984,1,8,0:0:0:0:
386,175,41211,1,2,0:0:0:0:
337,368,41439,5,8,0:3:0:0:
461,121,41666,1,2,0:0:0:0:
353,371,41893,1,8,0:0:0:0:
246,88,42120,1,2,0:0:0:0:
12,363,42348,5,8,0:3:0:0:
133,304,42575,1,2,0:0:0:0:
42,284,42802,1,8,0:0:0:0:
100,375,43030,1,2,0:0:0:0:
328,291,43257,5,10,0:3:0:0:
315,250,43370,1,2,0:0:0:0:
250,175,43484,1,2,0:0:0:0:
263,216,43597,1,2,0:0:0:0:
426,280,43711,5,10,0:0:0:0:
14,174,43939,1,0,0:0:0:0:
14,174,44052,1,0,0:0:0:0:
14,174,44166,5,8,0:3:0:0:
84,29,44393,1,2,0:0:0:0:
161,254,44620,5,8,0:0:0:0:
130,131,44848,1,2,0:0:0:0:
287,169,45075,5,8,0:3:0:0:
333,90,45302,1,2,0:0:0:0:
491,213,45530,5,2,1:1:0:0:
491,213,45643,1,0,1:0:0:0:
491,213,45757,1,0,1:0:0:0:
491,213,45870,1,0,1:0:0:0:
433,293,45984,6,0,B|328:326|328:256|225:302,1,210,4|2,0:0|0:0,0:0:0:0:
7,338,47575,2,0,P|66:374|41:285,1,210,2|0,0:0|0:0,0:0:0:0:
162,94,49166,5,2,0:0:0:0:
162,94,49393,2,0,P|152:162|246:273,1,210,2|0,0:0|0:0,0:0:0:0:
431,177,50984,5,2,0:0:0:0:
431,177,51211,2,0,B|389:155|334:161|313:180|307:189|299:221|227:188|205:152|243:103|275:100|296:105|302:114,1,280,2|0,0:0|0:0,0:0:0:0:
379,266,53257,6,0,P|377:306|275:385,1,175,2|0,0:0|0:0,0:0:0:0:
136,290,54620,2,0,L|185:286,1,35,2|0,0:0|0:0,0:0:0:0:
500,384,55075,6,0,L|506:301,1,70,2|0,0:0|0:0,0:0:0:0:
401,151,55757,2,0,P|446:169|425:136,1,105,2|2,0:0|0:0,0:0:0:0:
242,71,56666,6,0,P|288:86|346:74,1,105,2|0,0:0|0:0,0:0:0:0:
50,204,57575,2,0,P|98:156|256:192,1,245,2|0,0:0|0:0,0:0:0:0:
256,192,59280,12,8,60075,0:3:0:0:
256,192,60530,5,12,0:3:0:0:
165,253,60757,1,2,0:0:0:0:
287,265,60984,1,8,0:0:0:0:
175,146,61211,1,2,0:0:0:0:
126,370,61439,5,8,0:3:0:0:
341,104,61666,1,2,0:0:0:0:
353,346,61893,1,8,0:0:0:0:
73,175,62120,1,2,0:0:0:0:
478,196,62348,5,8,0:3:0:0:
373,236,62575,1,2,0:0:0:0:
487,282,62802,1,8,0:0:0:0:
387,150,63030,1,2,0:0:0:0:
347,366,63257,5,10,0:3:0:0:
478,82,63484,1,2,0:0:0:0:
478,82,63598,1,2,0:0:0:0:
478,82,63711,1,10,0:0:0:0:
167,231,63939,1,2,0:0:0:0:
366,301,64052,1,8,0:3:0:0:
366,301,64166,5,8,0:3:0:0:
284,218,64393,1,2,0:0:0:0:
274,321,64620,1,8,0:0:0:0:
367,198,64848,1,2,0:0:0:0:
154,195,65075,5,8,0:3:0:0:
431,287,65302,1,2,0:0:0:0:
135,349,65530,1,8,0:0:0:0:
318,90,65757,1,2,0:0:0:0:
346,383,65984,5,8,0:3:0:0:
354,276,66211,1,2,0:0:0:0:
266,353,66439,1,8,0:0:0:0:
426,326,66666,1,2,0:0:0:0:
97,84,66893,5,10,0:3:0:0:
97,84,67007,1,2,0:0:0:0:
309,205,67120,1,10,0:0:0:0:
309,205,67234,1,10,0:0:0:0:
73,275,67348,5,10,0:3:0:0:
373,62,67575,1,10,0:3:0:0:
59,191,67802,5,8,0:3:0:0:
155,248,68030,1,2,0:0:0:0:
166,155,68257,1,8,0:0:0:0:
76,296,68484,1,2,0:0:0:0:
281,199,68711,5,8,0:3:0:0:
0,257,68939,1,2,0:0:0:0:
240,383,69166,1,8,0:0:0:0:
141,82,69393,1,2,0:0:0:0:
42,384,69620,5,8,0:3:0:0:
108,305,69848,1,2,0:0:0:0:
175,380,70075,1,8,0:0:0:0:
8,296,70302,1,2,0:0:0:0:
470,227,70530,5,10,0:3:0:0:
70,71,70757,1,2,0:0:0:0:
70,71,70870,1,2,0:0:0:0:
70,71,70984,1,10,0:0:0:0:
512,8,71211,1,2,0:0:0:0:
363,155,71325,1,8,0:3:0:0:
363,155,71439,5,8,0:3:0:0:
304,64,71666,1,2,0:0:0:0:
342,242,71893,1,8,0:0:0:0:
442,116,72120,1,2,0:0:0:0:
133,193,72348,5,8,0:3:0:0:
492,244,72575,1,2,0:0:0:0:
112,344,72802,1,8,0:0:0:0:
468,242,73030,1,2,0:0:0:0:
121,86,73257,5,8,0:3:0:0:
184,156,73484,1,2,0:0:0:0:
208,57,73711,1,8,0:0:0:0:
79,192,73939,1,2,0:0:0:0:
358,319,74166,5,10,0:3:0:0:
373,274,74280,1,2,0:0:0:0:
244,173,74393,5,2,0:0:0:0:
275,208,74507,1,2,0:0:0:0:
484,172,74620,1,10,0:0:0:0:
140,0,74848,1,8,0:3:0:0:
59,380,75075,5,8,0:3:0:0:
8,227,75302,1,2,0:0:0:0:
135,283,75530,5,8,0:0:0:0:
174,163,75757,1,2,0:0:0:0:
291,343,75984,5,8,0:3:0:0:
254,259,76211,1,0,0:0:0:0:
447,342,76439,5,2,1:1:0:0:
447,342,76552,1,0,1:0:0:0:
447,342,76666,1,0,1:0:0:0:
447,342,76780,1,0,1:0:0:0:
512,287,76893,6,0,P|374:280|232:288,1,258.999999011993,12|2,0:3|0:0,0:0:0:0:
0,211,77348,2,0,P|144:212|292:193,1,258.999999011993,8|2,0:0|0:0,0:0:0:0:
433,132,77689,1,2,0:0:0:0:
433,132,77802,5,8,0:3:0:0:
250,8,78030,1,2,0:0:0:0:
114,88,78257,1,8,0:0:0:0:
413,0,78484,6,0,P|403:65|417:116,1,105.000004005432,2|8,0:0|0:3,0:0:0:0:
512,250,78938,1,2,0:0:0:0:
404,36,79166,1,8,0:0:0:0:
263,239,79393,1,2,0:0:0:0:
512,87,79620,6,0,P|433:141|280:109,1,210.000008010864,8|2,0:3|0:0,0:0:0:0:
245,42,79961,1,2,0:0:0:0:
245,42,80075,2,0,P|84:8|135:211,1,420,8|8,0:0|0:3,0:0:0:0:
512,193,80530,6,0,P|349:186|238:169,1,258.999999011993,8|2,0:3|0:0,0:0:0:0:
0,307,80984,2,0,P|150:276|274:267,1,258.999999011993,8|2,0:0|0:0,0:0:0:0:
512,384,81325,1,0,0:0:0:0:
512,384,81439,5,10,0:3:0:0:
385,311,81552,1,2,0:0:0:0:
503,277,81666,1,2,0:0:0:0:
125,384,81893,5,8,0:0:0:0:
363,39,82120,2,0,P|379:101|373:187,1,140,2|8,0:0|0:3,0:0:0:0:
243,314,82575,1,2,0:0:0:0:
87,120,82802,5,8,0:0:0:0:
232,274,83030,1,2,0:0:0:0:
461,84,83257,5,8,0:0:0:0:
59,258,83484,1,10,0:0:0:0:
59,258,83598,1,8,0:0:0:0:
59,258,83711,1,8,0:0:0:0:
493,369,83939,1,10,0:0:0:0:
84,146,84166,5,12,0:3:0:0:
201,384,84393,1,2,0:0:0:0:
203,227,84620,1,8,0:0:0:0:
87,365,84848,1,2,0:0:0:0:
281,188,85075,5,10,0:3:0:0:
190,235,85189,1,2,0:0:0:0:
305,285,85302,1,2,0:0:0:0:
105,6,85530,5,10,0:0:0:0:
84,361,85757,1,4,0:0:0:0:
256,192,85870,12,0,87120,0:0:0:0:
