osu file format v14

[General]
AudioFilename: Kill Me Baby Ending Dance.mp3
AudioLeadIn: 0
PreviewTime: 16627
Countdown: 0
SampleSet: Normal
StackLeniency: 0.7
Mode: 0
LetterboxInBreaks: 1
WidescreenStoryboard: 1

[Editor]
DistanceSpacing: 1.4
BeatDivisor: 4
GridSize: 32
TimelineZoom: 2.2

[Metadata]
Title:Futari no Kimochi no Honto no Himitsu
TitleUnicode:二人の気持ちの本当の秘密
Artist:Akasaki Chinatsu & Tamura Mutsumi
ArtistUnicode:赤﨑千夏、田村睦心
Creator:Darky1
Version:Dance
Source:Kill Me Baby
Tags:Kill Me Baby Dance Ending Koichi Fujimoto EXPO Yasuna Sonya
BeatmapID:1067158
BeatmapSetID:316560

[Difficulty]
HPDrainRate:6
CircleSize:3.5
OverallDifficulty:6
ApproachRate:8
SliderMultiplier:1.7
SliderTickRate:1

[Events]
//Background and Video events
0,0,"Kill+Me+Baby+Wallpaper+ep1.jpg",0,0
Video,0,"0001-0819.avi"
//Break Periods
//Storyboard Layer 0 (Background)
//Storyboard Layer 1 (Fail)
//Storyboard Layer 2 (Pass)
//Storyboard Layer 3 (Foreground)
//Storyboard Sound Samples

[TimingPoints]
264.320770074661,454.545454545455,4,1,0,50,1,0

[Colours]
Combo1 : 249,211,0
Combo2 : 87,166,89
Combo3 : 118,84,67
Combo4 : 182,194,191

[HitObjects]
149,285,263,5,4,0:2:0:0:
229,332,492,1,0,0:2:0:0:
278,252,719,1,8,0:2:0:0:
196,205,946,1,0,0:2:0:0:
113,161,1173,2,0,P|89:121|89:73,1,85,0|0,0:2|0:2,0:2:0:0:
169,39,1627,2,0,P|201:79|209:119,1,85,8|0,0:2|0:2,0:2:0:0:
196,204,2082,5,0,0:2:0:0:
149,284,2309,1,0,0:2:0:0:
229,333,2537,1,8,0:2:0:0:
278,252,2764,1,0,0:2:0:0:
278,252,2991,5,2,0:2:0:0:
316,166,3218,1,2,0:2:0:0:
285,134,3332,1,2,0:2:0:0:
255,104,3446,1,10,0:2:0:0:
308,27,3673,1,2,0:2:0:0:
400,42,3900,6,0,P|450:41|509:70,1,85,0|0,0:2|0:2,0:2:0:0:
481,145,4355,2,0,P|440:157|398:155,1,85,8|0,0:2|0:2,0:2:0:0:
320,103,4809,2,0,P|270:102|211:131,1,85,0|0,0:2|0:2,0:2:0:0:
232,206,5264,2,0,P|273:218|315:216,1,85,8|0,0:2|0:2,0:2:0:0:
385,155,5718,2,0,P|435:154|494:183,1,85,0|0,0:2|0:2,0:2:0:0:
471,258,6173,2,0,P|430:270|388:268,1,85,8|0,0:2|0:2,0:2:0:0:
315,209,6627,5,2,0:2:0:0:
279,185,6741,1,2,0:2:0:0:
238,172,6855,1,2,0:2:0:0:
195,173,6968,1,2,0:2:0:0:
155,189,7082,2,2,P|125:202|88:257,1,85,10|2,0:2|0:2,0:2:0:0:
176,276,7537,6,0,P|163:316|149:356,2,85,0|0|8,0:2|0:2|0:2,0:2:0:0:
254,327,8218,1,0,0:2:0:0:
332,276,8446,2,0,P|346:316|360:356,2,85,0|0|8,0:2|0:2|0:2,0:2:0:0:
254,223,9127,1,0,0:2:0:0:
168,261,9355,6,0,B|141:188|198:128|256:129,1,170,0|8,0:2|0:2,0:2:0:0:
254,223,10037,1,0,0:2:0:0:
284,311,10264,1,2,0:2:0:0:
374,332,10491,1,2,0:2:0:0:
414,318,10604,1,2,0:2:0:0:
442,286,10718,1,10,0:2:0:0:
401,201,10946,1,2,0:2:0:0:
307,202,11173,6,0,B|307:154|307:154|339:114,1,85,0|0,0:2|0:2,0:2:0:0:
394,57,11627,2,0,B|365:33|365:33|317:33,1,85,8|0,0:2|0:2,0:2:0:0:
223,34,12082,2,0,B|199:62|199:62|199:110,1,85,0|0,0:2|0:2,0:2:0:0:
199,203,12537,2,0,B|227:226|227:226|275:226,1,85,8|0,0:2|0:2,0:2:0:0:
369,223,12991,2,0,B|392:194|392:194|392:146,1,85,0|0,0:2|0:2,0:2:0:0:
392,52,13446,2,0,B|363:28|363:28|315:28,1,85,8|0,0:2|0:2,0:2:0:0:
222,32,13900,5,2,0:2:0:0:
179,38,14014,1,2,0:2:0:0:
141,57,14127,1,2,0:2:0:0:
120,94,14241,1,2,0:2:0:0:
111,135,14355,1,14,0:2:0:0:
83,319,14809,6,8,B|128:319|128:319|162:285,1,85,8|8,0:2|0:2,0:2:0:0:
92,221,15264,2,8,B|123:189|123:189|171:188,1,85,8|8,0:2|0:2,0:2:0:0:
236,246,15718,1,12,0:2:0:0:
270,62,16173,5,4,0:2:0:0:
94,118,16627,6,0,P|126:70|174:62,1,85,0|0,0:2|0:2,0:2:0:0:
269,60,17082,2,0,L|373:60,1,85,8|0,0:2|0:2,0:2:0:0:
423,157,17537,1,0,0:2:0:0:
496,250,17764,1,0,0:2:0:0:
408,330,17991,1,8,0:2:0:0:
334,236,18218,1,0,0:2:0:0:
324,116,18446,6,0,P|292:68|244:60,1,85,0|0,0:2|0:2,0:2:0:0:
150,62,18900,2,0,L|54:62,1,85,8|0,0:2|0:2,0:2:0:0:
64,182,19355,1,0,0:2:0:0:
30,295,19582,1,0,0:2:0:0:
140,338,19809,1,8,0:2:0:0:
176,224,20036,1,0,0:2:0:0:
175,104,20264,6,0,L|141:22,2,85,0|0|8,0:2|0:2|0:2,0:2:0:0:
276,166,20946,1,0,0:2:0:0:
355,254,21173,2,0,L|437:287,2,85,0|0|8,0:2|0:2|0:2,0:2:0:0:
276,166,21855,1,0,0:2:0:0:
175,104,22082,2,0,B|141:76|141:76|96:61,1,85,0|0,0:2|0:2,0:2:0:0:
66,177,22537,2,0,B|99:204|99:204|144:219,1,85,8|0,0:2|0:2,0:2:0:0:
186,326,22991,5,2,0:2:0:0:
228,326,23104,1,2,0:2:0:0:
271,326,23218,1,2,0:2:0:0:
313,326,23331,1,2,0:2:0:0:
354,326,23446,2,2,B|402:326|402:326|453:303,1,85,10|2,0:2|0:2,0:2:0:0:
459,194,23900,6,0,L|374:186,1,85,0|0,0:2|0:2,0:2:0:0:
276,254,24355,2,0,L|360:261,1,85,8|0,0:2|0:2,0:2:0:0:
459,194,24809,1,0,0:2:0:0:
494,80,25036,1,0,0:2:0:0:
382,37,25264,1,8,0:2:0:0:
348,150,25490,1,0,0:2:0:0:
270,240,25718,6,0,B|153:226,1,85,0|0,0:2|0:2,0:2:0:0:
102,143,26173,2,0,B|186:153,1,85,0|0,0:2|0:2,0:2:0:0:
270,240,26627,1,0,0:2:0:0:
367,308,26854,1,0,0:2:0:0:
438,212,27081,1,8,0:2:0:0:
340,143,27309,1,0,0:2:0:0:
238,80,27537,6,0,L|150:80,1,85,0|0,0:2|0:2,0:2:0:0:
61,156,27991,2,0,L|146:156,1,85,8|0,0:2|0:2,0:2:0:0:
238,231,28446,2,0,B|270:271|270:271|270:319,2,85,0|0|8,0:2|0:2|0:2,0:2:0:0:
146,156,29127,1,0,0:2:0:0:
238,80,29355,2,0,L|326:80,1,85,0|0,0:2|0:2,0:2:0:0:
413,156,29809,2,0,L|328:156,1,85,8|0,0:2|0:2,0:2:0:0:
238,80,30264,5,2,0:2:0:0:
196,88,30377,1,2,0:2:0:0:
158,108,30491,1,2,0:2:0:0:
126,136,30604,1,2,0:2:0:0:
101,170,30718,2,0,B|77:194|79:250,1,85,10|0,0:2|0:2,0:2:0:0:
178,316,31173,6,8,L|266:316,1,85,8|8,0:2|0:2,0:2:0:0:
352,237,31627,2,8,L|267:237,1,85,8|8,0:2|0:2,0:2:0:0:
174,161,32082,1,12,0:2:0:0:
395,73,32537,5,4,0:2:0:0:
