osu file format v14

[General]
AudioFilename: audio.mp3
AudioLeadIn: 0
PreviewTime: 48835
Countdown: 0
SampleSet: Normal
StackLeniency: 0.7
Mode: 3
LetterboxInBreaks: 0
SpecialStyle: 0
WidescreenStoryboard: 1

[Editor]
DistanceSpacing: 0.8
BeatDivisor: 4
GridSize: 32
TimelineZoom: 1

[Metadata]
Title:NEXT STAGE
TitleUnicode:津田朱里
Artist:Akari Tsuda
ArtistUnicode:津田朱里
Creator:- Ly0572 -
Version:NM
Source:嫌な顔されながらおパンツ見せてもらいたい
Tags:Iya na Kao sare nagara Opantsu Misete Moraitai I Want You To Make a Disgusted Face and Show Me Your Underwear Itou Chitose Izumo Iori Sega Airi Takayama Maria Tanahashi Misuzu Yuina
BeatmapID:1785032
BeatmapSetID:852071

[Difficulty]
HPDrainRate:8
CircleSize:4
OverallDifficulty:8
ApproachRate:5
SliderMultiplier:1.4
SliderTickRate:1

[Events]
//Background and Video events
0,0,"uwuBG.png",0,0
//Break Periods
//Storyboard Layer 0 (Background)
//Storyboard Layer 1 (Fail)
//Storyboard Layer 2 (Pass)
//Storyboard Layer 3 (Foreground)
//Storyboard Sound Samples

[TimingPoints]
260,348.837209302326,4,1,0,0,1,0
49097,-100,4,1,0,0,0,1
59387,-100,4,1,0,0,0,0
60260,-100,4,1,0,0,0,1
71422,-100,4,1,0,0,0,0

[HitObjects]
64,192,85,128,0,260:0:0:0:0:
448,192,260,128,0,608:0:0:0:0:
64,192,608,1,0,0:0:0:0:
320,192,783,1,0,0:0:0:0:
192,192,957,1,0,0:0:0:0:
320,192,1132,1,0,0:0:0:0:
192,192,1306,1,0,0:0:0:0:
64,192,1480,128,0,1829:0:0:0:0:
320,192,1829,128,0,2178:0:0:0:0:
448,192,2178,128,0,2527:0:0:0:0:
192,192,2527,128,0,3050:0:0:0:0:
320,192,2701,1,0,0:0:0:0:
64,192,3050,128,0,3399:0:0:0:0:
448,192,3399,1,0,0:0:0:0:
192,192,3573,1,0,0:0:0:0:
320,192,3748,1,0,0:0:0:0:
192,192,3922,1,0,0:0:0:0:
320,192,4097,1,0,0:0:0:0:
448,192,4271,128,0,4620:0:0:0:0:
192,192,4620,128,0,4969:0:0:0:0:
320,192,4794,1,0,0:0:0:0:
64,192,4969,128,0,5318:0:0:0:0:
448,192,5143,1,0,0:0:0:0:
320,192,5318,128,0,5841:0:0:0:0:
192,192,5492,1,0,0:0:0:0:
64,192,5841,1,0,0:0:0:0:
448,192,5841,1,0,0:0:0:0:
192,192,6190,1,0,0:0:0:0:
320,192,6364,1,0,0:0:0:0:
448,192,6539,1,0,0:0:0:0:
64,192,6539,1,0,0:0:0:0:
192,192,6887,1,0,0:0:0:0:
448,192,7236,128,0,7585:0:0:0:0:
64,192,7585,1,0,0:0:0:0:
320,192,7585,128,0,7934:0:0:0:0:
192,192,7934,128,0,8283:0:0:0:0:
64,192,8283,128,0,8632:0:0:0:0:
448,192,8632,128,0,9155:0:0:0:0:
192,192,8980,1,0,0:0:0:0:
64,192,9155,1,0,0:0:0:0:
320,192,9329,1,0,0:0:0:0:
192,192,9504,1,0,0:0:0:0:
448,192,9678,1,0,0:0:0:0:
320,192,9853,128,0,10201:0:0:0:0:
64,192,10201,1,0,0:0:0:0:
192,192,10376,1,0,0:0:0:0:
320,192,10550,128,0,11073:0:0:0:0:
448,192,10899,1,0,0:0:0:0:
64,192,11073,1,0,0:0:0:0:
192,192,11422,1,0,0:0:0:0:
192,192,11597,1,0,0:0:0:0:
320,192,11946,1,0,0:0:0:0:
448,192,12294,1,0,0:0:0:0:
64,192,12643,1,0,0:0:0:0:
192,192,12992,1,0,0:0:0:0:
320,192,13166,1,0,0:0:0:0:
448,192,13515,1,0,0:0:0:0:
448,192,13864,1,0,0:0:0:0:
320,192,14213,1,0,0:0:0:0:
192,192,14213,1,0,0:0:0:0:
64,192,14562,1,0,0:0:0:0:
448,192,14562,1,0,0:0:0:0:
192,192,14911,1,0,0:0:0:0:
320,192,15260,1,0,0:0:0:0:
448,192,15260,1,0,0:0:0:0:
64,192,15608,1,0,0:0:0:0:
192,192,15957,1,0,0:0:0:0:
448,192,15957,1,0,0:0:0:0:
320,192,16306,1,0,0:0:0:0:
64,192,16655,1,0,0:0:0:0:
192,192,16655,1,0,0:0:0:0:
320,192,16829,1,0,0:0:0:0:
448,192,17004,1,0,0:0:0:0:
320,192,17353,1,0,0:0:0:0:
64,192,17353,1,0,0:0:0:0:
192,192,17701,1,0,0:0:0:0:
448,192,18050,1,0,0:0:0:0:
320,192,18050,1,0,0:0:0:0:
64,192,18399,1,0,0:0:0:0:
192,192,18748,1,0,0:0:0:0:
320,192,18748,1,0,0:0:0:0:
448,192,18922,1,0,0:0:0:0:
448,192,19271,1,0,0:0:0:0:
64,192,19446,1,0,0:0:0:0:
192,192,19446,1,0,0:0:0:0:
448,192,19620,1,0,0:0:0:0:
64,192,19794,1,0,0:0:0:0:
64,192,20143,1,0,0:0:0:0:
448,192,20143,1,0,0:0:0:0:
320,192,20492,1,0,0:0:0:0:
192,192,20841,1,0,0:0:0:0:
64,192,20841,1,0,0:0:0:0:
448,192,21190,1,0,0:0:0:0:
320,192,21539,1,0,0:0:0:0:
64,192,21539,1,0,0:0:0:0:
192,192,21887,1,0,0:0:0:0:
64,192,22062,1,0,0:0:0:0:
448,192,22236,1,0,0:0:0:0:
320,192,22236,1,0,0:0:0:0:
64,192,22585,1,0,0:0:0:0:
192,192,22934,1,0,0:0:0:0:
448,192,22934,1,0,0:0:0:0:
320,192,23283,1,0,0:0:0:0:
64,192,23632,1,0,0:0:0:0:
192,192,23632,1,0,0:0:0:0:
448,192,23980,1,0,0:0:0:0:
64,192,24155,1,0,0:0:0:0:
320,192,24329,1,0,0:0:0:0:
192,192,24329,1,0,0:0:0:0:
448,192,24504,1,0,0:0:0:0:
64,192,24678,1,0,0:0:0:0:
192,192,24853,1,0,0:0:0:0:
320,192,25027,1,0,0:0:0:0:
448,192,25027,128,0,25376:0:0:0:0:
192,192,25376,1,0,0:0:0:0:
320,192,25376,1,0,0:0:0:0:
448,192,25725,1,0,0:0:0:0:
64,192,25725,1,0,0:0:0:0:
320,192,26073,1,0,0:0:0:0:
192,192,26422,1,0,0:0:0:0:
64,192,26422,1,0,0:0:0:0:
448,192,26771,1,0,0:0:0:0:
320,192,27120,1,0,0:0:0:0:
64,192,27120,1,0,0:0:0:0:
192,192,27469,1,0,0:0:0:0:
448,192,27818,1,0,0:0:0:0:
320,192,27818,1,0,0:0:0:0:
192,192,27992,1,0,0:0:0:0:
64,192,28166,1,0,0:0:0:0:
192,192,28515,1,0,0:0:0:0:
448,192,28515,1,0,0:0:0:0:
320,192,28864,1,0,0:0:0:0:
64,192,29213,1,0,0:0:0:0:
192,192,29213,1,0,0:0:0:0:
448,192,29562,1,0,0:0:0:0:
320,192,29911,1,0,0:0:0:0:
192,192,29911,1,0,0:0:0:0:
64,192,30085,1,0,0:0:0:0:
64,192,30434,1,0,0:0:0:0:
448,192,30608,1,0,0:0:0:0:
320,192,30608,1,0,0:0:0:0:
64,192,30783,1,0,0:0:0:0:
448,192,30957,1,0,0:0:0:0:
192,192,30957,1,0,0:0:0:0:
448,192,31306,1,0,0:0:0:0:
64,192,31306,1,0,0:0:0:0:
192,192,31655,1,0,0:0:0:0:
320,192,32004,1,0,0:0:0:0:
448,192,32004,1,0,0:0:0:0:
64,192,32353,1,0,0:0:0:0:
192,192,32701,1,0,0:0:0:0:
448,192,32701,1,0,0:0:0:0:
