osu file format v14

[General]
AudioFilename: audio.ogg
AudioLeadIn: 0
PreviewTime: 53940
Countdown: 0
SampleSet: Soft
StackLeniency: 0.7
Mode: 0
LetterboxInBreaks: 0
WidescreenStoryboard: 1

[Editor]
DistanceSpacing: 1.1
BeatDivisor: 4
GridSize: 32
TimelineZoom: 1.1

[Metadata]
Title:Yume no Ito (TV Size)
TitleUnicode:夢の糸 (TV Size)
Artist:Akari Kito
ArtistUnicode:鬼頭明里
Creator:Fuxi66
Version:Normal
Source:魔都精兵のスレイブ
Tags:japanese pop jpop j-pop anime opening op mato seihei no slave chained soldier dream thread T4K Ririsya Masaki Kubo 久保正貴 [Limited Edition] [初回限定盤] album
BeatmapID:4460007
BeatmapSetID:2120394

[Difficulty]
HPDrainRate:3
CircleSize:3
OverallDifficulty:4
ApproachRate:6
SliderMultiplier:1
SliderTickRate:1

[Events]
//Background and Video events
0,0,"raw_7.jpg",0,0
Video,-70,"vidvidvid.avi"
//Break Periods
//Storyboard Layer 0 (Background)
//Storyboard Layer 1 (Fail)
//Storyboard Layer 2 (Pass)
//Storyboard Layer 3 (Foreground)
//Storyboard Layer 4 (Overlay)
//Storyboard Sound Samples

[TimingPoints]
749,306.122448979592,4,2,22,42,1,0
749,-111.111111111111,4,2,22,42,0,0
15442,-111.111111111111,4,2,22,52,0,0
17891,-111.111111111111,4,2,22,62,0,0
18810,-111.111111111111,4,2,22,72,0,0
19116,-111.111111111111,4,2,22,82,0,0
20187,-111.111111111111,4,2,22,62,0,0
24932,-111.111111111111,4,2,22,82,0,0
25162,-111.111111111111,4,2,22,5,0,0
25238,-99.9999999999999,4,2,22,72,0,0
35034,-111.111111111111,4,2,22,52,0,0
44830,-111.111111111111,4,2,22,62,0,0
52177,-99.9999999999999,4,2,22,72,0,0
53402,-99.9999999999999,4,2,22,82,0,0
54626,-95.2380952380952,4,2,22,87,0,0
61973,-95.2380952380952,4,2,22,92,0,0
62891,-95.2380952380952,4,2,22,87,0,0
66871,-95.2380952380952,4,2,22,92,0,0
67101,-95.2380952380952,4,2,22,5,0,0
67177,-95.2380952380952,4,2,22,92,0,0
67560,-95.2380952380952,4,2,22,5,0,0
67636,-95.2380952380952,4,2,22,92,0,0
67789,-95.2380952380952,4,2,22,82,0,0
72993,-95.2380952380952,4,2,22,92,0,0
74218,-100,4,2,22,72,0,0
84014,-100,4,2,22,72,0,0
88912,-100,4,2,22,5,0,0

[Colours]
Combo1 : 186,191,192
Combo2 : 233,90,90

[HitObjects]
103,68,15442,6,0,B|53:56|-3:46,2,89.9999972534181,4|0|0,1:2|1:2|1:2,0:2:0:0:
165,133,16361,1,0,1:2:0:0:
249,103,16667,2,0,P|275:57|270:18,2,89.9999972534181,0|4|4,1:2|1:2|1:2,0:2:0:0:
289,183,17585,1,4,1:2:0:0:
249,263,17891,6,0,P|171:283|152:290,1,89.9999972534181,4|0,1:2|1:2,0:0:0:0:
133,321,18351,2,0,P|95:309|84:306,1,44.999998626709,0|0,1:2|1:2,0:0:0:0:
45,306,18657,1,0,1:2:0:0:
13,221,18963,2,0,P|27:180|32:161,1,44.999998626709,0|8,1:2|0:2,0:0:0:0:
24,138,19269,1,8,0:2:0:0:
24,138,19422,1,8,0:2:0:0:
214,16,20187,5,0,1:2:0:0:
214,16,20340,1,8,0:2:0:0:
214,16,22789,6,0,P|200:83|192:122,1,89.9999972534181,2|0,1:2|1:2,0:0:0:0:
169,141,23249,2,0,P|129:149|113:152,2,44.999998626709,2|0|2,1:2|1:2|1:2,0:0:0:0:
223,212,23861,2,0,P|263:220|279:223,2,44.999998626709,2|0|2,1:2|1:2|1:2,0:0:0:0:
151,265,24473,1,10,0:2:0:0:
151,265,24626,2,0,P|160:305|162:313,1,44.999998626709,8|8,0:2|0:3,0:0:0:0:
174,351,24932,2,0,P|208:363|263:341,1,89.9999972534181,12|6,0:2|1:2,0:2:0:0:
302,259,25544,5,10,0:2:0:0:
302,259,25697,2,0,P|342:244|409:273,1,100,6|2,1:2|1:2,0:2:0:0:
413,312,26157,1,10,0:2:0:0:
413,312,26310,1,6,1:2:0:0:
503,269,26616,2,0,P|511:226|515:207,1,50,2|10,1:2|0:2,0:0:0:0:
495,172,26922,2,0,P|485:122|474:63,1,100,6|2,1:2|1:2,0:2:0:0:
486,24,27381,1,10,0:2:0:0:
388,0,27687,5,6,1:2:0:0:
335,86,27993,1,10,0:2:0:0:
335,86,28146,2,0,P|288:103|229:83,1,100,6|2,1:2|1:2,0:2:0:0:
229,42,28606,1,10,0:2:0:0:
229,42,28759,1,6,1:2:0:0:
143,93,29065,2,0,P|131:139|127:157,1,50,2|10,1:2|0:2,0:0:0:0:
91,172,29371,2,0,P|106:238|116:291,1,100,6|2,1:2|1:2,0:2:0:0:
98,317,29830,1,10,0:2:0:0:
191,353,30136,5,6,1:2:0:0:
283,310,30442,1,10,0:2:0:0:
283,310,30595,2,0,P|302:249|281:204,1,100,6|2,1:2|1:2,0:2:0:0:
248,201,31055,1,10,0:2:0:0:
248,201,31208,1,6,1:2:0:0:
150,222,31514,2,0,P|110:210|96:207,1,50,2|10,1:2|0:2,0:0:0:0:
52,202,31820,2,0,P|33:141|58:97,1,100,6|2,1:2|1:2,0:2:0:0:
89,84,32279,1,10,0:2:0:0:
179,125,32585,5,6,1:2:0:0:
246,50,32891,1,10,0:2:0:0:
246,50,33044,2,0,P|331:66|362:72,1,100,6|2,1:2|1:2,0:2:0:0:
378,105,33504,1,10,0:2:0:0:
378,105,33657,1,6,1:3:0:0:
467,61,33963,1,6,1:3:0:0:
504,153,34269,2,0,P|494:192|489:210,2,50,6|10|6,1:3|1:3|0:3,0:0:0:0:
452,28,35034,6,0,P|417:8|361:21,2,89.9999972534181,6|10|0,1:2|0:2|1:2,0:2:0:0:
466,70,35800,1,2,1:2:0:0:
413,142,36106,2,0,P|336:158|306:167,1,89.9999972534181,2|2,0:2|1:2,0:2:0:0:
305,203,36565,1,10,0:2:0:0:
305,203,36718,2,0,P|261:191|217:183,1,89.9999972534181,2|2,0:2|1:2,0:2:0:0:
174,198,37177,1,10,0:2:0:0:
105,139,37483,2,0,P|100:90|127:50,2,89.9999972534181,2|8|0,1:2|0:2|1:2,0:2:0:0:
29,188,38402,1,8,0:2:0:0:
64,270,38708,2,0,P|48:335|42:375,2,89.9999972534181,0|8|0,1:2|0:2|1:2,0:0:0:0:
107,260,39473,1,2,1:2:0:0:
181,207,39779,1,2,0:2:0:0:
181,207,39932,6,0,P|229:206|265:242,2,89.9999972534181,6|8|0,1:2|0:2|1:2,0:2:0:0:
151,172,40697,1,2,1:2:0:0:
60,166,41004,2,0,P|49:94|42:61,1,89.9999972534181,2|2,0:2|1:2,0:2:0:0:
116,7,41616,1,2,0:0:0:0:
214,16,41922,2,0,P|235:60|221:110,1,89.9999972534181,2|2,1:2|0:0,0:0:0:0:
180,114,42381,1,2,1:2:0:0:
100,172,42687,2,0,P|118:245|124:276,1,89.9999972534181,10|0,0:2|1:2,0:2:0:0:
138,311,43146,1,0,1:2:0:0:
138,311,43300,1,8,0:2:0:0:
232,340,43606,2,0,P|226:373|222:399,2,44.999998626709,0|0|8,1:2|1:2|0:2,0:0:0:0:
298,266,44218,1,0,1:2:0:0:
383,313,44524,2,0,P|420:304|438:299,1,44.999998626709,8|2,0:2|1:2,0:0:0:0:
471,302,44830,6,0,P|454:266|469:207,1,89.9999972534181,6|10,1:2|0:2,0:2:0:0:
496,189,45289,1,2,0:2:0:0:
466,104,45595,2,0,P|458:67|452:44,1,44.999998626709,2|8,1:2|0:2,0:0:0:0:
438,18,45902,2,0,P|403:39|342:28,1,89.9999972534181,2|2,0:2|1:2,0:2:0:0:
270,6,46514,1,2,0:2:0:0:
199,61,46820,1,2,1:2:0:0:
204,155,47126,1,0,0:2:0:0:
204,155,47279,6,0,P|280:168|313:174,1,89.9999972534181,6|10,1:2|0:2,0:2:0:0:
307,212,47738,2,0,P|354:204|395:196,1,89.9999972534181,2|2,0:2|1:2,0:2:0:0:
430,167,48197,1,10,0:2:0:0:
503,228,48504,1,6,1:2:0:0:
503,228,48657,2,0,P|513:264|490:323,1,89.9999972534181,0|0,1:0|0:0,0:0:0:0:
483,355,49116,2,0,P|442:347|432:346,1,44.999998626709,0|0,1:2|1:2,0:0:0:0:
394,352,49422,1,8,0:2:0:0:
342,278,49728,6,0,P|348:247|352:226,2,44.999998626709,6|2|10,1:2|1:2|0:2,0:0:0:0:
305,303,50187,2,0,P|238:320|202:329,1,89.9999972534181,2|2,0:2|1:2,0:2:0:0:
195,365,50646,1,10,0:2:0:0:
195,365,50800,1,2,0:2:0:0:
119,320,51106,1,2,1:2:0:0:
119,320,51259,2,0,P|117:276|148:239,2,89.9999972534181,10|0|8,0:2|1:2|0:2,0:2:0:0:
94,363,52024,1,0,0:2:0:0:
94,363,52177,5,14,0:2:0:0:
7,312,52483,1,10,0:2:0:0:
7,312,52636,2,0,P|0:245|-6:205,1,100,2|2,1:2|1:2,0:0:0:0:
30,118,53249,2,0,P|76:128|94:133,1,50,2|8,1:2|0:2,0:0:0:0:
131,121,53555,1,10,0:2:0:0:
131,121,53708,1,8,0:2:0:0:
334,361,54626,6,0,P|347:288|357:249,1,104.999996795654,6|8,1:2|0:2,0:2:0:0:
400,230,55085,1,2,0:2:0:0:
400,230,55238,2,0,P|387:157|377:118,1,104.999996795654,2|8,1:2|0:2,0:0:0:0:
398,80,55697,1,2,0:2:0:0:
398,80,55851,1,2,1:2:0:0:
313,17,56157,1,10,0:2:0:0:
229,81,56463,2,0,P|176:67|166:64,1,52.4999983978272,2|0,1:2|1:2,0:0:0:0:
145,27,56769,2,0,P|92:41|82:44,1,52.4999983978272,10|0,0:2|0:2,0:2:0:0:
42,32,57075,6,0,P|61:69|38:138,1,104.999996795654,6|8,1:2|0:2,0:2:0:0:
13,169,57534,1,2,0:2:0:0:
13,169,57687,2,0,P|-6:206|17:275,1,104.999996795654,2|8,1:2|0:2,0:0:0:0:
60,289,58146,1,2,0:2:0:0:
60,289,58300,1,2,1:2:0:0:
151,238,58606,1,10,0:2:0:0:
195,332,58912,2,0,P|240:343|261:348,1,52.4999983978272,0|0,1:2|1:2,0:0:0:0:
289,374,59218,1,8,0:2:0:0:
350,289,59524,5,6,1:2:0:0:
277,213,59830,2,0,P|257:164|282:106,1,104.999996795654,10|0,0:2|1:2,0:2:0:0:
309,18,60442,1,10,0:2:0:0:
409,48,60749,2,0,P|472:34|535:22,2,104.999996795654,2|10|2,1:2|0:2|1:2,0:2:0:0:
376,147,61667,1,10,0:2:0:0:
456,214,61973,6,0,P|467:259|471:273,1,52.4999983978272,10|0,0:2|1:2,0:0:0:0:
484,314,62279,2,0,P|435:297|374:337,1,104.999996795654,10|10,0:2|0:2,0:0:0:0:
372,369,62738,1,0,1:2:0:0:
372,369,62891,1,14,0:2:0:0:
270,313,63197,2,0,P|281:274|289:249,1,52.4999983978272,2|10,1:2|0:2,0:0:0:0:
310,208,63504,1,8,0:2:0:0:
235,133,63810,2,0,P|224:94|216:69,2,52.4999983978272,6|10|2,1:2|0:2|1:2,0:0:0:0:
209,180,64269,1,4,1:3:0:0:
209,180,64422,6,0,P|157:195|113:175,1,104.999996795654,6|8,1:2|0:2,0:2:0:0:
64,182,64881,1,2,0:2:0:0:
64,182,65034,2,0,P|81:249|89:300,1,104.999996795654,2|8,1:2|0:2,0:0:0:0:
65,334,65493,1,2,0:2:0:0:
65,334,65646,1,2,1:2:0:0:
160,379,65953,1,10,0:2:0:0:
222,295,66259,2,0,P|271:306|281:308,1,52.4999983978272,2|0,1:2|1:2,0:2:0:0:
306,347,66565,2,0,P|355:336|365:334,1,52.4999983978272,10|0,0:2|0:2,0:2:0:0:
405,356,66871,6,0,P|415:303|430:253,1,104.999996795654,6|10,1:2|0:2,0:2:0:0:
480,239,67330,2,0,P|470:186|455:136,1,104.999996795654,6|10,1:2|0:2,0:2:0:0:
476,88,67789,1,6,1:2:0:0:
384,49,68095,1,8,0:2:0:0:
384,49,68249,2,0,P|397:6|402:-13,2,52.4999983978272,4|0|8,1:3|1:2|0:3,0:0:0:0:
343,81,68708,2,0,P|317:88|292:95,1,52.4999983978272,8|4,0:3|0:3,0:0:0:0:
260,137,69014,1,6,1:2:0:0:
323,220,69320,1,6,1:2:0:0:
265,308,69626,6,0,P|214:295|148:280,1,104.999996795654,10|0,0:2|1:2,0:2:0:0:
72,336,70238,1,10,0:2:0:0:
5,254,70544,2,0,P|36:206|26:145,1,104.999996795654,2|10,1:2|0:2,0:2:0:0:
0,59,71157,1,2,1:2:0:0:
95,15,71463,2,0,P|131:25|158:34,1,52.4999983978272,10|8,0:2|0:2,0:0:0:0:
164,78,71769,5,10,0:2:0:0:
268,71,72075,2,0,P|249:152|242:194,1,104.999996795654,10|8,0:2|0:2,0:0:0:0:
172,249,72687,1,10,0:2:0:0:
226,338,72993,1,10,0:2:0:0:
276,324,73146,1,8,0:2:0:0:
327,310,73300,1,8,0:2:0:0:
503,67,74218,5,6,1:2:0:0:
420,121,74524,1,10,0:2:0:0:
420,121,74677,2,0,P|405:161|434:228,1,100,6|2,1:2|1:2,0:2:0:0:
471,237,75137,1,10,0:2:0:0:
471,237,75290,1,6,1:2:0:0:
444,333,75596,2,0,P|401:325|382:321,1,50,2|10,1:2|0:2,0:0:0:0:
349,301,75902,2,0,P|299:311|240:322,1,100,6|2,1:2|1:2,0:2:0:0:
217,357,76361,1,10,0:2:0:0:
136,298,76667,5,6,1:2:0:0:
202,224,76973,1,10,0:2:0:0:
202,224,77126,2,0,P|219:177|199:118,1,100,6|2,1:2|1:2,0:2:0:0:
170,105,77586,1,10,0:2:0:0:
170,105,77739,1,4,1:2:0:0:
76,69,78045,2,0,P|64:115|60:133,1,50,2|10,1:2|0:2,0:0:0:0:
28,153,78351,2,0,P|43:219|53:272,1,100,6|2,1:2|1:2,0:2:0:0:
36,299,78810,1,10,0:2:0:0:
130,332,79116,5,6,1:2:0:0:
202,263,79422,1,10,0:2:0:0:
202,263,79575,2,0,P|263:244|308:265,1,100,6|2,1:2|1:2,0:2:0:0:
326,301,80035,1,10,0:2:0:0:
326,301,80188,1,6,1:2:0:0:
407,242,80494,2,0,P|419:202|422:188,1,50,2|10,1:2|0:2,0:0:0:0:
420,144,80800,2,0,P|359:163|315:138,1,100,6|2,1:2|1:2,0:2:0:0:
302,107,81259,1,10,0:2:0:0:
204,130,81565,5,6,1:2:0:0:
244,227,81871,1,10,0:2:0:0:
244,227,82024,2,0,P|228:312|222:343,1,100,6|2,1:2|1:2,0:2:0:0:
251,374,82484,1,10,0:2:0:0:
251,374,82637,1,6,1:3:0:0:
336,322,82943,1,6,1:3:0:0:
419,377,83249,2,0,P|458:367|476:362,2,50,14|10|6,1:3|1:3|0:3,0:0:0:0:
381,231,84014,5,6,1:2:0:0:
256,192,84167,12,0,88912,0:0:0:0:
