osu file format v14

[General]
AudioFilename: audio.ogg
AudioLeadIn: 0
PreviewTime: 53940
Countdown: 0
SampleSet: Soft
StackLeniency: 0.7
Mode: 0
LetterboxInBreaks: 0
WidescreenStoryboard: 1

[Editor]
DistanceSpacing: 1.4
BeatDivisor: 4
GridSize: 32
TimelineZoom: 2.4

[Metadata]
Title:Yume no Ito (TV Size)
TitleUnicode:夢の糸 (TV Size)
Artist:Akari Kito
ArtistUnicode:鬼頭明里
Creator:Fuxi66
Version:Insane
Source:魔都精兵のスレイブ
Tags:japanese pop jpop j-pop anime opening op mato seihei no slave chained soldier dream thread T4K Ririsya Masaki Kubo 久保正貴 [Limited Edition] [初回限定盤] album
BeatmapID:4465551
BeatmapSetID:2120394

[Difficulty]
HPDrainRate:5
CircleSize:3.6
OverallDifficulty:8
ApproachRate:9
SliderMultiplier:1.6
SliderTickRate:1

[Events]
//Background and Video events
0,0,"raw_7.jpg",0,0
Video,-70,"vidvidvid.avi"
//Break Periods
//Storyboard Layer 0 (Background)
//Storyboard Layer 1 (Fail)
//Storyboard Layer 2 (Pass)
//Storyboard Layer 3 (Foreground)
//Storyboard Layer 4 (Overlay)
//Storyboard Sound Samples

[TimingPoints]
749,306.122448979592,4,2,22,42,1,0
749,-142.857142857143,4,2,22,42,0,0
15442,-125,4,2,22,52,0,0
17891,-125,4,2,22,62,0,0
18810,-125,4,2,22,72,0,0
19116,-125,4,2,22,82,0,0
20187,-125,4,2,22,62,0,0
22789,-111.111111111111,4,2,22,62,0,0
24932,-111.111111111111,4,2,22,82,0,0
25162,-111.111111111111,4,2,22,5,0,0
25238,-100,4,2,22,72,0,0
35034,-125,4,2,22,52,0,0
44830,-111.111111111111,4,2,22,62,0,0
52177,-99.9999999999999,4,2,22,72,0,0
53402,-99.9999999999999,4,2,22,82,0,0
54626,-90.9090909090908,4,2,22,87,0,0
61973,-90.9090909090908,4,2,22,92,0,0
62891,-90.9090909090908,4,2,22,87,0,0
66871,-90.9090909090908,4,2,22,92,0,0
67101,-90.9090909090908,4,2,22,5,0,0
67177,-90.9090909090908,4,2,22,92,0,0
67560,-90.9090909090908,4,2,22,5,0,0
67636,-90.9090909090908,4,2,22,92,0,0
67789,-90.9090909090908,4,2,22,82,0,0
72993,-90.9090909090908,4,2,22,92,0,0
74218,-100,4,2,22,72,0,0
88912,-100,4,2,22,5,0,0

[Colours]
Combo1 : 186,191,192
Combo2 : 233,90,90

[HitObjects]
139,171,15442,6,0,P|133:223|130:253,1,64,4|0,1:2|0:2,0:2:0:0:
237,180,15749,2,0,P|232:148|226:116,1,64,0|0,1:2|0:2,0:2:0:0:
131,177,16055,2,0,P|125:229|122:261,1,64,0|0,1:2|0:2,0:2:0:0:
245,175,16361,2,0,P|240:143|235:112,1,64,0|0,1:2|0:2,0:2:0:0:
212,260,16667,2,0,P|251:223|329:239,1,128,0|4,1:2|1:2,0:2:0:0:
373,377,17279,2,0,P|326:366|298:360,1,64,4|0,1:2|0:2,0:2:0:0:
444,275,17585,2,0,P|396:286|369:292,1,64,4|0,1:2|0:2,0:2:0:0:
219,357,17891,6,0,B|173:338|143:328|143:328|122:354|78:359,1,128,4|0,1:2|1:2,0:0:0:0:
10,281,18351,2,0,P|51:267|83:281,1,64,0|0,1:2|1:2,0:0:0:0:
108,373,18657,1,0,1:2:0:0:
152,260,18810,1,8,0:2:0:0:
23,367,18963,1,0,1:2:0:0:
102,186,19116,5,8,0:2:0:0:
202,340,19269,1,8,0:2:0:0:
92,168,19422,1,8,0:2:0:0:
396,375,20187,5,0,1:2:0:0:
396,375,20264,1,0,1:2:0:0:
396,375,20340,1,8,0:2:0:0:
396,375,22789,6,0,L|403:334,3,35.9999989013672,2|0|0|0,1:2|1:2|1:2|1:2,0:0:0:0:
324,338,23095,2,0,L|331:297,3,35.9999989013672,2|0|0|0,1:2|1:2|1:2|1:2,0:0:0:0:
256,213,23402,2,0,L|262:248,3,35.9999989013672,2|0|0|0,1:2|1:2|1:2|1:2,0:0:0:0:
328,176,23708,2,0,L|334:211,3,35.9999989013672,2|0|0|0,1:2|1:2|1:2|1:2,0:0:0:0:
236,324,24014,1,2,1:2:0:0:
236,324,24090,1,0,1:2:0:0:
236,324,24167,2,0,L|200:317,1,35.9999989013672,0|0,1:2|1:2,0:2:0:0:
144,263,24320,2,0,L|108:269,1,35.9999989013672,2|0,1:2|1:2,0:2:0:0:
30,339,24473,5,10,0:2:0:0:
46,321,24550,1,8,0:2:0:0:
57,300,24626,1,8,0:2:0:0:
61,276,24702,1,8,0:3:0:0:
57,253,24779,1,8,0:3:0:0:
47,231,24855,1,4,0:3:0:0:
31,213,24932,2,0,P|23:165|51:108,1,107.999996704102,12|0,0:2|0:2,0:2:0:0:
71,100,25238,6,0,P|127:111|166:119,1,80,6|2,1:2|1:2,0:0:0:0:
253,61,25544,1,10,0:2:0:0:
149,218,25697,2,0,P|233:194|310:174,1,160,6|2,1:2|1:2,0:2:0:0:
388,259,26157,1,10,0:2:0:0:
287,88,26310,6,0,P|342:149|420:145,1,160,6|2,1:2|1:2,0:2:0:0:
376,59,26769,1,10,0:2:0:0:
512,0,26922,2,0,P|494:70|489:88,1,80,6|0,1:2|0:2,0:2:0:0:
428,174,27228,1,2,1:2:0:0:
428,174,27381,2,0,P|446:244|451:262,1,80,10|0,0:2|0:2,0:2:0:0:
302,327,27687,5,6,1:2:0:0:
338,199,27840,1,2,1:2:0:0:
412,344,27993,1,10,0:2:0:0:
258,241,28146,2,0,B|220:216|175:228|175:228|164:275|105:287,1,160,6|2,1:2|1:2,0:2:0:0:
9,181,28606,1,10,0:2:0:0:
121,47,28759,2,0,P|104:125|87:220,1,160,6|2,1:2|1:2,0:2:0:0:
13,275,29218,1,10,0:2:0:0:
154,379,29371,2,0,P|141:326|132:292,1,80,6|0,1:2|0:2,0:2:0:0:
197,158,29677,1,2,1:2:0:0:
337,310,29830,1,10,0:2:0:0:
337,310,29907,1,8,0:2:0:0:
337,310,29983,1,8,0:2:0:0:
210,252,30136,5,6,1:2:0:0:
321,129,30289,2,0,P|310:167|301:206,1,80,2|10,1:2|0:2,0:0:0:0:
105,221,30595,2,0,P|144:157|232:150,1,160,6|2,1:2|1:2,0:2:0:0:
329,215,31055,1,10,0:2:0:0:
210,379,31208,6,0,B|172:334|172:334|208:230,1,160,6|2,1:2|1:2,0:2:0:0:
304,135,31667,1,10,0:2:0:0:
360,298,31820,2,0,P|306:307|274:314,1,80,6|0,1:2|0:2,0:2:0:0:
375,202,32126,1,2,1:2:0:0:
375,202,32279,2,0,P|429:211|461:218,1,80,10|0,0:2|0:2,0:2:0:0:
304,135,32585,5,6,1:2:0:0:
360,298,32738,1,2,1:2:0:0:
421,111,32891,1,10,0:2:0:0:
252,230,33044,2,0,B|200:215|200:215|162:231|162:231|99:213,1,160,6|2,1:2|1:2,0:2:0:0:
9,234,33504,1,10,0:2:0:0:
148,139,33657,1,6,1:3:0:0:
46,380,33963,5,6,1:3:0:0:
30,107,34269,5,6,1:3:0:0:
100,213,34422,1,10,1:3:0:0:
24,97,34575,1,6,0:3:0:0:
24,97,35034,6,0,B|75:84|95:105|83:113|108:137|154:120,2,128,6|10|0,1:2|0:2|1:2,0:2:0:0:
2,3,35800,2,0,P|53:12|70:15,1,64,2|8,1:2|0:2,0:2:0:0:
147,42,36106,2,0,P|202:30|294:12,1,128,2|2,0:2|1:2,0:2:0:0:
361,84,36565,1,10,0:2:0:0:
361,84,36718,2,0,P|298:96|235:109,1,128,2|2,0:2|1:2,0:2:0:0:
194,196,37177,1,10,0:2:0:0:
302,354,37483,6,0,P|316:307|271:231,2,128,2|8|0,1:2|0:2|1:2,0:2:0:0:
223,312,38249,1,0,1:2:0:0:
223,312,38402,2,0,P|179:302|144:295,1,64,8|0,0:2|0:2,0:2:0:0:
129,207,38708,2,0,P|160:213|191:220,1,64,0|0,1:2|1:2,0:0:0:0:
63,335,39014,2,0,P|59:299|39:199,1,128,8|0,0:2|1:2,0:2:0:0:
0,130,39473,2,0,P|6:98|13:67,1,64,2|8,1:2|0:2,0:2:0:0:
82,8,39779,1,2,0:2:0:0:
170,113,39932,6,0,B|202:96|240:99|240:99|251:131|289:144,2,128,6|8|0,1:2|0:2|1:2,0:2:0:0:
145,232,40697,2,0,P|186:220|222:211,1,64,2|8,1:2|0:2,0:2:0:0:
315,309,41004,2,0,P|274:297|238:288,1,64,2|0,0:2|1:2,0:2:0:0:
153,384,41310,2,0,P|194:372|230:363,1,64,2|8,1:2|0:2,0:2:0:0:
378,368,41616,2,0,P|401:322|380:252,1,128,2|2,0:2|1:2,0:2:0:0:
379,251,42075,1,8,0:2:0:0:
287,147,42228,1,2,0:2:0:0:
287,147,42381,6,0,P|301:199|309:236,1,64,2|0,1:2|1:2,0:2:0:0:
413,328,42687,2,0,P|426:251|440:189,1,128,10|0,0:2|1:2,0:2:0:0:
500,140,43146,1,0,1:2:0:0:
500,140,43300,2,0,P|468:115|428:114,1,64,8|0,0:2|0:2,0:2:0:0:
274,131,43606,2,0,P|260:84|252:57,1,64,0|0,1:2|1:2,0:0:0:0:
391,0,43912,2,0,B|409:42|379:68|378:56|346:77|365:139,1,128,8|0,0:2|1:2,0:2:0:0:
424,233,44371,2,0,P|471:243|498:249,1,64,2|8,1:2|0:2,0:0:0:0:
367,147,44677,1,2,1:2:0:0:
289,283,44830,6,0,P|264:289|207:307,1,71.9999978027344,6|0,1:2|0:2,0:2:0:0:
62,267,45136,1,10,0:2:0:0:
123,364,45289,2,0,P|139:288|154:221,1,143.999995605469,2|2,0:2|1:2,0:2:0:0:
153,223,45749,1,8,0:2:0:0:
101,135,45902,2,0,P|53:175|34:190,1,71.9999978027344,2|0,0:2|1:2,0:2:0:0:
187,108,46208,2,0,P|175:46|172:22,1,71.9999978027344,2|8,1:2|0:2,0:2:0:0:
167,198,46514,2,0,P|226:218|248:227,1,71.9999978027344,2|0,0:2|1:2,0:2:0:0:
337,232,46820,2,0,P|294:235|242:317,1,143.999995605469,2|0,1:2|0:2,0:2:0:0:
405,296,47279,6,0,P|429:252|425:221,1,71.9999978027344,6|0,1:2|1:2,0:2:0:0:
311,146,47585,1,10,0:2:0:0:
311,146,47738,2,0,P|331:183|428:196,1,143.999995605469,2|2,0:2|1:2,0:2:0:0:
411,50,48197,2,0,P|395:115|388:143,1,71.9999978027344,10|0,0:2|0:2,0:2:0:0:
308,235,48504,1,6,1:2:0:0:
308,235,48657,2,0,B|260:226|260:226|233:195|233:195|173:186,1,143.999995605469,0|0,1:2|0:0,0:0:0:0:
107,312,49116,2,0,P|166:295|190:289,1,71.9999978027344,0|0,1:2|1:2,0:0:0:0:
100,224,49422,2,0,P|41:207|17:201,1,71.9999978027344,8|0,0:2|0:2,0:2:0:0:
132,68,49728,5,6,1:2:0:0:
43,50,49881,2,0,P|46:100|68:125,1,71.9999978027344,2|10,1:2|0:2,0:0:0:0:
190,172,50187,2,0,B|231:149|278:159|278:159|291:199|323:210,1,143.999995605469,2|2,0:2|1:2,0:2:0:0:
368,136,50646,1,10,0:2:0:0:
288,9,50800,2,0,P|301:67|306:90,1,71.9999978027344,2|0,0:2|1:2,0:2:0:0:
461,152,51106,1,2,1:2:0:0:
461,152,51259,2,0,P|475:75|489:10,1,143.999995605469,10|0,0:2|1:2,0:2:0:0:
381,102,51718,1,0,1:2:0:0:
442,252,51871,2,0,P|484:240|524:230,1,71.9999978027344,8|0,0:2|0:2,0:2:0:0:
318,203,52177,6,0,B|266:186|234:213|256:221|214:265|150:227,1,160,14|10,0:2|0:2,0:0:0:0:
161,71,52636,2,0,P|180:135|189:174,1,80,2|8,1:2|0:2,0:0:0:0:
80,282,52942,1,2,1:2:0:0:
88,179,53095,1,8,0:2:0:0:
196,257,53249,1,2,1:2:0:0:
143,95,53402,5,8,0:2:0:0:
55,275,53555,1,10,0:2:0:0:
151,73,53708,1,8,0:2:0:0:
442,273,54626,6,0,B|417:229|362:229|362:229|343:270|286:279,1,176.000005371094,6|8,1:2|0:2,0:2:0:0:
172,166,55085,1,2,0:2:0:0:
305,18,55238,2,0,P|281:120|263:208,1,176.000005371094,2|8,1:2|0:2,0:0:0:0:
129,271,55697,1,2,0:2:0:0:
112,96,55851,6,0,P|178:73|217:88,1,88.000002685547,2|0,1:2|1:2,0:2:0:0:
81,190,56157,2,0,P|37:191|0:170,1,88.000002685547,10|0,0:2|0:2,0:2:0:0:
117,289,56463,1,2,1:2:0:0:
178,167,56616,1,0,1:2:0:0:
107,317,56769,2,0,P|170:306|208:302,1,88.000002685547,10|0,0:2|0:2,0:2:0:0:
368,378,57075,6,0,P|305:355|291:247,1,176.000005371094,6|8,1:2|0:2,0:2:0:0:
388,135,57534,1,2,0:2:0:0:
512,280,57687,2,0,B|465:327|465:327|353:287,1,176.000005371094,2|8,1:2|0:2,0:0:0:0:
304,166,58146,1,2,0:2:0:0:
171,281,58300,6,0,P|191:352|198:379,1,88.000002685547,2|0,1:2|1:2,0:2:0:0:
294,184,58606,2,0,P|280:232|270:268,1,88.000002685547,10|0,0:2|0:2,0:2:0:0:
154,135,58912,1,0,1:2:0:0:
184,261,59065,1,0,1:2:0:0:
150,109,59218,2,0,P|194:87|239:100,1,88.000002685547,8|0,0:2|0:2,0:2:0:0:
378,263,59524,6,0,P|392:204|405:163,1,88.000002685547,6|0,1:2|1:2,0:2:0:0:
300,17,59830,2,0,P|335:73|444:74,1,176.000005371094,10|0,0:2|1:2,0:2:0:0:
316,159,60289,1,0,1:2:0:0:
418,276,60442,2,0,P|472:257|510:246,1,88.000002685547,10|0,0:2|0:2,0:2:0:0:
290,352,60749,6,0,P|236:333|198:322,1,88.000002685547,2|0,1:2|1:2,0:2:0:0:
302,180,61055,2,0,P|321:234|332:272,1,88.000002685547,10|0,0:2|0:2,0:2:0:0:
483,368,61361,1,2,1:2:0:0:
416,239,61514,1,0,1:2:0:0:
281,365,61667,2,0,P|227:346|189:335,1,88.000002685547,10|0,0:2|0:2,0:2:0:0:
22,249,61973,5,10,0:2:0:0:
83,345,62126,1,0,1:2:0:0:
112,140,62279,5,10,0:2:0:0:
136,276,62432,1,0,1:2:0:0:
256,91,62585,5,10,0:2:0:0:
227,253,62738,1,0,1:2:0:0:
21,113,62891,6,0,P|60:61|167:64,1,176.000005371094,14|0,0:2|1:2,0:2:0:0:
275,175,63351,1,8,0:2:0:0:
110,270,63504,2,0,P|49:256|1:247,1,88.000002685547,8|0,0:2|1:2,0:2:0:0:
164,167,63810,1,6,1:2:0:0:
192,364,63963,1,10,0:2:0:0:
192,364,64039,1,8,0:2:0:0:
192,364,64116,2,0,L|248:345,1,44.0000013427735,2|8,1:2|1:3,0:2:0:0:
290,291,64269,2,0,L|346:310,1,44.0000013427735,4|4,1:3|1:3,0:0:0:0:
404,355,64422,6,0,B|439:313|414:258|404:272|375:229|420:172,1,176.000005371094,6|8,1:2|0:2,0:2:0:0:
307,42,64881,1,2,0:2:0:0:
495,154,65034,2,0,P|447:106|336:130,1,176.000005371094,2|8,1:2|0:2,0:0:0:0:
296,258,65493,1,2,0:2:0:0:
168,105,65646,2,0,P|248:119|283:126,1,88.000002685547,2|0,1:2|1:2,0:2:0:0:
302,280,65953,2,0,P|222:294|187:301,1,88.000002685547,10|0,0:2|0:2,0:2:0:0:
369,210,66259,2,0,P|395:264|382:315,1,88.000002685547,2|0,1:2|1:2,0:2:0:0:
255,121,66565,2,0,P|255:77|278:40,1,88.000002685547,10|0,0:2|0:2,0:2:0:0:
267,249,66871,6,0,P|199:228|114:211,1,132.00000402832,6|0,1:2|0:2,0:2:0:0:
115,232,67177,1,10,0:2:0:0:
93,10,67330,6,0,P|142:37|149:126,1,132.00000402832,6|0,1:2|0:2,0:2:0:0:
135,120,67636,1,10,0:2:0:0:
298,254,67789,6,0,B|341:222|395:232|395:232|407:290|473:293,1,176.000005371094,6|8,1:2|0:2,0:2:0:0:
481,205,68249,1,4,1:3:0:0:
354,322,68402,1,0,1:2:0:0:
495,190,68555,1,8,0:3:0:0:
307,159,68708,1,8,0:3:0:0:
460,301,68861,1,4,0:3:0:0:
260,368,69014,2,0,P|223:332|128:342,1,132.00000402832,6|0,1:2|0:2,0:2:0:0:
127,356,69320,6,0,P|115:297|105:259,1,88.000002685547,6|0,1:2|1:2,0:2:0:0:
251,124,69626,2,0,P|233:202|212:312,1,176.000005371094,10|0,0:2|1:2,0:2:0:0:
143,178,70085,1,0,1:2:0:0:
316,62,70238,2,0,P|368:57|406:84,1,88.000002685547,10|0,0:2|0:2,0:2:0:0:
499,178,70544,6,0,P|425:199|389:213,1,88.000002685547,2|0,1:2|1:2,0:2:0:0:
300,320,70851,2,0,P|258:306|215:295,1,88.000002685547,10|0,0:2|0:2,0:2:0:0:
136,131,71157,1,2,1:2:0:0:
241,194,71310,1,0,1:2:0:0:
115,293,71463,1,10,0:2:0:0:
98,299,71539,1,8,0:2:0:0:
80,301,71616,1,8,0:2:0:0:
63,298,71692,1,8,0:2:0:0:
47,289,71769,6,0,P|36:241|21:178,1,88.000002685547,10|0,0:2|1:2,0:0:0:0:
155,45,72075,2,0,P|145:87|135:130,1,88.000002685547,10|0,0:2|1:2,0:0:0:0:
287,259,72381,5,8,0:2:0:0:
228,117,72534,1,0,1:2:0:0:
207,219,72687,5,10,0:2:0:0:
299,67,72840,1,0,1:2:0:0:
144,161,72993,5,10,0:2:0:0:
363,126,73146,1,8,0:2:0:0:
129,161,73300,1,8,0:2:0:0:
289,306,74218,6,0,P|300:250|308:211,1,80,6|2,1:2|1:2,0:0:0:0:
338,55,74524,1,10,0:2:0:0:
234,127,74677,2,0,P|324:143|406:158,1,160,6|2,1:2|1:2,0:2:0:0:
492,256,75137,1,10,0:2:0:0:
354,359,75289,6,0,P|295:294|324:204,1,160,6|2,1:2|1:2,0:2:0:0:
424,162,75749,1,10,0:2:0:0:
339,26,75902,2,0,P|269:44|251:49,1,80,6|0,1:2|0:2,0:2:0:0:
198,167,76208,1,2,1:2:0:0:
198,167,76361,2,0,P|128:149|110:144,1,80,10|0,0:2|0:2,0:2:0:0:
295,259,76667,5,6,1:2:0:0:
289,133,76820,1,2,1:2:0:0:
196,262,76973,1,10,0:2:0:0:
372,181,77126,2,0,B|410:156|455:168|455:168|466:215|525:227,1,160,6|2,1:2|1:2,0:2:0:0:
428,81,77586,1,10,0:2:0:0:
370,274,77738,6,0,B|318:258|318:258|275:276|275:276|193:248,1,160,4|2,1:2|1:2,0:2:0:0:
76,327,78198,1,10,0:2:0:0:
115,148,78351,2,0,P|125:186|136:229,1,80,6|0,1:2|0:2,0:2:0:0:
196,340,78657,1,2,1:2:0:0:
270,179,78810,1,10,0:2:0:0:
270,179,78887,1,8,0:2:0:0:
270,179,78963,1,8,0:2:0:0:
130,254,79116,5,6,1:2:0:0:
299,351,79269,2,0,P|337:340|376:331,1,80,2|10,1:2|0:2,0:0:0:0:
512,153,79575,2,0,P|430:189|431:273,1,160,6|2,1:2|1:2,0:2:0:0:
463,380,80035,1,10,0:2:0:0:
322,236,80187,2,0,B|274:214|237:243|253:252|213:284|151:256,1,160,6|2,1:2|1:2,0:2:0:0:
76,132,80647,1,10,0:2:0:0:
201,69,80800,2,0,P|188:119|180:155,1,80,6|0,1:2|0:2,0:2:0:0:
74,233,81106,1,2,1:2:0:0:
74,233,81259,2,0,P|88:292|93:318,1,80,10|0,0:2|0:2,0:2:0:0:
284,204,81565,5,6,1:2:0:0:
215,353,81718,1,2,1:2:0:0:
179,166,81871,1,10,0:2:0:0:
323,313,82024,2,0,B|351:267|408:265|408:265|424:303|478:310,1,160,6|2,1:2|1:2,0:2:0:0:
489,219,82484,1,10,0:2:0:0:
388,377,82637,1,6,1:3:0:0:
304,85,82943,5,6,1:3:0:0:
226,287,83249,5,14,1:3:0:0:
342,226,83402,1,10,1:3:0:0:
208,298,83555,1,6,0:3:0:0:
426,26,84014,5,6,1:2:0:0:
256,192,84090,12,0,88912,0:0:0:0:
