osu file format v14

[General]
AudioFilename: audio.ogg
AudioLeadIn: 0
PreviewTime: 53940
Countdown: 0
SampleSet: Soft
StackLeniency: 0.7
Mode: 0
LetterboxInBreaks: 0
WidescreenStoryboard: 1

[Editor]
DistanceSpacing: 1.4
BeatDivisor: 4
GridSize: 32
TimelineZoom: 2.4

[Metadata]
Title:Yume no Ito (TV Size)
TitleUnicode:夢の糸 (TV Size)
Artist:Akari Kito
ArtistUnicode:鬼頭明里
Creator:Fuxi66
Version:Hard
Source:魔都精兵のスレイブ
Tags:japanese pop jpop j-pop anime opening op mato seihei no slave chained soldier dream thread T4K Ririsya Masaki Kubo 久保正貴 [Limited Edition] [初回限定盤] album
BeatmapID:4464546
BeatmapSetID:2120394

[Difficulty]
HPDrainRate:4
CircleSize:3.4
OverallDifficulty:6
ApproachRate:8
SliderMultiplier:1.4
SliderTickRate:1

[Events]
//Background and Video events
0,0,"raw_7.jpg",0,0
Video,-70,"vidvidvid.avi"
//Break Periods
//Storyboard Layer 0 (Background)
//Storyboard Layer 1 (Fail)
//Storyboard Layer 2 (Pass)
//Storyboard Layer 3 (Foreground)
//Storyboard Layer 4 (Overlay)
//Storyboard Sound Samples

[TimingPoints]
749,306.122448979592,4,2,22,42,1,0
15442,-125,4,2,22,52,0,0
17891,-125,4,2,22,62,0,0
18810,-125,4,2,22,72,0,0
19116,-125,4,2,22,82,0,0
20187,-125,4,2,22,62,0,0
22789,-111.111111111111,4,2,22,62,0,0
24932,-111.111111111111,4,2,22,82,0,0
25162,-111.111111111111,4,2,22,5,0,0
25238,-100,4,2,22,72,0,0
35034,-125,4,2,22,52,0,0
44830,-111.111111111111,4,2,22,62,0,0
52177,-111.111111111111,4,2,22,72,0,0
53402,-111.111111111111,4,2,22,82,0,0
54626,-90.9090909090908,4,2,22,87,0,0
61973,-90.9090909090908,4,2,22,92,0,0
62891,-90.9090909090908,4,2,22,87,0,0
66871,-90.9090909090908,4,2,22,92,0,0
67101,-90.9090909090908,4,2,22,5,0,0
67177,-90.9090909090908,4,2,22,92,0,0
67560,-90.9090909090908,4,2,22,5,0,0
67636,-90.9090909090908,4,2,22,92,0,0
67789,-90.9090909090908,4,2,22,82,0,0
72993,-90.9090909090908,4,2,22,92,0,0
74218,-100,4,2,22,72,0,0
88912,-100,4,2,22,5,0,0

[Colours]
Combo1 : 186,191,192
Combo2 : 233,90,90

[HitObjects]
190,276,15442,6,0,P|194:305|199:334,1,56,4|0,1:2|0:2,0:2:0:0:
121,346,15749,2,0,P|116:316|111:287,1,56,0|0,1:2|0:2,0:2:0:0:
138,216,16055,2,0,P|147:153|157:90,1,112,0|0,1:2|1:2,0:2:0:0:
296,37,16667,6,0,P|266:41|237:46,1,56,0|0,1:2|0:2,0:2:0:0:
253,123,16973,2,0,P|282:118|311:113,1,56,4|0,1:2|0:2,0:2:0:0:
372,68,17279,2,0,P|434:77|497:87,1,112,4|4,1:2|1:2,0:2:0:0:
509,239,17891,6,0,P|446:248|383:258,1,112,4|0,1:2|1:2,0:0:0:0:
335,303,18351,2,0,P|305:298|276:293,1,56,0|0,1:2|1:2,0:0:0:0:
204,314,18657,2,0,P|185:273|220:201,1,112,0|0,1:2|1:2,0:0:0:0:
263,159,19116,1,8,0:2:0:0:
188,133,19269,1,8,0:2:0:0:
114,106,19422,1,8,0:2:0:0:
498,47,20187,6,0,L|503:18,2,28,0|0|8,1:2|1:2|0:2,0:0:0:0:
498,47,22789,5,2,1:2:0:0:
498,47,22942,2,0,P|465:23|421:26,1,62.9999980773926,0|0,1:2|1:2,0:0:0:0:
374,76,23249,2,0,P|384:124|390:156,1,62.9999980773926,2|0,1:2|1:2,0:0:0:0:
465,175,23555,2,0,P|455:223|449:255,1,62.9999980773926,2|0,1:2|1:2,0:0:0:0:
391,300,23861,6,0,L|356:291,3,31.4999990386963,2|0|0|0,1:2|1:2|1:2|1:2,0:0:0:0:
332,257,24167,2,0,P|284:267|252:273,1,62.9999980773926,2|0,1:2|1:2,0:2:0:0:
198,315,24473,1,10,0:2:0:0:
198,315,24550,1,8,0:2:0:0:
198,315,24626,2,0,L|151:302,3,31.4999990386963,8|8|8|4,0:2|0:3|0:3|0:3,0:0:0:0:
123,305,24932,2,0,B|108:258|108:258|132:216,1,94.4999971160889,12|0,0:2|0:2,0:2:0:0:
178,207,25238,5,6,1:2:0:0:
174,109,25391,2,0,P|141:95|95:103,1,70,2|10,1:2|0:2,0:0:0:0:
29,39,25697,2,0,P|65:93|37:168,1,140,6|2,1:2|1:2,0:2:0:0:
94,245,26157,1,10,0:2:0:0:
30,320,26310,6,0,B|57:293|108:284|108:284|126:311|173:327,1,140,6|2,1:2|1:2,0:2:0:0:
200,233,26769,1,10,0:2:0:0:
268,302,26922,2,0,P|330:316|357:323,1,70,6|0,1:2|0:2,0:2:0:0:
363,226,27228,1,2,1:2:0:0:
363,226,27381,2,0,P|328:217|294:210,1,70,10|0,0:2|0:2,0:2:0:0:
231,143,27687,5,6,1:2:0:0:
231,143,27840,1,2,1:2:0:0:
284,60,27993,1,10,0:2:0:0:
369,108,28146,2,0,P|458:92|531:82,1,140,6|2,1:2|1:2,0:2:0:0:
479,179,28606,1,10,0:2:0:0:
383,201,28759,6,0,P|339:150|254:161,1,140,6|2,1:2|1:2,0:2:0:0:
197,215,29218,1,10,0:2:0:0:
117,157,29371,2,0,P|134:101|143:73,1,70,6|0,1:2|0:2,0:2:0:0:
197,12,29677,1,2,1:2:0:0:
284,60,29830,2,0,L|320:45,2,35,10|8|8,0:2|0:2|0:2,0:0:0:0:
248,151,30136,5,6,1:2:0:0:
316,221,30289,2,0,P|334:264|326:293,1,70,2|10,1:2|0:2,0:0:0:0:
252,345,30595,2,0,B|210:357|182:331|195:327|165:296|106:314,1,140,6|2,1:2|1:2,0:2:0:0:
51,378,31055,1,10,0:2:0:0:
3,292,31208,6,0,B|43:258|43:258|13:152,1,140,6|2,1:2|1:2,0:2:0:0:
96,113,31667,1,10,0:2:0:0:
36,35,31820,2,0,P|74:14|130:26,1,70,6|0,1:2|0:2,0:2:0:0:
185,71,32126,1,2,1:2:0:0:
185,71,32279,2,0,P|252:86|278:94,1,70,10|0,0:2|0:2,0:2:0:0:
312,170,32585,5,6,1:2:0:0:
312,170,32738,1,2,1:2:0:0:
241,237,32891,1,10,0:2:0:0:
298,316,33044,2,0,B|350:304|350:304|368:278|368:278|434:262,1,140,6|2,1:2|1:2,0:2:0:0:
509,319,33504,1,10,0:2:0:0:
509,319,33657,5,6,1:3:0:0:
406,151,33963,5,6,1:3:0:0:
298,316,34269,6,0,P|248:303|225:297,1,70,6|10,1:3|1:3,0:0:0:0:
138,262,34575,1,6,0:3:0:0:
138,262,35034,6,0,B|147:221|141:192|141:192|160:171|186:172,2,112,6|10|0,1:2|0:2|1:2,0:2:0:0:
104,333,35800,2,0,P|137:341|173:331,1,56,2|8,1:2|0:2,0:2:0:0:
215,284,36106,2,0,P|271:265|324:290,1,112,2|2,0:2|1:2,0:2:0:0:
376,344,36565,1,10,0:2:0:0:
376,344,36718,2,0,B|406:295|406:295|381:230,1,112,2|2,0:2|1:2,0:2:0:0:
323,196,37177,1,10,0:2:0:0:
462,124,37483,6,0,P|473:66|485:7,2,112,2|8|0,1:2|0:2|1:2,0:2:0:0:
512,190,38249,1,0,1:2:0:0:
512,190,38402,1,8,0:2:0:0:
374,115,38708,2,0,P|385:57|397:-2,2,112,0|8|0,1:2|0:2|1:2,0:0:0:0:
411,189,39473,1,2,1:2:0:0:
411,189,39626,1,8,0:2:0:0:
273,264,39932,6,0,B|234:253|234:253|219:230|219:230|153:214,2,112,6|8|0,1:2|0:2|1:2,0:2:0:0:
335,311,40697,2,0,P|349:277|349:252,1,56,2|8,1:2|0:2,0:2:0:0:
308,190,41004,2,0,P|294:156|294:131,1,56,2|0,0:2|1:2,0:2:0:0:
357,92,41310,2,0,P|395:100|420:106,1,56,2|8,1:2|0:2,0:2:0:0:
427,27,41616,2,0,P|399:20|372:15,1,56,2|0,0:2|0:0,0:2:0:0:
296,35,41922,2,0,P|231:48|178:59,1,112,2|2,1:2|0:2,0:0:0:0:
108,49,42381,6,0,P|112:86|122:106,1,56,2|0,1:2|1:2,0:2:0:0:
189,138,42687,1,10,0:2:0:0:
62,230,42993,2,0,P|10:240|-11:245,2,56,0|0|8,1:2|1:2|0:2,0:0:0:0:
193,316,43606,2,0,P|279:332|314:341,2,112,0|8|0,1:2|0:2|1:2,0:0:0:0:
114,316,44371,2,0,P|123:279|140:259,1,56,2|8,1:2|0:2,0:0:0:0:
205,234,44677,1,2,1:2:0:0:
172,151,44830,6,0,P|126:157|30:173,1,125.999996154785,6|10,1:2|0:2,0:2:0:0:
7,91,45289,2,0,P|69:80|131:72,1,125.999996154785,2|2,0:2|1:2,0:2:0:0:
206,22,45749,1,8,0:2:0:0:
206,22,45902,2,0,P|264:34|293:38,1,62.9999980773926,2|0,0:2|1:2,0:2:0:0:
355,31,46208,2,0,P|371:67|367:92,1,62.9999980773926,2|8,1:2|0:2,0:2:0:0:
408,168,46514,2,0,P|384:199|360:209,1,62.9999980773926,2|0,0:2|1:2,0:2:0:0:
304,274,46820,2,0,B|266:252|228:251|228:251|213:277|187:288,1,125.999996154785,2|0,1:2|0:2,0:2:0:0:
149,208,47279,6,0,P|164:161|173:135,1,62.9999980773926,6|0,1:2|1:2,0:2:0:0:
249,113,47585,1,10,0:2:0:0:
215,31,47738,2,0,P|172:64|80:41,1,125.999996154785,2|2,0:2|1:2,0:2:0:0:
35,2,48197,1,10,0:2:0:0:
136,153,48504,1,6,1:2:0:0:
136,153,48657,2,0,P|119:207|102:290,1,125.999996154785,0|0,1:0|0:0,0:0:0:0:
51,345,49116,2,0,P|87:363|128:357,1,62.9999980773926,0|0,1:2|1:2,0:0:0:0:
182,313,49422,2,0,P|218:295|259:301,1,62.9999980773926,8|0,0:2|0:2,0:2:0:0:
327,309,49728,6,0,P|314:356|307:385,2,62.9999980773926,6|2|10,1:2|1:2|0:2,0:0:0:0:
408,274,50187,2,0,B|397:232|397:232|408:202|408:202|391:140,1,125.999996154785,2|2,0:2|1:2,0:2:0:0:
313,118,50646,1,10,0:2:0:0:
361,43,50800,2,0,P|413:53|447:60,1,62.9999980773926,2|0,0:2|1:2,0:2:0:0:
478,130,51106,1,2,1:2:0:0:
478,130,51259,1,10,0:2:0:0:
410,186,51412,2,0,P|383:223|393:300,1,125.999996154785,0|0,0:2|1:2,0:0:0:0:
452,363,51871,2,0,P|492:350|529:339,1,62.9999980773926,8|0,0:2|0:2,0:2:0:0:
469,266,52177,6,0,B|423:255|401:228|401:228|355:223|331:243,1,125.999996154785,14|10,0:2|0:2,0:0:0:0:
301,160,52636,2,0,P|269:191|269:236,1,62.9999980773926,2|8,1:2|0:2,0:0:0:0:
286,293,52942,2,0,P|255:253|177:248,1,125.999996154785,2|2,1:2|1:2,0:0:0:0:
125,311,53402,5,8,0:2:0:0:
102,225,53555,1,10,0:2:0:0:
78,140,53708,1,8,0:2:0:0:
78,140,54626,6,0,B|103:107|156:100|156:100|170:146|226:155,1,154.000004699707,6|8,1:2|0:2,0:2:0:0:
246,50,55085,1,2,0:2:0:0:
331,115,55238,2,0,P|292:198|277:265,1,154.000004699707,2|8,1:2|0:2,0:0:0:0:
222,350,55697,1,2,0:2:0:0:
124,303,55851,6,0,P|150:267|193:251,1,77.0000023498536,2|0,1:2|1:2,0:2:0:0:
282,280,56157,2,0,P|347:303|379:313,1,77.0000023498536,10|0,0:2|0:2,0:2:0:0:
435,384,56463,1,2,1:2:0:0:
435,384,56616,1,0,1:2:0:0:
509,306,56769,2,0,P|521:265|504:221,1,77.0000023498536,10|0,0:2|0:2,0:2:0:0:
435,159,57075,6,0,B|411:182|385:194|385:194|340:173|289:158,1,154.000004699707,6|8,1:2|0:2,0:2:0:0:
240,251,57534,1,2,0:2:0:0:
136,220,57687,2,0,P|112:177|156:78,1,154.000004699707,2|8,1:2|0:2,0:0:0:0:
215,2,58146,1,2,0:2:0:0:
291,78,58300,6,0,P|355:94|387:102,1,77.0000023498536,2|0,1:2|1:2,0:2:0:0:
370,204,58606,2,0,P|286:180|192:156,1,154.000004699707,10|0,0:2|1:2,0:2:0:0:
150,89,59065,1,0,1:2:0:0:
150,89,59218,2,0,P|86:105|54:113,1,77.0000023498536,8|0,0:2|0:2,0:2:0:0:
6,190,59524,6,0,P|37:211|74:211,1,77.0000023498536,6|0,1:2|1:2,0:2:0:0:
128,304,59830,2,0,P|118:243|183:181,1,154.000004699707,10|0,0:2|1:2,0:2:0:0:
266,243,60289,1,0,1:2:0:0:
346,170,60442,2,0,P|333:118|322:84,1,77.0000023498536,10|0,0:2|0:2,0:2:0:0:
397,14,60749,6,0,P|445:30|466:77,1,77.0000023498536,2|0,1:2|1:2,0:2:0:0:
508,146,61055,2,0,P|496:182|488:220,1,77.0000023498536,10|0,0:2|0:2,0:2:0:0:
510,330,61361,1,2,1:2:0:0:
510,330,61514,1,0,1:2:0:0:
414,379,61667,2,0,P|371:377|339:359,1,77.0000023498536,10|0,0:2|0:2,0:2:0:0:
270,279,61973,6,0,P|304:269|344:259,1,77.0000023498536,10|0,0:2|1:2,0:0:0:0:
402,169,62279,1,10,0:2:0:0:
402,169,62432,1,0,1:2:0:0:
324,94,62585,1,10,0:2:0:0:
243,165,62738,1,0,1:2:0:0:
155,101,62891,6,0,B|125:69|79:65|79:65|64:102|17:123,1,154.000004699707,14|0,0:2|1:2,0:2:0:0:
90,207,63351,1,8,0:2:0:0:
6,266,63504,2,0,P|23:328|25:356,1,77.0000023498536,8|0,0:2|1:2,0:2:0:0:
125,376,63810,1,6,1:2:0:0:
204,302,63963,1,10,0:2:0:0:
204,302,64039,1,8,0:2:0:0:
204,302,64116,2,0,L|250:313,3,38.5000011749268,2|8|4|4,1:2|1:3|1:3|1:3,0:2:0:0:
294,321,64422,6,0,P|334:287|323:182,1,154.000004699707,6|8,1:2|0:2,0:2:0:0:
317,85,64881,1,2,0:2:0:0:
229,147,65034,2,0,P|153:162|69:186,1,154.000004699707,2|8,1:2|0:2,0:0:0:0:
2,106,65493,1,2,0:2:0:0:
65,19,65646,6,0,P|100:57|100:94,1,77.0000023498536,2|0,1:2|1:2,0:2:0:0:
61,181,65953,2,0,P|43:240|36:273,1,77.0000023498536,10|0,0:2|0:2,0:2:0:0:
75,356,66259,1,2,1:2:0:0:
75,356,66412,1,0,1:2:0:0:
168,303,66565,2,0,P|215:286|262:306,1,77.0000023498536,10|0,0:2|0:2,0:2:0:0:
327,354,66871,6,0,B|353:305|353:305|331:240,1,115.50000352478,6|0,1:2|0:2,0:2:0:0:
288,218,67177,1,10,0:2:0:0:
323,116,67330,2,0,P|362:162|425:155,1,115.50000352478,6|0,1:2|0:2,0:2:0:0:
437,112,67636,1,10,0:2:0:0:
364,32,67789,6,0,B|317:9|269:19|269:19|256:58|212:72,1,154.000004699707,6|8,1:2|0:2,0:2:0:0:
139,21,68249,1,4,1:3:0:0:
139,21,68402,2,0,P|124:88|120:122,1,77.0000023498536,0|8,1:2|0:3,0:0:0:0:
47,173,68708,1,8,0:3:0:0:
114,257,68861,1,4,0:3:0:0:
212,212,69014,2,0,P|257:196|305:221,1,77.0000023498536,6|0,1:2|0:0,0:2:0:0:
390,189,69320,6,0,P|377:241|371:273,1,77.0000023498536,6|0,1:2|1:2,0:2:0:0:
360,371,69626,2,0,B|313:365|285:332|285:332|232:342|212:374,1,154.000004699707,10|0,0:2|1:2,0:2:0:0:
198,254,70085,1,0,1:2:0:0:
122,330,70238,2,0,P|78:313|31:299,1,77.0000023498536,10|0,0:2|0:2,0:2:0:0:
4,205,70544,2,0,P|47:173|91:177,1,77.0000023498536,2|0,1:2|1:2,0:2:0:0:
82,63,70851,2,0,P|131:84|149:124,1,77.0000023498536,10|0,0:2|0:2,0:2:0:0:
163,212,71157,1,2,1:2:0:0:
163,212,71310,1,0,1:2:0:0:
258,162,71463,2,0,L|314:150,3,38.5000011749268,10|8|8|8,0:2|0:2|0:2|0:2,0:0:0:0:
320,105,71769,6,0,P|380:120|415:130,1,77.0000023498536,10|0,0:2|1:2,0:0:0:0:
496,171,72075,1,10,0:2:0:0:
496,171,72228,1,0,1:2:0:0:
415,243,72381,1,8,0:2:0:0:
491,318,72534,1,0,1:2:0:0:
405,383,72687,2,0,P|367:372|330:363,1,77.0000023498536,10|0,0:2|1:2,0:0:0:0:
275,270,72993,5,10,0:2:0:0:
171,299,73146,1,8,0:2:0:0:
66,328,73300,1,8,0:2:0:0:
66,328,74218,5,6,1:2:0:0:
12,245,74371,2,0,P|28:196|39:162,1,70,2|10,1:2|0:2,0:0:0:0:
7,84,74677,2,0,P|46:134|124:127,1,140,6|2,1:2|1:2,0:2:0:0:
182,56,75137,1,10,0:2:0:0:
242,133,75290,6,0,B|269:106|320:97|320:97|338:124|385:140,1,140,6|2,1:2|1:2,0:2:0:0:
408,44,75749,1,10,0:2:0:0:
494,90,75902,2,0,P|480:152|473:179,1,70,6|0,1:2|0:2,0:2:0:0:
403,220,76208,1,2,1:2:0:0:
403,220,76361,2,0,P|412:255|419:289,1,70,10|0,0:2|0:2,0:2:0:0:
365,371,76667,5,6,1:2:0:0:
365,371,76820,1,2,1:2:0:0:
284,314,76973,1,10,0:2:0:0:
213,381,77126,2,0,P|124:365|51:355,1,140,6|2,1:2|1:2,0:2:0:0:
16,278,77586,1,10,0:2:0:0:
59,190,77738,6,0,B|112:161|112:161|208:205,1,140,4|2,1:2|1:2,0:2:0:0:
234,279,78198,1,10,0:2:0:0:
324,241,78351,2,0,P|334:204|322:162,1,70,6|0,1:2|0:2,0:2:0:0:
376,88,78657,1,2,1:2:0:0:
294,34,78810,2,0,L|279:-2,2,35,10|8|8,0:2|0:2|0:2,0:0:0:0:
243,117,79116,5,6,1:2:0:0:
159,65,79269,2,0,P|97:80|80:83,1,70,2|10,1:2|0:2,0:0:0:0:
31,158,79575,2,0,B|19:200|45:228|49:215|80:245|62:304,1,140,6|2,1:2|1:2,0:2:0:0:
18,373,80035,1,10,0:2:0:0:
115,380,80187,6,0,P|155:340|244:350,1,140,6|2,1:2|1:2,0:2:0:0:
282,257,80647,1,10,0:2:0:0:
355,321,80800,2,0,P|416:303|443:297,1,70,6|0,1:2|0:2,0:2:0:0:
505,248,81106,1,2,1:2:0:0:
505,248,81259,2,0,P|517:203|502:163,1,70,10|0,0:2|0:2,0:2:0:0:
440,121,81565,5,6,1:2:0:0:
440,121,81718,1,2,1:2:0:0:
363,182,81871,1,10,0:2:0:0:
288,118,82024,2,0,B|236:130|236:130|218:156|218:156|164:168,1,140,6|2,1:2|1:2,0:2:0:0:
77,135,82484,1,10,0:2:0:0:
77,135,82637,5,6,1:3:0:0:
197,289,82943,5,6,1:3:0:0:
288,118,83249,6,0,P|338:131|361:137,1,70,14|10,1:3|1:3,0:0:0:0:
448,166,83555,1,6,0:3:0:0:
184,296,84014,5,6,1:2:0:0:
256,192,84090,12,0,88912,0:0:0:0:
