osu file format v14

[General]
AudioFilename: audio.ogg
AudioLeadIn: 0
PreviewTime: 53940
Countdown: 0
SampleSet: Soft
StackLeniency: 0.7
Mode: 0
LetterboxInBreaks: 0
WidescreenStoryboard: 1

[Editor]
DistanceSpacing: 1.4
BeatDivisor: 4
GridSize: 32
TimelineZoom: 2.5

[Metadata]
Title:Yume no Ito (TV Size)
TitleUnicode:夢の糸 (TV Size)
Artist:Akari Kito
ArtistUnicode:鬼頭明里
Creator:Fuxi66
Version:Garden Of Light
Source:魔都精兵のスレイブ
Tags:japanese pop jpop j-pop anime opening op mato seihei no slave chained soldier dream thread T4K Ririsya Masaki Kubo 久保正貴 [Limited Edition] [初回限定盤] album
BeatmapID:4454816
BeatmapSetID:2120394

[Difficulty]
HPDrainRate:5.5
CircleSize:4
OverallDifficulty:9.3
ApproachRate:9.4
SliderMultiplier:1.82
SliderTickRate:1

[Events]
//Background and Video events
0,0,"raw_7.jpg",0,0
Video,-70,"vidvidvid.avi"
//Break Periods
//Storyboard Layer 0 (Background)
//Storyboard Layer 1 (Fail)
//Storyboard Layer 2 (Pass)
//Storyboard Layer 3 (Foreground)
//Storyboard Layer 4 (Overlay)
//Storyboard Sound Samples

[TimingPoints]
749,306.122448979592,4,2,22,72,1,0
749,-161.290322580645,4,2,22,42,0,0
15442,-121.951219512195,4,2,22,52,0,0
17891,-121.951219512195,4,2,22,62,0,0
18810,-121.951219512195,4,2,22,72,0,0
19116,-121.951219512195,4,2,22,82,0,0
20187,-121.951219512195,4,2,22,62,0,0
24932,-81.967213114754,4,2,22,82,0,0
25162,-81.967213114754,4,2,22,5,0,0
25238,-98.0392156862746,4,2,22,72,0,0
35034,-121.951219512195,4,2,22,52,0,0
44830,-108.695652173913,4,2,22,62,0,0
52177,-108.695652173913,4,2,22,72,0,0
53402,-108.695652173913,4,2,22,82,0,0
54626,-89.2857142857143,4,2,22,87,0,0
61973,-89.2857142857143,4,2,22,92,0,0
62891,-89.2857142857143,4,2,22,87,0,0
66871,-81.9672131147541,4,2,22,92,0,0
67101,-81.9672131147541,4,2,22,5,0,0
67177,-81.9672131147541,4,2,22,92,0,0
67560,-81.9672131147541,4,2,22,5,0,0
67636,-81.9672131147541,4,2,22,92,0,0
67789,-89.2857142857143,4,2,22,82,0,0
72993,-89.2857142857143,4,2,22,92,0,0
74218,-98.0392156862745,4,2,22,72,0,0
84014,-434.782608695652,4,2,22,72,0,0
88912,-13.7551581843191,4,2,22,5,0,0

[Colours]
Combo1 : 186,191,192
Combo2 : 233,90,90

[HitObjects]
148,88,749,6,0,P|190:47|254:60,1,112.839995523316,2|0,0:2|0:2,0:2:0:0:
303,121,1208,1,2,0:2:0:0:
151,195,1514,2,0,P|98:176|23:159,2,112.839995523316,2|2|2,0:2|0:2|0:2,0:2:0:0:
242,321,2432,2,0,P|291:303|316:297,1,56.4199977616578,2|0,0:2|0:2,0:2:0:0:
355,234,2738,1,2,0:2:0:0:
355,234,2891,2,0,P|365:192|327:133,1,112.839995523316,2|0,0:2|0:2,0:2:0:0:
473,35,3504,1,2,0:2:0:0:
473,35,3657,2,0,P|440:79|448:133,1,112.839995523316,2|0,0:2|0:2,0:2:0:0:
448,233,4116,2,0,P|493:217|521:209,1,56.4199977616578,2|0,0:2|0:2,0:2:0:0:
370,172,4422,2,0,P|304:157|237:143,1,112.839995523316,2|0,0:2|0:2,0:2:0:0:
181,210,4881,2,0,P|199:263|201:276,1,56.4199977616578,2|0,0:2|0:2,0:2:0:0:
287,242,5187,1,2,0:2:0:0:
174,118,5493,1,2,0:2:0:0:
174,118,5646,6,0,P|192:66|212:-7,1,112.839995523316,2|0,0:2|0:2,0:2:0:0:
276,80,6106,1,2,0:2:0:0:
97,166,6412,2,0,P|62:130|-1:132,2,112.839995523316,2|2|2,0:2|0:2|0:2,0:2:0:0:
36,309,7330,2,0,P|19:353|13:375,1,56.4199977616578,2|0,0:2|0:2,0:2:0:0:
125,292,7636,2,0,P|142:336|148:358,1,56.4199977616578,2|0,0:2|0:2,0:2:0:0:
0,206,7942,2,0,P|52:224|110:190,1,112.839995523316,2|0,0:2|0:2,0:2:0:0:
178,132,8402,2,0,P|230:114|288:148,1,112.839995523316,2|0,0:2|0:2,0:2:0:0:
240,230,8861,2,0,P|207:219|171:215,2,56.4199977616578,2|2|0,0:2|0:2|0:2,0:2:0:0:
288,307,9320,2,0,P|335:290|399:278,1,112.839995523316,2|0,0:2|0:2,0:2:0:0:
449,335,9779,2,0,P|439:364|438:370,2,37.6133318411052,2|2|2,0:2|0:2|0:2,0:2:0:0:
512,291,10085,1,2,0:2:0:0:
388,181,10391,1,2,0:2:0:0:
388,181,10544,6,0,P|439:169|489:217,1,112.839995523316,2|0,0:2|0:2,0:2:0:0:
512,291,11004,1,2,0:2:0:0:
348,376,11310,2,0,P|366:305|374:247,2,112.839995523316,2|2|2,0:2|0:2|0:2,0:2:0:0:
237,246,12228,2,0,P|288:230|311:222,1,56.4199977616578,2|0,0:2|0:2,0:2:0:0:
209,338,12534,2,0,P|158:322|135:314,1,56.4199977616578,2|0,0:2|0:2,0:2:0:0:
102,246,12840,1,2,0:2:0:0:
170,181,12993,2,0,P|206:136|192:69,1,112.839995523316,2|0,0:2|0:2,0:2:0:0:
102,0,13453,2,0,P|119:74|128:131,1,112.839995523316,2|0,0:2|0:2,0:2:0:0:
87,206,13912,1,2,0:2:0:0:
260,224,14218,2,0,P|226:221|169:274,1,112.839995523316,2|0,0:2|0:2,0:2:0:0:
80,338,14677,2,0,P|140:353|210:380,1,112.839995523316,2|0,0:2|0:2,0:2:0:0:
249,306,15136,1,2,0:2:0:0:
153,77,15442,6,0,P|165:123|170:158,1,74.6200011386109,4|0,1:2|0:2,0:2:0:0:
149,239,15749,2,0,P|195:227|230:222,1,74.6200011386109,0|0,1:2|0:2,0:2:0:0:
312,241,16055,2,0,P|300:195|295:160,1,74.6200011386109,0|0,1:2|0:2,0:2:0:0:
317,74,16361,2,0,P|271:86|236:91,1,74.6200011386109,0|0,1:2|0:2,0:2:0:0:
399,205,16667,2,0,P|434:195|471:188,1,74.6200011386109,0|0,1:2|0:2,0:2:0:0:
296,169,16973,2,0,P|305:204|312:241,1,74.6200011386109,4|0,1:2|0:2,0:2:0:0:
317,74,17279,2,0,P|281:83|244:90,1,74.6200011386109,4|0,1:2|0:2,0:2:0:0:
416,99,17585,2,0,P|406:63|399:26,1,74.6200011386109,4|0,1:2|0:2,0:2:0:0:
312,241,17891,1,4,1:2:0:0:
312,241,18197,5,0,1:2:0:0:
260,167,18351,1,0,1:2:0:0:
232,297,18504,1,0,1:2:0:0:
371,173,18657,1,0,1:2:0:0:
370,324,18810,1,8,0:2:0:0:
249,137,18963,1,0,1:2:0:0:
475,259,19116,5,8,0:2:0:0:
129,173,19269,1,8,0:2:0:0:
465,71,19422,1,8,0:2:0:0:
508,372,20187,5,0,1:2:0:0:
508,372,20264,1,0,1:2:0:0:
508,372,20340,1,8,0:2:0:0:
430,232,22789,5,2,1:2:0:0:
415,212,22865,1,0,1:2:0:0:
393,201,22942,1,0,1:2:0:0:
368,201,23018,1,0,1:2:0:0:
347,213,23095,1,0,1:2:0:0:
334,234,23171,1,0,1:2:0:0:
331,259,23248,1,2,1:2:0:0:
359,235,23325,1,0,1:2:0:0:
371,200,23402,1,0,1:2:0:0:
363,164,23478,1,0,1:2:0:0:
338,137,23555,1,2,1:2:0:0:
303,127,23631,1,0,1:2:0:0:
267,136,23708,1,0,1:2:0:0:
242,163,23784,1,0,1:2:0:0:
224,196,23861,1,2,1:2:0:0:
191,212,23937,1,0,1:2:0:0:
154,217,24014,1,0,1:2:0:0:
118,208,24090,1,0,1:2:0:0:
87,189,24167,2,0,L|76:144,1,37.3100005693054,2|0,1:2|1:2,0:2:0:0:
171,64,24320,2,0,L|162:100,1,37.3100005693054,0|0,1:2|1:2,0:2:0:0:
30,329,24473,5,10,0:2:0:0:
74,320,24549,1,8,0:2:0:0:
119,313,24626,1,8,0:2:0:0:
165,305,24703,1,8,0:3:0:0:
210,297,24779,1,8,0:3:0:0:
256,289,24856,1,4,0:3:0:0:
301,280,24932,2,0,B|348:269|367:241|364:205|364:205|345:237|307:233,1,166.529993139176,12|0,0:2|0:2,0:2:0:0:
298,159,25238,5,6,1:2:0:0:
377,343,25391,1,2,1:2:0:0:
424,117,25544,1,10,0:2:0:0:
210,297,25697,2,0,P|133:280|0:256,1,185.640001133057,6|0,1:2|1:2,0:2:0:0:
168,140,26157,1,10,0:2:0:0:
287,362,26310,2,0,P|364:345|407:338,1,92.8200005665283,6|0,1:2|0:2,0:2:0:0:
455,134,26616,1,2,1:2:0:0:
316,233,26769,1,10,0:2:0:0:
464,376,26922,2,0,P|467:318|450:286,1,92.8200005665283,6|0,1:2|0:2,0:2:0:0:
286,224,27228,1,2,1:2:0:0:
448,60,27381,2,0,P|425:135|420:169,1,92.8200005665283,10|0,0:2|0:2,0:2:0:0:
210,297,27687,5,6,1:2:0:0:
335,150,27840,1,2,1:2:0:0:
370,371,27993,1,10,0:2:0:0:
210,161,28146,2,0,B|178:107|118:113|118:113|108:159|36:173,1,185.640001133057,6|0,1:2|1:2,0:2:0:0:
236,275,28606,1,10,0:2:0:0:
362,55,28759,2,0,P|288:77|254:88,1,92.8200005665283,6|0,1:2|0:2,0:2:0:0:
121,247,29065,1,2,1:2:0:0:
294,161,29218,1,10,0:2:0:0:
135,4,29371,2,0,P|153:94|157:117,1,92.8200005665283,6|0,1:2|0:2,0:2:0:0:
246,233,29677,1,2,1:2:0:0:
11,138,29830,1,10,0:2:0:0:
11,138,29907,1,8,0:2:0:0:
11,138,29983,1,8,0:2:0:0:
222,19,30136,5,6,1:2:0:0:
112,218,30289,1,2,1:2:0:0:
8,37,30442,1,10,0:2:0:0:
233,216,30595,2,0,B|296:197|296:197|318:157|318:157|406:133,1,185.640001133057,6|0,1:2|1:0,0:0:0:0:
321,304,31055,1,10,0:2:0:0:
124,185,31208,2,0,P|138:123|149:78,1,92.8200005665283,6|0,1:2|0:2,0:2:0:0:
330,40,31514,1,2,1:2:0:0:
233,216,31667,1,10,0:2:0:0:
126,0,31820,2,0,P|186:5|222:40,1,92.8200005665283,6|0,1:2|0:2,0:2:0:0:
254,215,32126,1,2,1:2:0:0:
422,40,32279,2,0,P|362:54|315:65,1,92.8200005665283,10|0,0:2|0:2,0:2:0:0:
146,210,32585,5,6,1:2:0:0:
325,147,32738,1,2,1:2:0:0:
137,20,32891,1,10,0:2:0:0:
286,235,33044,2,0,B|318:181|378:187|378:187|388:233|460:247,1,185.640001133057,6|0,1:2|1:2,0:2:0:0:
303,338,33504,1,10,0:2:0:0:
206,113,33657,1,6,1:3:0:0:
90,372,33963,5,6,1:3:0:0:
361,215,34269,5,6,1:3:0:0:
186,125,34422,1,10,1:3:0:0:
342,205,34575,1,6,0:3:0:0:
342,12,35034,6,0,P|359:52|337:107,1,74.6200011386109,6|0,1:2|1:2,0:2:0:0:
280,136,35340,2,0,P|257:180|295:284,1,149.240002277222,10|0,0:2|1:2,0:2:0:0:
415,222,35800,2,0,P|366:210|329:202,1,74.6200011386109,2|8,1:2|0:2,0:2:0:0:
275,59,36106,2,0,P|217:72|111:96,1,149.240002277222,2|2,0:2|1:2,0:2:0:0:
66,163,36565,1,10,0:2:0:0:
212,230,36718,2,0,P|221:193|229:157,1,74.6200011386109,2|0,0:2|1:2,0:2:0:0:
126,246,37024,1,2,1:2:0:0:
126,246,37177,2,0,P|138:295|146:332,1,74.6200011386109,10|0,0:2|0:2,0:2:0:0:
350,369,37483,6,0,P|302:318|218:321,2,149.240002277222,2|8|0,1:2|0:2|1:2,0:2:0:0:
406,256,38249,1,0,1:2:0:0:
406,256,38402,2,0,P|441:231|500:239,1,74.6200011386109,8|0,0:2|0:2,0:2:0:0:
434,339,38708,1,0,1:2:0:0:
434,339,38861,1,0,1:2:0:0:
318,237,39014,2,0,B|329:189|329:189|360:168|360:168|375:88,1,149.240002277222,8|0,0:2|1:2,0:2:0:0:
470,13,39473,2,0,P|413:25|380:32,1,74.6200011386109,2|8,1:2|0:2,0:2:0:0:
309,2,39779,1,2,0:2:0:0:
253,151,39932,6,0,P|260:114|268:77,1,74.6200011386109,6|0,1:2|1:2,0:2:0:0:
132,0,40238,2,0,P|142:58|155:172,1,149.240002277222,8|0,0:2|1:2,0:2:0:0:
269,239,40697,2,0,P|226:240|194:214,1,74.6200011386109,2|8,1:2|0:2,0:2:0:0:
334,179,41004,2,0,P|354:215|349:255,1,74.6200011386109,2|0,0:2|1:2,0:2:0:0:
253,151,41310,2,0,P|272:114|310:99,1,74.6200011386109,2|8,1:2|0:2,0:2:0:0:
448,183,41616,2,0,B|412:143|412:143|447:47,1,149.240002277222,2|2,0:2|1:2,0:2:0:0:
511,121,42075,1,8,0:2:0:0:
391,251,42228,1,2,0:2:0:0:
391,251,42381,6,0,P|331:236|298:228,1,74.6200011386109,2|0,1:2|1:2,0:2:0:0:
187,344,42687,2,0,P|224:313|211:201,1,149.240002277222,10|0,0:2|1:2,0:2:0:0:
78,239,43146,1,0,1:2:0:0:
78,239,43300,2,0,P|115:248|164:264,1,74.6200011386109,8|0,0:2|0:2,0:2:0:0:
264,143,43606,1,0,1:2:0:0:
164,165,43759,1,0,1:2:0:0:
253,297,43912,2,0,P|298:284|339:272,1,74.6200011386109,8|0,0:2|0:2,0:2:0:0:
429,221,44218,1,0,1:2:0:0:
348,359,44371,1,2,1:2:0:0:
332,194,44524,1,8,0:2:0:0:
466,333,44677,1,2,1:2:0:0:
319,177,44830,6,0,P|334:116|344:80,1,83.7199971895753,6|0,1:2|0:2,0:2:0:0:
426,199,45136,1,10,0:2:0:0:
481,24,45289,2,0,P|496:85|506:121,1,83.7199971895753,2|0,0:2|1:2,0:2:0:0:
417,215,45595,1,2,1:2:0:0:
360,84,45749,1,8,0:2:0:0:
324,263,45902,2,0,B|293:211|241:216|241:216|234:254|178:268,1,167.439994379151,2|2,0:0|1:2,0:0:0:0:
153,178,46361,1,8,0:0:0:0:
250,47,46514,2,0,P|232:114|226:141,1,83.7199971895753,2|0,0:2|1:2,0:2:0:0:
69,211,46820,2,0,P|59:170|47:130,1,83.7199971895753,2|8,1:2|0:2,0:2:0:0:
164,188,47126,1,0,0:0:0:0:
19,314,47279,6,0,P|105:261|180:306,1,167.439994379151,6|10,1:2|0:2,0:2:0:0:
289,363,47738,2,0,P|279:318|267:268,1,83.7199971895753,2|0,0:2|1:2,0:2:0:0:
292,124,48044,1,0,1:0:0:0:
140,167,48197,2,0,P|201:184|232:194,1,83.7199971895753,10|0,0:2|0:2,0:2:0:0:
358,277,48504,1,4,1:2:0:0:
411,71,48657,2,0,B|394:117|371:174|371:174|396:197|422:219,1,167.439994379151,0|0,1:2|0:0,0:0:0:0:
494,334,49116,2,0,P|463:341|414:356,1,83.7199971895753,0|0,1:2|0:2,0:2:0:0:
269,287,49422,2,0,P|273:242|302:208,1,83.7199971895753,8|0,0:2|0:2,0:2:0:0:
471,149,49728,5,6,1:2:0:0:
358,277,49881,1,2,1:2:0:0:
361,113,50034,1,10,0:2:0:0:
512,254,50187,2,0,P|471:240|428:230,1,83.7199971895753,2|0,0:2|1:2,0:2:0:0:
269,287,50493,1,2,1:2:0:0:
353,140,50646,1,10,0:2:0:0:
250,304,50800,2,0,P|235:257|220:213,1,83.7199971895753,2|0,0:2|1:2,0:2:0:0:
248,58,51106,1,2,1:2:0:0:
60,96,51259,2,0,P|98:107|139:121,1,83.7199971895753,10|0,0:2|0:2,0:2:0:0:
252,229,51565,1,0,1:2:0:0:
225,70,51718,1,0,1:2:0:0:
60,236,51871,2,0,P|100:222|139:211,1,83.7199971895753,8|0,0:2|0:2,0:2:0:0:
315,103,52177,5,14,0:2:0:0:
218,306,52330,1,0,1:2:0:0:
215,149,52483,5,10,0:2:0:0:
307,355,52636,1,2,1:2:0:0:
380,185,52789,5,8,0:2:0:0:
134,292,52943,1,2,1:2:0:0:
439,271,53096,5,8,0:2:0:0:
194,142,53249,1,2,1:2:0:0:
467,176,53402,5,8,0:2:0:0:
213,339,53555,1,10,0:2:0:0:
305,42,53708,1,8,0:2:0:0:
35,191,54626,6,0,B|68:133|137:140|137:140|161:192|217:193,1,203.840002488281,6|8,1:2|0:2,0:2:0:0:
311,25,55085,1,2,0:2:0:0:
395,269,55238,2,0,P|329:254|284:243,1,101.920001244141,2|0,1:2|1:2,0:2:0:0:
203,48,55544,1,8,0:2:0:0:
361,174,55697,1,2,0:2:0:0:
136,327,55851,2,0,P|110:274|125:228,1,101.920001244141,2|0,1:2|1:2,0:2:0:0:
299,121,56157,2,0,P|308:170|283:213,1,101.920001244141,10|0,0:2|0:2,0:2:0:0:
26,251,56463,1,2,1:2:0:0:
199,167,56616,1,0,1:2:0:0:
62,4,56769,2,0,P|88:88|94:115,1,101.920001244141,10|0,0:2|0:2,0:2:0:0:
221,314,57075,6,0,P|163:254|42:270,1,203.840002488281,6|8,1:2|0:2,0:2:0:0:
180,156,57534,1,2,0:2:0:0:
279,383,57687,2,0,P|308:335|304:288,1,101.920001244141,0|0,1:0|1:0,0:0:0:0:
169,139,57993,1,8,0:2:0:0:
145,362,58146,1,2,0:2:0:0:
372,216,58300,2,0,P|286:199|251:193,1,101.920001244141,2|0,1:2|1:2,0:2:0:0:
133,35,58606,2,0,P|219:18|254:12,1,101.920001244141,10|0,0:2|0:2,0:2:0:0:
433,134,58912,1,0,1:2:0:0:
336,7,59065,1,0,1:2:0:0:
158,157,59218,2,0,P|72:140|37:134,1,101.920001244141,8|0,0:2|0:2,0:2:0:0:
248,376,59524,6,0,P|276:334|274:284,1,101.920001244141,6|0,1:2|1:2,0:2:0:0:
162,69,59830,2,0,B|230:43|276:78|256:89|303:135|368:93,1,203.840002488281,10|0,0:2|1:2,0:2:0:0:
391,285,60289,1,0,1:2:0:0:
138,273,60442,2,0,P|117:206|103:167,1,101.920001244141,10|0,0:2|0:2,0:2:0:0:
289,309,60749,2,0,P|241:360|214:392,1,101.920001244141,2|0,1:2|1:2,0:2:0:0:
232,176,61055,2,0,P|300:191|341:198,1,101.920001244141,10|0,0:2|0:2,0:2:0:0:
144,290,61361,1,2,1:2:0:0:
191,95,61514,1,0,1:2:0:0:
133,311,61667,2,0,P|82:320|33:332,1,101.920001244141,10|0,0:2|0:2,0:2:0:0:
312,207,61973,5,10,0:2:0:0:
90,116,62126,1,0,1:2:0:0:
396,151,62279,5,10,0:2:0:0:
144,290,62432,1,0,1:2:0:0:
468,332,62585,5,10,0:2:0:0:
191,66,62738,1,0,1:2:0:0:
484,185,62891,6,0,P|382:208|320:226,1,152.880001866211,14|0,0:2|0:2,0:2:0:0:
322,255,63197,1,0,1:2:0:0:
124,128,63351,1,8,0:2:0:0:
214,381,63504,2,0,P|225:325|240:262,1,101.920001244141,8|0,0:2|1:2,0:2:0:0:
331,91,63810,1,6,1:2:0:0:
144,246,63963,2,0,L|83:232,1,50.9600006220703,10|8,0:2|0:2,0:2:0:0:
345,183,64116,2,0,L|406:169,1,50.9600006220703,2|8,1:2|1:3,0:2:0:0:
216,72,64269,1,4,1:3:0:0:
216,72,64345,1,4,1:3:0:0:
216,72,64422,6,0,B|184:139|225:186|235:158|279:202|240:278,1,203.840002488281,6|8,1:2|0:2,0:2:0:0:
389,158,64881,1,2,0:2:0:0:
431,368,65034,2,0,P|377:376|327:339,1,101.920001244141,2|0,1:2|1:2,0:2:0:0:
230,170,65340,1,8,0:2:0:0:
397,272,65493,1,2,0:2:0:0:
173,371,65646,2,0,P|158:295|148:259,1,101.920001244141,2|0,1:2|1:2,0:2:0:0:
378,94,65953,2,0,P|365:143|356:193,1,101.920001244141,10|0,0:2|0:2,0:2:0:0:
93,176,66259,2,0,P|154:161|206:148,1,101.920001244141,2|0,1:2|1:2,0:2:0:0:
403,378,66565,2,0,P|342:363|290:350,1,101.920001244141,10|0,0:2|0:2,0:2:0:0:
236,74,66871,6,0,P|272:129|230:234,1,166.529993139176,6|0,1:2|0:2,0:2:0:0:
170,236,67177,1,10,0:2:0:0:
336,44,67330,6,0,B|394:27|431:56|412:59|445:96|490:78,1,166.529993139176,6|0,1:2|0:2,0:2:0:0:
512,3,67636,1,10,0:2:0:0:
370,301,67789,6,0,B|344:278|315:256|315:256|340:193|367:124,1,203.840002488281,6|8,1:2|0:2,0:2:0:0:
468,280,68249,1,4,1:3:0:0:
257,182,68402,1,0,1:2:0:0:
411,65,68555,1,8,0:3:0:0:
310,360,68708,1,8,0:3:0:0:
215,32,68861,1,4,0:3:0:0:
16,250,69014,2,0,P|102:263|198:286,1,152.880001866211,6|0,1:2|0:2,0:2:0:0:
200,275,69320,6,0,P|234:223|230:178,1,101.920001244141,6|0,1:2|1:2,0:2:0:0:
124,16,69626,2,0,P|125:66|156:105,1,101.920001244141,10|0,0:2|0:2,0:2:0:0:
326,52,69932,1,0,1:2:0:0:
148,191,70085,1,0,1:2:0:0:
399,231,70238,2,0,P|387:153|381:112,1,101.920001244141,10|0,0:2|0:2,0:2:0:0:
193,262,70544,2,0,P|185:312|177:362,1,101.920001244141,2|0,1:2|1:2,0:2:0:0:
291,130,70851,2,0,P|236:106|190:114,1,101.920001244141,10|0,0:2|0:2,0:2:0:0:
99,308,71157,1,2,1:2:0:0:
274,221,71310,1,0,1:2:0:0:
99,57,71463,1,10,0:2:0:0:
99,57,71539,1,8,0:2:0:0:
99,57,71616,2,0,L|110:124,1,50.9600006220703,8|8,0:2|0:2,0:2:0:0:
291,334,71769,5,10,0:2:0:0:
221,114,71922,1,0,1:2:0:0:
192,365,72075,5,10,0:2:0:0:
311,79,72228,1,0,1:2:0:0:
43,218,72381,5,8,0:2:0:0:
389,340,72534,1,0,1:2:0:0:
76,336,72687,5,10,0:2:0:0:
465,206,72840,1,0,1:2:0:0:
109,42,72993,5,10,0:2:0:0:
288,364,73146,1,8,0:2:0:0:
376,10,73300,1,8,0:2:0:0:
289,22,74218,5,6,1:2:0:0:
334,250,74371,1,2,1:2:0:0:
207,96,74524,1,10,0:2:0:0:
455,79,74677,2,0,B|387:94|387:94|368:132|368:132|294:147,1,185.640001133057,6|0,1:2|1:2,0:2:0:0:
132,54,75136,1,10,0:2:0:0:
312,240,75289,2,0,P|235:223|192:216,1,92.8200005665283,6|0,1:2|0:2,0:2:0:0:
60,244,75595,1,2,1:2:0:0:
274,142,75749,1,10,0:2:0:0:
63,3,75902,2,0,P|42:60|50:90,1,92.8200005665283,6|0,1:2|0:2,0:2:0:0:
149,288,76208,1,2,1:2:0:0:
222,30,76361,2,0,P|148:50|113:58,1,92.8200005665283,10|0,0:2|0:2,0:2:0:0:
41,270,76667,5,6,1:2:0:0:
179,143,76820,1,2,1:2:0:0:
14,79,76973,1,10,0:2:0:0:
162,294,77126,2,0,B|198:243|260:252|260:252|271:301|327:311,1,185.640001133057,6|0,1:2|0:2,0:2:0:0:
494,239,77585,1,10,0:2:0:0:
352,64,77738,2,0,P|378:141|385:172,1,92.8200005665283,4|0,1:2|0:2,0:2:0:0:
512,325,78045,1,2,1:2:0:0:
339,228,78197,1,10,0:2:0:0:
499,59,78351,2,0,P|476:132|466:167,1,92.8200005665283,6|0,1:2|0:2,0:2:0:0:
392,327,78657,1,2,1:2:0:0:
270,92,78810,1,10,0:2:0:0:
270,92,78887,1,8,0:2:0:0:
270,92,78963,1,8,0:2:0:0:
449,264,79116,5,6,1:2:0:0:
232,171,79269,1,2,1:2:0:0:
393,73,79422,1,10,0:2:0:0:
259,296,79575,2,0,P|194:276|67:243,1,185.640001133057,6|0,1:2|0:2,0:2:0:0:
240,147,80035,1,10,0:2:0:0:
31,5,80187,2,0,P|52:71|62:111,1,92.8200005665283,6|0,1:2|0:2,0:2:0:0:
7,295,80494,1,2,1:2:0:0:
149,109,80647,1,10,0:2:0:0:
249,273,80800,2,0,P|193:255|146:243,1,92.8200005665283,6|0,1:2|0:2,0:2:0:0:
67,73,81106,1,2,1:2:0:0:
296,3,81259,2,0,P|304:66|278:101,1,92.8200005665283,10|0,0:2|0:2,0:2:0:0:
134,253,81565,5,6,1:2:0:0:
372,172,81718,1,2,1:2:0:0:
210,42,81871,1,10,0:2:0:0:
431,250,82024,2,0,B|475:191|475:191|428:71,1,185.640001133057,6|0,1:2|1:2,0:2:0:0:
316,286,82484,1,10,0:2:0:0:
208,29,82635,1,6,1:3:0:0:
9,361,82942,5,6,1:3:0:0:
66,47,83249,5,14,1:3:0:0:
130,209,83402,1,10,1:3:0:0:
59,29,83555,1,6,0:3:0:0:
503,147,84014,6,0,B|448:21|257:34|171:183|352:205|271:346|66:369|12:234,1,669.759977516602,6|0,1:2|0:0,0:0:0:0:
