osu file format v14

[General]
AudioFilename: audio.ogg
AudioLeadIn: 0
PreviewTime: 53940
Countdown: 0
SampleSet: Soft
StackLeniency: 0.7
Mode: 0
LetterboxInBreaks: 0
WidescreenStoryboard: 1

[Editor]
DistanceSpacing: 1.4
BeatDivisor: 4
GridSize: 32
TimelineZoom: 2.4

[Metadata]
Title:Yume no Ito (TV Size)
TitleUnicode:夢の糸 (TV Size)
Artist:Akari Kito
ArtistUnicode:鬼頭明里
Creator:Fuxi66
Version:Expert
Source:魔都精兵のスレイブ
Tags:japanese pop jpop j-pop anime opening op mato seihei no slave chained soldier dream thread T4K Ririsya Masaki Kubo 久保正貴 [Limited Edition] [初回限定盤] album
BeatmapID:4468204
BeatmapSetID:2120394

[Difficulty]
HPDrainRate:5.2
CircleSize:3.8
OverallDifficulty:8.8
ApproachRate:9.2
SliderMultiplier:1.72
SliderTickRate:1

[Events]
//Background and Video events
0,0,"raw_7.jpg",0,0
Video,-70,"vidvidvid.avi"
//Break Periods
//Storyboard Layer 0 (Background)
//Storyboard Layer 1 (Fail)
//Storyboard Layer 2 (Pass)
//Storyboard Layer 3 (Foreground)
//Storyboard Layer 4 (Overlay)
//Storyboard Sound Samples

[TimingPoints]
749,306.122448979592,4,2,22,42,1,0
749,-161.290322580645,4,2,22,42,0,0
15442,-121.951219512195,4,2,22,52,0,0
17891,-121.951219512195,4,2,22,62,0,0
18810,-121.951219512195,4,2,22,72,0,0
19116,-121.951219512195,4,2,22,82,0,0
20187,-121.951219512195,4,2,22,62,0,0
24932,-81.967213114754,4,2,22,82,0,0
25162,-81.967213114754,4,2,22,5,0,0
25238,-98.0392156862746,4,2,22,72,0,0
35034,-121.951219512195,4,2,22,52,0,0
44830,-108.695652173913,4,2,22,62,0,0
52177,-108.695652173913,4,2,22,72,0,0
53402,-108.695652173913,4,2,22,82,0,0
54626,-89.2857142857143,4,2,22,87,0,0
61973,-89.2857142857143,4,2,22,92,0,0
62891,-89.2857142857143,4,2,22,87,0,0
66871,-81.9672131147541,4,2,22,92,0,0
67101,-81.9672131147541,4,2,22,5,0,0
67177,-81.9672131147541,4,2,22,92,0,0
67560,-81.9672131147541,4,2,22,5,0,0
67636,-81.9672131147541,4,2,22,92,0,0
67789,-89.2857142857143,4,2,22,82,0,0
72993,-89.2857142857143,4,2,22,92,0,0
74218,-98.0392156862745,4,2,22,72,0,0
84014,-434.782608695652,4,2,22,72,0,0
88912,-434.782608695652,4,2,22,5,0,0

[Colours]
Combo1 : 186,191,192
Combo2 : 233,90,90

[HitObjects]
135,288,15442,6,0,P|152:352|159:381,1,70.5200010760498,4|0,1:2|0:2,0:2:0:0:
238,222,15749,2,0,P|221:286|214:315,1,70.5200010760498,0|0,1:2|0:2,0:2:0:0:
143,140,16055,2,0,P|160:204|167:233,1,70.5200010760498,0|0,1:2|0:2,0:2:0:0:
243,68,16361,2,0,P|226:132|219:161,1,70.5200010760498,0|0,1:2|0:2,0:2:0:0:
330,222,16667,6,0,P|394:205|423:198,1,70.5200010760498,0|0,1:2|0:2,0:2:0:0:
288,308,16973,2,0,P|224:291|195:284,1,70.5200010760498,4|0,1:2|0:2,0:2:0:0:
349,133,17279,2,0,P|413:116|442:109,1,70.5200010760498,4|0,1:2|0:2,0:2:0:0:
249,216,17585,2,0,P|185:199|156:192,1,70.5200010760498,4|0,1:2|0:2,0:2:0:0:
48,22,17891,5,4,1:2:0:0:
48,22,18197,5,0,1:2:0:0:
75,117,18351,1,0,1:2:0:0:
102,211,18504,1,0,1:2:0:0:
137,46,18657,1,0,1:2:0:0:
3,167,18810,1,8,0:2:0:0:
150,33,18963,1,0,1:2:0:0:
138,300,19116,5,8,0:2:0:0:
48,22,19269,1,8,0:2:0:0:
271,193,19422,1,8,0:2:0:0:
8,374,20187,5,0,1:2:0:0:
8,374,20264,1,0,1:2:0:0:
8,374,20340,1,8,0:2:0:0:
13,353,22789,5,2,1:2:0:0:
14,334,22865,1,0,1:2:0:0:
20,318,22942,1,0,1:2:0:0:
30,303,23018,1,0,1:2:0:0:
43,291,23095,1,0,1:2:0:0:
59,283,23171,1,0,1:2:0:0:
76,279,23249,2,0,P|86:290|104:298,3,35.2600005380249,2|0|0|0,1:2|1:2|1:2|1:2,0:0:0:0:
180,210,23555,2,0,P|165:213|149:224,3,35.2600005380249,2|0|0|0,1:2|1:2|1:2|1:2,0:0:0:0:
194,328,23861,2,0,P|198:313|196:294,3,35.2600005380249,2|0|0|0,1:2|1:2|1:2|1:2,0:0:0:0:
74,192,24167,1,2,1:2:0:0:
74,192,24243,1,0,1:2:0:0:
74,192,24320,2,0,P|69:177|71:158,1,35.2600005380249,0|0,1:2|1:2,0:2:0:0:
273,13,24473,5,10,0:2:0:0:
272,53,24549,1,8,0:2:0:0:
253,89,24626,1,8,0:2:0:0:
219,112,24702,1,8,0:3:0:0:
179,117,24779,1,8,0:3:0:0:
141,103,24855,1,4,0:3:0:0:
113,74,24932,2,0,P|224:111|278:136,1,157.379993516144,12|0,0:2|0:2,0:2:0:0:
301,208,25238,5,6,1:2:0:0:
476,48,25391,1,2,1:2:0:0:
319,62,25544,1,10,0:2:0:0:
413,282,25697,2,0,B|453:224|453:224|402:114,1,175.440001070801,6|2,1:2|1:2,0:2:0:0:
324,292,26157,1,10,0:2:0:0:
229,142,26310,6,0,P|262:112|319:114,1,87.7200005354004,6|0,1:2|0:2,0:2:0:0:
186,247,26616,1,2,1:2:0:0:
208,44,26769,1,10,0:2:0:0:
387,224,26922,2,0,P|324:202|283:188,1,87.7200005354004,6|0,1:2|0:2,0:2:0:0:
160,265,27228,1,2,1:2:0:0:
319,101,27381,2,0,P|251:125|215:137,1,87.7200005354004,10|0,0:2|0:2,0:2:0:0:
39,225,27687,5,6,1:2:0:0:
143,105,27840,1,2,1:2:0:0:
165,290,27993,1,10,0:2:0:0:
47,90,28146,2,0,P|73:37|202:24,1,175.440001070801,6|2,1:2|1:2,0:2:0:0:
259,143,28606,1,10,0:2:0:0:
83,217,28759,6,0,P|16:195|-12:186,1,87.7200005354004,6|0,1:2|0:2,0:2:0:0:
149,123,29065,1,2,1:2:0:0:
192,318,29218,1,10,0:2:0:0:
0,338,29371,2,0,P|67:316|95:307,1,87.7200005354004,6|0,1:2|0:2,0:2:0:0:
166,153,29677,1,2,1:2:0:0:
319,384,29830,1,10,0:2:0:0:
319,384,29907,1,8,0:2:0:0:
319,384,29983,1,8,0:2:0:0:
180,295,30136,5,6,1:2:0:0:
376,170,30289,1,2,1:2:0:0:
222,64,30442,1,10,0:2:0:0:
347,293,30595,2,0,B|388:251|443:260|443:260|459:307|515:320,1,175.440001070801,6|2,1:2|1:2,0:2:0:0:
405,155,31055,1,10,0:2:0:0:
253,315,31208,6,0,P|204:323|158:296,1,87.7200005354004,6|0,1:2|0:2,0:2:0:0:
179,122,31514,1,2,1:2:0:0:
286,228,31667,1,10,0:2:0:0:
78,302,31820,2,0,P|67:239|56:200,1,87.7200005354004,6|0,1:2|0:2,0:2:0:0:
198,35,32126,1,2,1:2:0:0:
0,109,32279,2,0,P|43:115|85:126,1,87.7200005354004,10|0,0:2|0:2,0:2:0:0:
289,57,32585,5,6,1:2:0:0:
178,216,32738,1,2,1:2:0:0:
105,38,32891,1,10,0:2:0:0:
294,206,33044,2,0,B|356:192|356:192|374:160|374:160|458:142,1,175.440001070801,6|2,1:2|1:2,0:2:0:0:
405,290,33504,1,10,0:2:0:0:
290,82,33657,1,6,1:3:0:0:
203,325,33963,5,6,1:3:0:0:
5,135,34269,5,6,1:3:0:0:
90,158,34422,1,10,1:3:0:0:
175,182,34575,1,6,0:3:0:0:
175,182,35034,6,0,P|232:163|259:155,1,70.5200010760498,6|0,1:2|1:2,0:2:0:0:
333,28,35340,2,0,P|310:69|348:154,1,141.0400021521,10|0,0:2|1:2,0:2:0:0:
461,108,35800,2,0,P|404:89|377:81,1,70.5200010760498,2|8,1:2|0:2,0:2:0:0:
304,253,36106,2,0,P|409:217|459:202,1,141.0400021521,2|2,0:2|1:2,0:2:0:0:
343,150,36565,1,10,0:2:0:0:
309,338,36718,2,0,P|266:332|232:300,1,70.5200010760498,2|0,0:2|1:2,0:2:0:0:
209,170,37024,1,2,1:2:0:0:
209,170,37177,2,0,P|225:210|214:255,1,70.5200010760498,10|0,0:2|0:2,0:2:0:0:
140,353,37483,6,0,B|106:263|106:263|158:213,2,141.0400021521,2|8|0,1:2|0:2|1:2,0:2:0:0:
58,384,38249,1,0,1:2:0:0:
0,310,38402,2,0,P|16:259|24:228,1,70.5200010760498,8|0,0:2|0:2,0:2:0:0:
77,85,38708,1,0,1:2:0:0:
77,85,38861,1,0,1:2:0:0:
0,148,39014,2,0,P|68:166|135:188,1,141.0400021521,8|0,0:2|1:2,0:2:0:0:
224,271,39473,2,0,P|275:255|306:247,1,70.5200010760498,2|8,1:2|0:2,0:2:0:0:
226,165,39779,1,2,0:2:0:0:
138,273,39932,6,0,P|122:324|114:355,1,70.5200010760498,6|0,1:2|1:2,0:2:0:0:
123,172,40238,2,0,P|144:104|165:35,1,141.0400021521,8|0,0:2|1:2,0:2:0:0:
293,153,40697,2,0,P|254:168|212:158,1,70.5200010760498,2|8,1:2|0:2,0:2:0:0:
332,78,41004,2,0,P|364:104|376:145,1,70.5200010760498,2|0,0:2|1:2,0:2:0:0:
247,80,41310,2,0,P|253:38|283:7,1,70.5200010760498,2|8,1:2|0:2,0:2:0:0:
221,180,41616,2,0,B|174:170|174:170|159:142|159:142|75:123,1,141.0400021521,2|2,0:2|1:2,0:2:0:0:
27,185,42075,1,8,0:2:0:0:
0,30,42228,1,2,0:2:0:0:
0,30,42381,6,0,P|16:81|24:112,1,70.5200010760498,2|0,1:2|1:2,0:2:0:0:
107,215,42687,2,0,P|76:311|61:370,1,141.0400021521,10|0,0:2|1:2,0:2:0:0:
164,311,43146,1,0,1:2:0:0:
164,148,43300,2,0,P|122:127|87:133,1,70.5200010760498,8|0,0:2|0:2,0:2:0:0:
212,233,43606,2,0,P|246:232|276:213,1,70.5200010760498,0|0,1:2|1:2,0:0:0:0:
298,17,43912,2,0,P|249:58|254:141,1,141.0400021521,8|0,0:2|1:2,0:2:0:0:
396,119,44371,2,0,P|345:103|314:95,1,70.5200010760498,2|8,1:2|0:2,0:0:0:0:
277,213,44677,1,2,1:2:0:0:
472,277,44830,6,0,P|453:215|444:186,1,79.1199973439942,6|0,1:2|0:2,0:2:0:0:
480,99,45136,1,10,0:2:0:0:
361,215,45289,2,0,P|380:153|389:124,1,79.1199973439942,2|0,0:2|1:2,0:2:0:0:
475,8,45595,2,0,P|437:19|399:31,1,79.1199973439942,2|8,1:2|0:2,0:0:0:0:
294,123,45902,2,0,P|255:111|137:78,1,158.239994687988,2|2,0:2|1:2,0:2:0:0:
0,142,46361,1,8,0:2:0:0:
38,5,46514,2,0,P|49:42|61:80,1,79.1199973439942,2|0,0:2|1:2,0:2:0:0:
155,164,46820,2,0,P|143:201|131:239,1,79.1199973439942,2|8,1:2|0:0,0:2:0:0:
213,354,47126,1,0,0:2:0:0:
0,376,47279,6,0,P|32:330|131:328,1,158.239994687988,6|10,1:2|0:2,0:2:0:0:
312,360,47738,2,0,P|300:322|288:284,1,79.1199973439942,2|0,0:2|1:2,0:2:0:0:
325,179,48044,1,2,1:2:0:0:
207,268,48197,2,0,P|218:230|230:192,1,79.1199973439942,10|0,0:2|0:2,0:2:0:0:
187,82,48504,1,6,1:2:0:0:
342,188,48657,2,0,B|389:149|436:167|436:167|442:206|492:221,1,158.239994687988,0|0,1:0|0:0,0:0:0:0:
323,277,49116,2,0,P|285:265|247:253,1,79.1199973439942,0|0,1:2|1:2,0:0:0:0:
356,369,49422,2,0,P|393:357|431:345,1,79.1199973439942,8|0,0:2|0:2,0:2:0:0:
489,195,49728,5,6,1:2:0:0:
407,265,49881,1,2,1:2:0:0:
512,308,50034,1,10,0:2:0:0:
402,174,50187,2,0,P|414:133|448:17,1,158.239994687988,2|2,0:2|1:2,0:2:0:0:
506,108,50646,1,10,0:2:0:0:
358,31,50800,2,0,P|346:68|334:106,1,79.1199973439942,2|0,0:2|1:2,0:2:0:0:
351,239,51106,1,2,1:2:0:0:
233,109,51259,2,0,P|245:146|257:184,1,79.1199973439942,10|0,0:2|0:2,0:2:0:0:
365,331,51565,1,0,1:2:0:0:
361,208,51718,1,0,1:2:0:0:
228,298,51871,2,0,P|190:286|152:273,1,79.1199973439942,8|0,0:2|0:2,0:2:0:0:
48,83,52177,6,0,P|95:102|112:178,1,118.679996015991,14|0,0:2|0:0,0:0:0:0:
94,192,52483,5,10,0:2:0:0:
188,87,52636,1,2,1:2:0:0:
168,256,52789,5,8,0:2:0:0:
83,78,52942,1,2,1:2:0:0:
9,245,53095,5,8,0:2:0:0:
226,175,53249,1,2,1:2:0:0:
0,43,53402,5,8,0:2:0:0:
153,274,53555,1,10,0:2:0:0:
139,5,53708,1,8,0:2:0:0:
418,230,54626,6,0,B|373:191|312:203|312:203|306:259|242:274,1,192.640002351563,6|8,1:2|0:2,0:2:0:0:
88,138,55085,1,2,0:2:0:0:
206,84,55238,2,0,P|180:188|156:301,1,192.640002351563,2|8,1:2|0:2,0:0:0:0:
293,370,55697,1,2,0:2:0:0:
377,213,55851,2,0,P|334:183|282:187,1,96.3200011757813,2|0,1:2|1:2,0:2:0:0:
119,347,56157,2,0,P|164:358|207:339,1,96.3200011757813,10|0,0:2|0:2,0:2:0:0:
233,117,56463,1,2,1:2:0:0:
134,249,56616,1,0,1:2:0:0:
309,347,56769,2,0,P|370:323|412:308,1,96.3200011757813,10|0,0:2|0:2,0:2:0:0:
453,82,57075,6,0,B|425:104|404:135|404:135|433:184|468:252,1,192.640002351563,6|8,1:2|0:2,0:2:0:0:
315,159,57534,1,2,0:2:0:0:
483,331,57687,2,0,P|441:269|325:258,1,192.640002351563,2|8,1:2|0:2,0:0:0:0:
162,131,58146,1,2,0:2:0:0:
204,301,58300,2,0,P|222:226|231:191,1,96.3200011757813,2|0,1:2|1:2,0:2:0:0:
62,89,58606,2,0,P|73:135|84:182,1,96.3200011757813,10|0,0:2|0:2,0:2:0:0:
211,334,58912,1,0,1:2:0:0:
27,282,59065,1,0,1:2:0:0:
178,102,59218,2,0,P|229:117|293:136,1,96.3200011757813,8|0,0:2|0:2,0:2:0:0:
402,272,59524,6,0,P|453:257|517:238,1,96.3200011757813,6|0,1:2|1:2,0:2:0:0:
330,378,59830,2,0,B|308:312|283:258|283:258|315:231|342:199,1,192.640002351563,10|0,0:2|1:2,0:2:0:0:
461,142,60289,1,0,1:2:0:0:
314,3,60442,2,0,P|330:59|348:118,1,96.3200011757813,10|0,0:2|0:2,0:2:0:0:
245,261,60749,2,0,P|285:219|327:174,1,96.3200011757813,2|0,1:2|1:2,0:2:0:0:
502,188,61055,2,0,P|445:173|385:159,1,96.3200011757813,10|0,0:2|0:2,0:2:0:0:
256,120,61361,1,2,1:2:0:0:
382,245,61514,1,0,1:2:0:0:
435,72,61667,2,0,P|378:86|318:100,1,96.3200011757813,10|0,0:2|0:2,0:2:0:0:
204,282,61973,5,10,0:2:0:0:
251,81,62126,1,0,1:2:0:0:
280,224,62279,5,10,0:2:0:0:
173,30,62432,1,0,1:2:0:0:
119,313,62585,5,10,0:2:0:0:
346,76,62738,1,0,1:2:0:0:
10,101,62891,6,0,B|87:120|87:120|103:161|103:161|201:182,1,192.640002351563,14|0,0:2|1:2,0:2:0:0:
374,66,63351,1,8,0:2:0:0:
338,310,63504,2,0,P|328:262|318:215,1,96.3200011757813,8|0,0:2|1:2,0:2:0:0:
191,33,63810,1,6,1:2:0:0:
149,259,63963,1,10,0:2:0:0:
149,259,64039,1,8,0:2:0:0:
149,259,64116,2,0,L|92:243,1,48.1600005878906,2|8,1:2|1:3,0:2:0:0:
238,115,64269,2,0,L|295:131,1,48.1600005878906,4|4,1:3|1:3,0:0:0:0:
340,225,64422,6,0,L|154:172,1,192.640002351563,6|8,1:2|0:2,0:2:0:0:
295,45,64881,1,2,0:2:0:0:
434,190,65034,2,0,B|452:259|452:259|374:359,1,192.640002351563,2|8,1:2|0:2,0:0:0:0:
231,279,65493,1,2,0:2:0:0:
372,117,65646,2,0,P|413:93|460:99,1,96.3200011757813,2|0,1:2|1:2,0:2:0:0:
339,256,65953,2,0,P|280:258|241:225,1,96.3200011757813,10|0,0:2|0:2,0:2:0:0:
245,32,66259,2,0,P|262:91|272:140,1,96.3200011757813,2|0,1:2|1:2,0:2:0:0:
112,343,66565,2,0,P|122:296|136:249,1,96.3200011757813,10|0,0:2|0:2,0:2:0:0:
2,49,66871,6,0,P|33:112|125:119,1,157.379993516144,6|0,1:2|0:2,0:2:0:0:
145,54,67177,1,10,0:2:0:0:
354,211,67330,6,0,B|312:159|266:180|266:180|254:223|206:232,1,157.379993516144,6|0,1:2|0:2,0:2:0:0:
190,154,67636,1,10,0:2:0:0:
11,342,67789,2,0,B|82:324|82:324|119:351|119:351|208:326,1,192.640002351563,6|8,1:2|0:2,0:2:0:0:
286,147,68249,1,4,1:3:0:0:
152,252,68402,1,0,1:2:0:0:
319,324,68555,1,8,0:3:0:0:
165,116,68708,1,8,0:3:0:0:
211,349,68861,1,4,0:3:0:0:
379,161,69014,2,0,P|321:175|232:198,1,144.480001763672,6|0,1:2|0:2,0:2:0:0:
178,249,69320,6,0,P|121:234|72:223,1,96.3200011757813,6|0,1:2|1:2,0:2:0:0:
105,0,69626,2,0,P|170:60|149:171,1,192.640002351563,10|0,0:2|1:2,0:2:0:0:
37,147,70085,1,0,1:2:0:0:
147,322,70238,2,0,P|205:303|265:287,1,96.3200011757813,10|0,0:2|0:2,0:2:0:0:
326,110,70544,2,0,P|279:149|274:204,1,96.3200011757813,2|0,1:2|1:2,0:2:0:0:
407,358,70851,2,0,P|391:297|375:242,1,96.3200011757813,10|0,0:2|0:2,0:2:0:0:
484,86,71157,1,2,1:2:0:0:
478,227,71310,1,0,1:2:0:0:
304,43,71463,5,10,0:2:0:0:
350,54,71539,1,8,0:2:0:0:
381,89,71616,1,8,0:2:0:0:
386,137,71692,1,8,0:2:0:0:
362,178,71769,2,0,P|299:160|213:144,1,144.480001763672,10|0,0:2|0:0,0:0:0:0:
168,88,72075,5,10,0:2:0:0:
293,257,72228,1,0,1:2:0:0:
69,174,72381,5,8,0:2:0:0:
295,69,72534,1,0,1:2:0:0:
71,73,72687,5,10,0:2:0:0:
338,182,72840,1,0,1:2:0:0:
23,265,72993,5,10,0:2:0:0:
180,7,73146,1,8,0:2:0:0:
220,304,73300,1,8,0:2:0:0:
226,331,74218,5,6,1:2:0:0:
356,146,74371,1,2,1:2:0:0:
371,336,74524,1,10,0:2:0:0:
243,158,74677,2,0,B|210:106|154:114|154:114|142:159|87:165,1,175.440001070801,6|2,1:2|1:2,0:2:0:0:
248,246,75137,1,10,0:2:0:0:
86,366,75289,6,0,P|67:288|60:262,1,87.7200005354004,6|0,1:2|0:2,0:2:0:0:
83,79,75596,1,2,1:2:0:0:
0,222,75749,1,10,0:2:0:0:
190,190,75902,2,0,P|127:168|86:154,1,87.7200005354004,6|0,1:2|0:2,0:2:0:0:
175,304,76208,1,2,1:2:0:0:
271,133,76361,2,0,P|339:109|375:97,1,87.7200005354004,10|0,0:2|0:2,0:2:0:0:
512,3,76667,5,6,1:2:0:0:
414,183,76820,1,2,1:2:0:0:
383,5,76973,1,10,0:2:0:0:
480,255,77126,2,0,P|439:217|321:241,1,175.440001070801,6|2,1:2|1:2,0:2:0:0:
440,370,77586,1,10,0:2:0:0:
512,170,77739,6,0,P|490:103|481:75,1,87.7200005354004,4|0,1:2|0:2,0:2:0:0:
395,291,78045,1,2,1:2:0:0:
401,129,78198,1,10,0:2:0:0:
228,263,78351,2,0,P|295:241|323:232,1,87.7200005354004,6|0,1:2|0:2,0:2:0:0:
347,61,78657,1,2,1:2:0:0:
485,260,78810,1,10,0:2:0:0:
485,260,78887,1,8,0:2:0:0:
485,260,78963,1,8,0:2:0:0:
296,144,79116,5,6,1:2:0:0:
470,77,79269,1,2,1:2:0:0:
396,262,79422,1,10,0:2:0:0:
204,77,79575,2,0,B|257:52|309:30|309:30|340:51|362:67,1,175.440001070801,6|2,1:2|1:2,0:2:0:0:
311,235,80035,1,10,0:2:0:0:
128,116,80188,6,0,P|116:63|143:17,1,87.7200005354004,6|0,1:2|0:2,0:2:0:0:
254,161,80494,1,2,1:2:0:0:
83,239,80647,1,10,0:2:0:0:
209,357,80800,2,0,P|198:294|187:255,1,87.7200005354004,6|0,1:2|0:2,0:2:0:0:
215,71,81106,1,2,1:2:0:0:
35,132,81259,2,0,P|78:138|120:149,1,87.7200005354004,10|0,0:2|0:2,0:2:0:0:
287,253,81565,5,6,1:2:0:0:
119,315,81718,1,2,1:2:0:0:
211,102,81871,1,10,0:2:0:0:
285,345,82024,2,0,B|347:331|347:331|365:299|365:299|449:281,1,175.440001070801,6|2,1:2|1:2,0:2:0:0:
279,232,82484,1,10,0:2:0:0:
502,382,82637,1,6,1:3:0:0:
415,72,82943,5,6,1:3:0:0:
244,383,83249,5,14,1:3:0:0:
221,298,83402,1,10,1:3:0:0:
197,213,83555,1,6,0:3:0:0:
507,35,84014,5,6,1:2:0:0:
256,192,84090,12,0,88912,0:0:0:0:
