osu file format v14

[General]
AudioFilename: audio.ogg
AudioLeadIn: 0
PreviewTime: 53940
Countdown: 0
SampleSet: Soft
StackLeniency: 0.7
Mode: 0
LetterboxInBreaks: 0
WidescreenStoryboard: 1

[Editor]
DistanceSpacing: 1.1
BeatDivisor: 4
GridSize: 32
TimelineZoom: 1.1

[Metadata]
Title:Yume no Ito (TV Size)
TitleUnicode:夢の糸 (TV Size)
Artist:Akari Kito
ArtistUnicode:鬼頭明里
Creator:Fuxi66
Version:Easy
Source:魔都精兵のスレイブ
Tags:japanese pop jpop j-pop anime opening op mato seihei no slave chained soldier dream thread T4K Ririsya Masaki Kubo 久保正貴 [Limited Edition] [初回限定盤] album
BeatmapID:4468398
BeatmapSetID:2120394

[Difficulty]
HPDrainRate:2.5
CircleSize:2.5
OverallDifficulty:2.5
ApproachRate:4
SliderMultiplier:0.84
SliderTickRate:1

[Events]
//Background and Video events
0,0,"raw_7.jpg",0,0
Video,-70,"vidvidvid.avi"
//Break Periods
//Storyboard Layer 0 (Background)
//Storyboard Layer 1 (Fail)
//Storyboard Layer 2 (Pass)
//Storyboard Layer 3 (Foreground)
//Storyboard Layer 4 (Overlay)
//Storyboard Sound Samples

[TimingPoints]
749,306.122448979592,4,2,22,42,1,0
749,-100,4,2,22,42,0,0
15442,-100,4,2,22,52,0,0
17891,-100,4,2,22,62,0,0
18810,-100,4,2,22,72,0,0
19116,-100,4,2,22,82,0,0
20187,-100,4,2,22,62,0,0
24932,-100,4,2,22,82,0,0
25162,-100,4,2,22,5,0,0
25238,-100,4,2,22,72,0,0
35034,-100,4,2,22,52,0,0
44830,-100,4,2,22,62,0,0
52177,-100,4,2,22,72,0,0
53402,-100,4,2,22,82,0,0
54626,-100,4,2,22,87,0,0
61973,-100,4,2,22,92,0,0
62891,-100,4,2,22,87,0,0
66871,-100,4,2,22,92,0,0
67101,-100,4,2,22,5,0,0
67177,-100,4,2,22,92,0,0
67560,-100,4,2,22,5,0,0
67636,-100,4,2,22,92,0,0
67789,-100,4,2,22,82,0,0
72993,-100,4,2,22,92,0,0
74218,-100,4,2,22,72,0,0
84014,-100,4,2,22,72,0,0
88912,-100,4,2,22,5,0,0

[Colours]
Combo1 : 186,191,192
Combo2 : 233,90,90

[HitObjects]
67,89,15442,6,0,P|97:57|188:61,1,126,6|2,1:2|0:2,0:2:0:0:
226,130,16208,1,2,0:2:0:0:
170,203,16514,1,2,0:2:0:0:
219,281,16820,2,0,B|271:293|271:293|299:273|299:273|354:285,1,126,2|4,0:2|1:2,0:0:0:0:
401,346,17585,1,4,1:2:0:0:
473,288,17891,6,0,P|495:250|474:158,1,126,6|2,1:2|1:2,0:0:0:0:
398,136,18657,1,2,1:2:0:0:
400,43,18963,1,2,1:2:0:0:
486,10,19269,1,10,0:2:0:0:
273,187,20187,6,0,L|225:176,1,42,0|8,1:2|0:2,0:0:0:0:
19,19,22789,6,0,P|47:54|33:136,1,126,2|2,1:2|1:2,0:0:0:0:
104,194,23555,1,2,1:2:0:0:
39,260,23861,2,0,P|17:302|22:337,1,84,2|2,1:2|1:2,0:0:0:0:
105,377,24473,2,0,P|188:357|230:348,1,126,10|12,0:2|0:2,0:0:0:0:
271,267,25238,5,6,1:2:0:0:
170,171,25697,2,0,P|160:120|184:82,1,84,6|2,1:2|1:2,0:2:0:0:
247,37,26310,2,0,P|298:27|336:51,1,84,6|2,1:2|1:2,0:2:0:0:
391,105,26922,2,0,P|373:180|365:233,1,126,6|10,1:2|0:2,0:2:0:0:
410,309,27687,1,6,1:2:0:0:
283,366,28146,2,0,P|235:356|195:347,1,84,6|2,1:2|1:2,0:2:0:0:
135,283,28759,2,0,P|145:235|154:195,1,84,6|2,1:2|1:2,0:2:0:0:
129,111,29371,2,0,B|186:103|186:103|246:152,1,126,6|10,1:2|0:2,0:2:0:0:
269,233,30136,5,6,1:2:0:0:
407,228,30595,2,0,P|426:192|429:143,1,84,6|2,1:2|1:2,0:2:0:0:
497,85,31208,2,0,P|475:50|434:23,1,84,6|2,1:2|1:2,0:2:0:0:
348,17,31820,2,0,P|290:34|213:56,1,126,6|10,1:2|0:2,0:2:0:0:
137,30,32585,1,6,1:2:0:0:
26,112,33044,2,0,P|43:170|52:205,1,84,6|2,1:2|1:2,0:2:0:0:
119,253,33657,2,0,P|106:293|96:333,2,84,6|6|6,1:3|1:3|1:3,0:0:0:0:
199,207,34575,1,6,0:3:0:0:
223,70,35034,6,0,B|258:51|302:61|302:61|307:94|336:111,1,126,6|0,1:2|0:0,0:2:0:0:
412,84,35800,1,2,1:2:0:0:
490,132,36106,2,0,P|498:172|478:218,1,84,2|2,0:2|1:2,0:2:0:0:
410,268,36718,2,0,B|367:252|367:252|339:264|339:264|281:244,1,126,2|10,0:2|0:2,0:2:0:0:
213,198,37483,2,0,P|205:99|260:39,2,168,2|0|0,1:2|1:2|1:2,0:2:0:0:
389,347,39473,1,2,1:2:0:0:
473,308,39779,6,0,P|482:262|501:177,1,126,6|8,0:2|0:2,0:0:0:0:
445,56,40697,1,2,1:2:0:0:
359,91,41004,2,0,P|309:77|274:68,1,84,2|2,0:2|1:2,0:2:0:0:
200,18,41617,2,0,P|150:32|115:41,1,84,2|2,0:2|1:2,0:2:0:0:
70,118,42228,1,2,0:2:0:0:
162,220,42687,2,0,B|228:235|251:205|237:202|267:162|332:188,1,168,10|8,0:2|0:2,0:2:0:0:
406,205,43606,2,0,P|429:257|403:330,1,126,0|0,1:2|0:2,0:0:0:0:
334,372,44371,1,2,1:2:0:0:
271,304,44677,6,0,B|234:252|181:261|181:261|161:294|120:301,1,168,6|2,1:2|0:2,0:0:0:0:
49,258,45595,1,2,1:2:0:0:
23,169,45902,2,0,P|35:121|45:79,1,84,2|2,0:2|1:2,0:2:0:0:
113,27,46514,2,0,P|164:31|198:55,1,84,2|2,0:2|1:2,0:2:0:0:
220,183,47279,2,0,B|297:210|297:210|334:184,1,126,6|2,1:2|0:2,0:2:0:0:
412,70,48197,1,10,0:2:0:0:
497,106,48504,6,0,P|489:148|479:200,1,84,4|8,1:2|0:0,0:0:0:0:
506,277,49116,1,0,1:2:0:0:
436,337,49422,1,8,0:2:0:0:
369,273,49728,2,0,P|323:248|251:266,1,126,6|2,1:2|0:2,0:0:0:0:
196,335,50493,1,2,1:2:0:0:
106,309,50800,2,0,P|95:253|89:219,1,84,2|2,0:2|1:2,0:2:0:0:
16,171,51412,1,2,0:2:0:0:
81,48,51871,1,8,0:2:0:0:
151,108,52177,6,0,B|197:94|197:94|225:106|225:106|283:88,1,126,14|2,0:2|1:2,0:0:0:0:
320,14,52942,1,10,1:2:0:0:
412,20,53249,1,10,1:2:0:0:
475,87,53555,2,0,L|467:136,1,42,10|8,0:2|0:2,0:0:0:0:
310,356,54626,6,0,P|270:344|220:332,1,84,6|8,1:2|0:2,0:2:0:0:
137,345,55238,2,0,P|128:305|113:255,1,84,2|8,1:2|0:2,0:2:0:0:
139,176,55851,1,2,1:2:0:0:
229,160,56157,1,10,0:2:0:0:
291,228,56463,1,2,1:2:0:0:
378,198,56769,1,10,0:2:0:0:
465,227,57075,6,0,P|471:185|479:144,1,84,4|8,1:2|0:2,0:2:0:0:
509,56,57687,1,2,1:2:0:0:
328,97,58300,1,2,1:2:0:0:
275,21,58606,2,0,B|181:-7|214:77|105:42,1,168,10|8,0:2|1:2,0:2:0:0:
44,102,59524,5,6,1:2:0:0:
102,173,59830,2,0,P|111:224|116:268,1,84,10|0,0:2|1:2,0:2:0:0:
187,312,60442,1,10,0:2:0:0:
274,280,60749,2,0,P|291:234|282:200,1,84,2|8,1:2|0:2,0:2:0:0:
305,111,61361,2,0,P|342:94|383:102,1,84,2|8,1:2|0:2,0:2:0:0:
459,155,61973,5,10,0:0:0:0:
488,242,62279,1,10,0:0:0:0:
439,320,62585,1,10,0:2:0:0:
346,311,62891,2,0,B|267:307|311:346|210:341,1,126,14|8,0:2|0:2,0:2:0:0:
94,383,63810,1,6,1:2:0:0:
36,310,64116,1,2,1:2:0:0:
115,260,64422,6,0,P|133:218|126:175,1,84,6|8,1:2|0:2,0:2:0:0:
46,138,65034,2,0,P|28:96|35:53,1,84,2|8,1:2|0:2,0:2:0:0:
104,1,65646,1,2,1:2:0:0:
195,18,65953,1,10,0:2:0:0:
246,94,66259,2,0,P|223:172|220:188,1,84,2|10,1:2|0:0,0:0:0:0:
236,265,66871,5,6,1:2:0:0:
366,312,67330,1,6,1:2:0:0:
468,218,67789,2,0,B|460:171|460:171|476:145|476:145|464:96,2,126,6|4|8,1:2|1:3|0:3,0:2:0:0:
406,287,69014,1,6,1:2:0:0:
339,223,69320,1,6,1:2:0:0:
261,269,69626,6,0,P|206:284|172:295,1,84,10|0,0:2|1:2,0:2:0:0:
125,366,70238,1,10,0:2:0:0:
33,351,70544,1,2,1:2:0:0:
16,259,70851,1,10,0:2:0:0:
88,201,71157,2,0,P|102:153|84:113,1,84,2|10,1:2|0:2,0:0:0:0:
15,68,71769,5,10,0:2:0:0:
84,6,72075,2,0,P|149:19|180:27,1,84,10|8,0:2|0:2,0:0:0:0:
220,97,72687,1,10,0:2:0:0:
308,70,72993,2,0,L|319:25,2,42,10|8|8,0:2|0:2|0:2,0:0:0:0:
492,276,74218,5,6,1:2:0:0:
386,366,74677,2,0,P|335:376|297:352,1,84,6|2,1:2|1:2,0:2:0:0:
232,308,75290,2,0,P|222:257|246:219,1,84,6|2,1:2|1:2,0:2:0:0:
321,197,75902,2,0,P|308:136|291:68,1,126,6|10,1:2|0:2,0:2:0:0:
223,13,76667,1,6,1:2:0:0:
161,136,77126,2,0,P|113:126|73:117,1,84,6|2,1:2|1:2,0:2:0:0:
6,175,77739,2,0,P|16:223|25:263,1,84,4|2,1:2|1:2,0:2:0:0:
90,320,78351,2,0,B|134:290|134:290|214:316,1,126,6|10,1:2|0:2,0:2:0:0:
272,373,79116,5,6,1:2:0:0:
388,298,79575,2,0,P|399:253|385:212,1,84,6|2,1:2|1:2,0:2:0:0:
314,162,80187,2,0,P|250:173|220:178,1,84,6|2,1:2|1:2,0:2:0:0:
156,230,80800,2,0,B|114:237|95:215|106:214|80:185|30:200,1,126,6|10,1:2|0:2,0:2:0:0:
2,114,81565,1,6,1:2:0:0:
106,23,82024,2,0,P|164:40|199:49,1,84,6|2,1:2|1:2,0:2:0:0:
268,89,82637,2,0,P|308:76|348:66,2,84,6|6|14,1:3|1:3|1:3,0:0:0:0:
231,176,83555,1,6,0:3:0:0:
317,284,84014,5,6,1:2:0:0:
256,192,84320,12,0,88912,0:0:0:0:
