osu file format v14

[General]
AudioFilename: audio.mp3
AudioLeadIn: 0
PreviewTime: 52972
Countdown: 0
SampleSet: Soft
StackLeniency: 0.7
Mode: 0
LetterboxInBreaks: 0
WidescreenStoryboard: 1

[Editor]
DistanceSpacing: 0.6
BeatDivisor: 4
GridSize: 16
TimelineZoom: 1.7

[Metadata]
Title:Smile Skill = Suki Skill! (TV Size)
TitleUnicode:スマイルスキル=スキスキル!(TV Size)
Artist:Akaki Chikai
ArtistUnicode:赤き誓い
Creator:Riana
Version:Hard
Source:私、能力は平均値でって言ったよね!
Tags:Watashi Nouryoku wa Heikinchi de tte Itta yo ne! Noukin 能均 Didn't I Say to Make My Abilities Average in the Next Life?! anime op opening Adele von Ascham Azumi Waki 和氣あず未 Sora Tokui 徳井青空 Austien Fumiko Uchimura 内村史子 Masumi Tazawa 田澤茉純 マイル レーナ メーヴィス ポーリン Mile Reina Mavis Pauline Japanese jpop j-pop pop buckfro i love jrszz i_love_jrszz hoto cocoa hoto_cocoa interlude- lude affirmation neoskylove enon greaper
BeatmapID:3210622
BeatmapSetID:1478148

[Difficulty]
HPDrainRate:4
CircleSize:3.5
OverallDifficulty:6.5
ApproachRate:7.5
SliderMultiplier:1.6
SliderTickRate:1

[Events]
//Background and Video events
0,0,"81vpzV-phlL.jpg",0,0
//Break Periods
//Storyboard Layer 0 (Background)
//Storyboard Layer 1 (Fail)
//Storyboard Layer 2 (Pass)
//Storyboard Layer 3 (Foreground)
//Storyboard Layer 4 (Overlay)
//Storyboard Sound Samples

[TimingPoints]
2623,419.58041958042,4,2,1,50,1,0
2623,-83.3333333333333,4,2,1,50,0,0
9336,-109.89010989011,4,2,1,40,0,0
22763,-109.89010989011,4,2,1,45,0,0
32832,-83.3333333333333,4,2,1,50,0,0
39546,-109.89010989011,4,2,1,55,0,0
40595,-109.89010989011,4,2,1,30,0,0
40804,-109.89010989011,4,2,1,55,0,0
42902,-83.3333333333333,4,2,1,50,0,0
46259,-109.89010989011,4,2,1,55,0,0
47308,-109.89010989011,4,2,1,30,0,0
47518,-109.89010989011,4,2,1,55,0,0
49617,-109.89010989011,4,2,1,60,0,0
51295,-109.89010989011,4,2,1,65,0,0
51609,-109.89010989011,4,2,1,5,0,0
51713,-109.89010989011,4,2,1,65,0,0
52028,-109.89010989011,4,2,1,5,0,0
52133,-109.89010989011,4,2,1,65,0,0
52762,-109.89010989011,4,2,1,5,0,0
52972,-75.7575757575758,4,2,1,65,0,0
81504,-83.3333333333333,4,2,1,60,0,0
88217,-98.0392156862745,4,2,1,60,0,0
88636,-98.0392156862745,4,2,1,55,0,0
88846,-98.0392156862745,4,2,1,50,0,0
89056,-98.0392156862745,4,2,1,40,0,0
89266,-98.0392156862745,4,2,1,20,0,0
89476,-98.0392156862745,4,2,1,10,0,0
89685,-98.0392156862745,4,2,1,5,0,0

[Colours]
Combo1 : 237,124,128
Combo2 : 203,191,160
Combo3 : 249,227,125
Combo4 : 242,226,236

[HitObjects]
0,281,734,6,0,L|8:343,2,40,8|8|4,2:2|2:2|2:2,0:0:0:0:
93,233,1154,2,0,L|101:171,2,40,8|8|8,2:2|2:2|2:2,0:0:0:0:
180,289,1574,1,8,2:2:0:0:
273,237,1783,2,0,L|281:175,2,40,8|8|2,2:2|2:2|2:2,0:0:0:0:
371,289,2203,1,4,2:2:0:0:
385,182,2413,5,8,2:2:0:0:
385,182,2518,1,8,2:2:0:0:
385,182,2623,2,0,P|382:158|387:134,1,47.9999985351563,6|2,2:2|0:0,0:0:0:0:
269,94,2937,2,0,P|292:135|257:241,1,143.999995605469,2|6,0:0|2:3,0:0:0:0:
168,228,3462,2,0,L|73:242,3,95.9999970703126,10|6|10|6,2:3|2:3|2:3|2:3,0:0:0:0:
123,122,4301,6,0,P|128:99|134:75,1,47.9999985351563,10|2,2:3|0:0,0:0:0:0:
243,20,4616,2,0,P|291:112|273:155,1,143.999995605469,2|6,0:0|2:3,0:0:0:0:
277,254,5140,2,0,L|372:268,1,95.9999970703126,10|10,2:2|2:2,0:0:0:0:
410,293,5455,1,8,2:2:0:0:
410,293,5560,2,0,L|477:278,2,47.9999985351563,10|10|10,2:3|2:3|2:2,0:0:0:0:
491,188,5979,6,0,P|488:164|490:140,1,47.9999985351563,6|2,2:2|0:0,0:0:0:0:
395,79,6294,2,0,P|347:78|271:138,1,143.999995605469,2|6,0:0|2:3,0:0:0:0:
199,224,6818,2,0,L|103:230,3,95.9999970703126,10|6|2|6,2:3|2:3|0:0|2:3,0:0:0:0:
3,288,7657,5,4,2:2:0:0:
94,366,7867,1,10,2:3:0:0:
94,366,7972,1,0,0:0:0:0:
94,366,8077,1,10,2:2:0:0:
196,311,8287,2,0,L|263:294,3,47.9999985351563,10|8|8|8,2:2|2:3|2:3|2:3,0:0:0:0:
270,325,8706,2,0,L|333:330,3,47.9999985351563,10|8|8|8,2:2|2:3|2:3|2:3,0:0:0:0:
348,305,9126,1,10,2:2:0:0:
280,198,9336,6,0,P|273:162|343:72,1,145.600004887695,4|10,2:2|2:2,0:0:0:0:
229,31,9965,1,6,2:3:0:0:
229,31,10070,1,10,2:2:0:0:
229,31,10175,2,0,L|171:19,2,36.4000012219239,10|10|6,2:3|2:2|2:3,0:0:0:0:
154,106,10595,2,0,L|82:101,1,72.8000024438477,10|4,2:2|2:3,0:0:0:0:
0,55,11014,5,8,2:3:0:0:
7,161,11224,2,0,P|8:197|0:232,1,72.8000024438477,2|10,0:0|2:2,0:0:0:0:
69,289,11643,1,6,2:3:0:0:
156,260,11853,2,0,L|153:223,2,36.4000012219239,8|8|6,2:3|2:2|2:3,0:0:0:0:
248,234,12273,2,0,B|280:217|280:217|333:227,1,72.8000024438477,8|6,2:2|2:3,0:0:0:0:
407,242,12692,6,0,P|406:205|446:89,1,145.600004887695,8|10,2:3|2:2,0:0:0:0:
365,49,13322,1,4,2:3:0:0:
277,93,13532,2,0,L|208:81,2,36.4000012219239,8|8|4,2:3|2:2|2:3,0:0:0:0:
270,180,13951,2,0,L|343:179,1,72.8000024438477,8|4,2:2|2:3,0:0:0:0:
456,157,14371,6,0,B|460:193|460:193|450:228,1,72.8000024438477,10|4,2:3|2:3,0:0:0:0:
365,270,14790,2,0,B|354:306|354:306|360:342,1,72.8000024438477,8|6,2:2|2:3,0:0:0:0:
256,374,15210,2,0,L|194:368,2,36.4000012219239,10|8|4,2:3|2:2|2:3,0:0:0:0:
260,274,15629,2,0,L|188:274,1,72.8000024438477,10|6,2:2|2:3,0:0:0:0:
167,282,15944,1,8,2:2:0:0:
145,289,16049,6,0,P|110:295|26:228,1,145.600004887695,8|10,2:3|2:2,0:0:0:0:
41,141,16678,1,4,2:3:0:0:
121,86,16888,2,0,L|116:50,2,36.4000012219239,8|8|4,2:3|2:2|2:3,0:0:0:0:
208,86,17308,2,0,B|241:105|241:105|276:97,1,72.8000024438477,8|4,2:2|2:3,0:0:0:0:
371,29,17727,6,0,P|366:83|352:196,1,145.600004887695,10|8,2:3|2:2,0:0:0:0:
286,337,18567,2,0,P|339:330|383:333,1,72.8000024438477,10|6,2:3|2:3,0:0:0:0:
451,315,18986,1,10,2:2:0:0:
474,225,19196,1,6,2:3:0:0:
384,188,19406,6,0,P|376:133|370:100,1,72.8000024438477,8|0,2:3|0:0,0:0:0:0:
291,41,19825,2,0,P|255:38|219:34,1,72.8000024438477,8|4,2:2|2:3,0:0:0:0:
137,104,20245,2,0,P|119:105|100:107,2,36.4000012219239,10|8|6,2:3|2:2|2:3,0:0:0:0:
217,153,20664,1,10,2:2:0:0:
298,200,20874,6,0,P|303:235|331:358,1,145.600004887695,6|2,2:3|0:0,0:0:0:0:
219,382,21504,1,10,2:2:0:0:
140,316,21713,1,6,2:3:0:0:
140,316,21923,2,0,P|126:251|121:213,1,72.8000024438477,8|6,2:3|2:3,0:0:0:0:
140,208,22238,1,8,2:2:0:0:
140,208,22343,1,8,2:2:0:0:
243,214,22553,1,8,2:2:0:0:
321,156,22762,6,0,B|300:117|300:117|310:16,1,145.600004887695,6|8,2:2|2:2,0:0:0:0:
217,62,23392,1,4,2:3:0:0:
117,39,23602,2,0,B|113:75,2,36.4000012219239,10|8|6,2:3|2:2|2:3,0:0:0:0:
87,175,24021,2,0,P|57:155|22:149,1,72.8000024438477,10|6,2:2|2:3,0:0:0:0:
8,266,24441,6,0,P|79:280|141:318,1,145.600004887695,10|8,2:3|2:2,0:0:0:0:
237,311,25070,1,4,2:3:0:0:
268,224,25280,2,0,L|257:174,2,36.4000012219239,8|8|4,2:3|2:2|2:3,0:0:0:0:
356,184,25699,2,0,P|390:193|425:203,1,72.8000024438477,10|6,2:2|2:3,0:0:0:0:
466,314,26119,6,0,P|396:296|333:329,1,145.600004887695,10|8,2:3|2:2,0:0:0:0:
246,324,26748,1,4,2:3:0:0:
157,300,26958,2,0,L|160:336,2,36.4000012219239,10|8|6,2:3|2:2|2:3,0:0:0:0:
122,215,27378,1,10,2:2:0:0:
179,144,27588,1,6,2:3:0:0:
266,169,27797,6,0,P|305:108|306:37,1,145.600004887695,10|8,2:3|2:2,0:0:0:0:
398,14,28427,1,4,2:3:0:0:
464,81,28636,2,0,L|501:77,2,36.4000012219239,8|8|4,2:3|2:2|2:3,0:0:0:0:
441,171,29056,2,0,L|368:177,1,72.8000024438477,8|4,2:2|2:3,0:0:0:0:
348,178,29371,1,8,2:2:0:0:
326,181,29476,6,0,P|314:216|315:252,1,72.8000024438477,6|0,2:2|0:0,0:0:0:0:
231,312,29895,2,0,B|189:301|189:301|153:312,1,72.8000024438477,10|6,2:2|2:3,0:0:0:0:
131,220,30315,2,0,L|167:216,2,36.4000012219239,2|8|6,0:0|2:2|2:3,0:0:0:0:
59,162,30734,1,8,2:2:0:0:
147,135,30944,6,0,P|179:93|190:-6,1,145.600004887695,6|10,2:2|2:2,0:0:0:0:
287,15,31574,1,10,2:2:0:0:
327,106,31783,1,10,2:2:0:0:
327,106,31888,1,8,2:3:0:0:
327,106,31993,2,0,L|323:155,3,36.4000012219239,8|8|10|8,2:3|2:3|2:2|2:3,0:0:0:0:
283,177,32413,2,0,L|287:226,3,36.4000012219239,8|8|10|8,2:2|2:3|2:2|2:3,0:0:0:0:
300,242,32832,6,0,P|303:266|298:290,1,47.9999985351563,6|2,2:2|0:0,0:0:0:0:
205,321,33147,2,0,P|182:280|217:174,1,143.999995605469,2|6,0:0|2:3,0:0:0:0:
187,92,33671,2,0,L|282:106,3,95.9999970703126,10|6|10|6,2:3|2:3|2:3|2:3,0:0:0:0:
401,123,34511,6,0,P|396:100|390:76,1,47.9999985351563,10|2,2:3|0:0,0:0:0:0:
330,202,34825,2,0,P|378:294|360:337,1,143.999995605469,2|6,0:0|2:3,0:0:0:0:
241,302,35350,6,0,L|146:316,1,95.9999970703126,10|10,2:2|2:2,0:0:0:0:
108,341,35664,1,10,2:2:0:0:
108,341,35769,2,0,L|41:326,2,47.9999985351563,10|10|10,2:3|2:3|2:2,0:0:0:0:
45,226,36189,6,0,P|48:202|46:178,1,47.9999985351563,6|2,2:2|0:0,0:0:0:0:
0,80,36503,2,0,P|48:81|124:21,1,143.999995605469,2|6,0:0|2:3,0:0:0:0:
221,62,37028,2,0,L|317:68,3,95.9999970703126,10|6|10|6,2:3|2:3|2:3|2:3,0:0:0:0:
388,135,37866,5,4,2:2:0:0:
401,240,38076,1,10,2:3:0:0:
401,240,38181,1,8,2:3:0:0:
401,240,38286,1,10,2:2:0:0:
328,312,38497,2,0,L|261:295,3,47.9999985351563,10|8|8|8,2:2|2:3|2:3|2:3,0:0:0:0:
254,326,38916,2,0,L|191:331,3,47.9999985351563,10|8|8|8,2:2|2:3|2:2|2:3,0:0:0:0:
176,306,39335,1,10,2:2:0:0:
253,208,39546,6,0,P|215:169|163:157,2,109.200003665772,6|2|6,2:2|0:0|2:3,0:0:0:0:
363,181,40385,2,0,L|362:108,2,72.8000024438477,10|6|10,2:3|2:3|2:3,0:0:0:0:
445,264,41014,6,0,L|365:285,1,72.8000024438477,6|8,2:2|2:3,0:0:0:0:
332,368,41434,1,6,2:3:0:0:
332,368,41539,1,2,0:0:0:0:
332,368,41643,2,0,B|332:366|305:346|230:336,1,72.8000024438477,8|6,2:3|2:3,0:0:0:0:
198,276,42063,2,0,P|200:240|221:152,2,109.200003665772,10|10|10,2:2|2:2|2:2,0:0:0:0:
300,214,42902,6,0,P|370:200|413:144,2,143.999995605469,6|2|6,2:2|0:0|2:3,0:0:0:0:
217,292,43741,2,0,L|121:296,3,95.9999970703126,10|6|10|6,2:3|2:3|2:3|2:3,0:0:0:0:
114,200,44581,5,8,2:3:0:0:
188,124,44790,2,0,B|220:162|220:162|212:208,1,95.9999970703126,6|10,2:3|2:3,0:0:0:0:
238,317,45210,2,0,P|286:267|355:276,1,143.999995605469,6|0,2:3|0:0,0:0:0:0:
451,231,45629,2,0,L|454:184,2,47.9999985351563,6|8|8,2:3|2:2|2:3,0:0:0:0:
356,179,46049,1,6,2:3:0:0:
409,86,46259,6,0,P|356:82|277:45,2,109.200003665772,6|2|6,2:2|0:0|2:3,0:0:0:0:
503,83,47098,2,0,P|506:46|513:10,2,72.8000024438477,2|6|10,0:0|2:3|2:3,0:0:0:0:
464,175,47727,6,0,P|395:190|377:207,1,72.8000024438477,6|8,2:2|2:3,0:0:0:0:
326,260,48147,2,0,L|156:241,1,145.600004887695,6|6,2:3|2:3,0:0:0:0:
103,174,48776,2,0,P|100:137|103:53,2,109.200003665772,10|10|10,2:2|2:2|2:2,0:0:0:0:
218,146,49616,6,0,P|254:140|290:132,1,72.8000024438477,6|4,2:2|2:3,0:0:0:0:
360,190,50035,2,0,P|396:196|432:204,1,72.8000024438477,8|4,2:3|2:3,0:0:0:0:
374,283,50455,2,0,P|338:277|302:269,1,72.8000024438477,8|4,2:3|2:3,0:0:0:0:
232,327,50874,2,0,P|196:333|160:341,1,72.8000024438477,8|6,2:3|2:3,0:0:0:0:
82,296,51294,5,10,2:2:0:0:
17,151,51713,1,10,2:2:0:0:
124,26,52133,1,10,2:2:0:0:
193,220,52972,6,0,P|221:177|210:126,1,105.599999677734,6|4,2:2|2:3,0:0:0:0:
322,75,53392,2,0,P|326:127|329:180,1,105.599999677734,10|6,2:2|2:3,0:0:0:0:
360,202,53706,1,8,2:3:0:0:
360,202,53811,2,0,P|411:198|455:226,1,105.599999677734,10|6,2:3|2:3,0:0:0:0:
510,310,54231,1,10,2:2:0:0:
412,359,54441,6,0,P|360:356|178:395,1,211.199999355469,6|6,2:3|2:3,0:0:0:0:
124,307,55070,1,10,2:2:0:0:
131,206,55280,1,6,2:3:0:0:
224,161,55490,1,2,0:0:0:0:
224,161,55595,1,8,2:2:0:0:
224,161,55699,1,6,2:3:0:0:
298,232,55909,2,0,P|350:225|403:219,1,105.599999677734,10|4,2:2|2:3,0:0:0:0:
474,132,56329,6,0,P|487:55|500:10,2,105.599999677734,10|6|10,2:3|2:3|2:2,0:0:0:0:
384,80,56958,1,6,2:3:0:0:
295,133,57168,2,0,P|269:129|242:126,2,52.7999998388672,10|8|4,2:3|2:2|2:3,0:0:0:0:
389,179,57588,1,10,2:2:0:0:
362,266,57797,1,6,2:3:0:0:
270,338,58007,6,0,P|269:286|266:233,1,105.599999677734,8|4,2:3|2:3,0:0:0:0:
260,131,58427,2,0,P|214:157|171:185,1,105.599999677734,10|4,2:2|2:3,0:0:0:0:
175,289,58846,2,0,P|148:282|125:270,2,52.7999998388672,10|8|6,2:3|2:3|2:3,0:3:0:0:
286,278,59266,2,0,P|328:248|379:257,1,105.599999677734,10|8,2:2|2:2,0:0:0:0:
398,275,59581,1,8,2:2:0:0:
398,275,59685,6,0,P|389:327|383:379,1,105.599999677734,6|4,2:2|2:3,0:0:0:0:
491,384,60105,2,0,P|499:332|506:280,1,105.599999677734,10|4,2:3|2:3,0:0:0:0:
460,181,60525,2,0,P|459:155|455:129,2,52.7999998388672,2|8|6,2:0|2:2|2:3,0:0:0:0:
360,166,60944,1,10,2:2:0:0:
262,210,61154,6,0,P|212:195|49:92,1,211.199999355469,6|6,2:3|2:3,0:0:0:0:
3,191,61783,1,10,2:2:0:0:
27,284,61993,1,6,2:3:0:0:
128,317,62203,1,10,2:3:0:0:
128,317,62308,1,8,2:2:0:0:
128,317,62413,1,6,2:3:0:0:
203,254,62623,2,0,P|257:200|391:192,1,211.199999355469,10|8,2:2|2:3,0:0:0:0:
475,246,63252,5,6,2:3:0:0:
486,144,63462,1,10,2:2:0:0:
401,97,63672,1,6,2:3:0:0:
315,52,63881,2,0,L|319:0,2,52.7999998388672,2|8|6,2:0|2:2|2:3,0:0:0:0:
252,121,64301,1,10,2:2:0:0:
314,202,64511,6,0,P|219:232|208:331,1,211.199999355469,6|4,2:2|2:3,0:0:0:0:
103,311,65140,2,0,P|52:324|-1:328,1,105.599999677734,6|4,2:2|2:3,0:0:0:0:
0,226,65560,1,10,2:2:0:0:
0,226,65664,1,10,2:3:0:0:
0,226,65769,1,10,2:2:0:0:
26,133,65979,2,0,P|42:113|62:94,3,52.7999998388672,10|8|8|8,2:2|2:3|2:2|2:3,0:0:0:0:
114,104,66399,6,0,P|105:52|96:0,1,105.599999677734,6|4,2:2|2:3,0:0:0:0:
226,27,66818,2,0,P|269:89|256:165,1,105.599999677734,10|4,2:2|2:3,0:0:0:0:
307,209,67238,2,0,L|325:270,2,52.7999998388672,2|8|6,2:0|2:2|2:3,0:0:0:0:
230,272,67657,1,10,2:2:0:0:
142,208,67867,6,0,P|100:125|198:117,1,211.199999355469,6|6,2:3|2:3,0:0:0:0:
292,96,68497,2,0,P|343:103|383:70,1,105.599999677734,10|6,2:2|2:3,0:0:0:0:
441,180,68916,1,10,2:3:0:0:
441,180,69021,1,8,2:2:0:0:
441,180,69126,1,6,2:3:0:0:
378,255,69336,2,0,B|256:232,1,105.599999677734,10|4,2:2|2:3,0:0:0:0:
187,175,69755,5,10,2:3:0:0:
109,236,69965,1,6,2:3:0:0:
45,154,70175,1,10,2:2:0:0:
126,89,70385,1,6,2:3:0:0:
206,30,70595,2,0,L|259:32,2,52.7999998388672,10|8|6,2:3|2:2|2:3,0:0:0:0:
291,109,71014,1,10,2:2:0:0:
404,80,71224,6,0,P|394:176|488:202,1,211.199999355469,6|4,2:3|2:3,0:0:0:0:
382,279,71853,2,0,P|388:331|393:384,1,105.599999677734,8|4,2:2|2:3,0:0:0:0:
294,345,72273,2,0,P|267:346|241:342,2,52.7999998388672,10|8|6,2:3|2:2|2:3,0:0:0:0:
274,240,72692,2,0,P|236:204|184:205,1,105.599999677734,10|10,2:2|2:2,0:0:0:0:
150,232,73007,1,8,2:2:0:0:
150,232,73112,6,0,P|144:179|138:126,1,105.599999677734,6|4,2:2|2:3,0:0:0:0:
262,53,73532,2,0,L|251:188,1,105.599999677734,10|4,2:2|2:3,0:0:0:0:
357,163,73951,2,0,L|410:165,2,52.7999998388672,10|8|6,2:3|2:2|2:3,0:0:0:0:
300,253,74371,1,10,2:2:0:0:
200,238,74581,6,0,P|219:357|301:305,1,211.199999355469,6|6,2:3|2:3,0:0:0:0:
380,381,75210,2,0,P|394:329|383:278,1,105.599999677734,10|6,2:2|2:3,0:0:0:0:
426,189,75629,1,10,2:3:0:0:
426,189,75734,1,8,2:2:0:0:
426,189,75839,1,6,2:3:0:0:
349,115,76049,2,0,L|96:68,1,211.199999355469,10|8,2:2|2:3,0:0:0:0:
186,184,76678,5,6,2:3:0:0:
227,276,76887,1,10,2:2:0:0:
163,352,77097,1,6,2:3:0:0:
69,310,77308,2,0,L|74:258,2,52.7999998388672,10|8|6,2:3|2:2|2:3,0:0:0:0:
178,353,77727,1,10,2:2:0:0:
287,379,77937,6,0,P|351:301|328:202,1,211.199999355469,6|4,2:2|2:3,0:0:0:0:
230,135,78567,2,0,P|223:187|218:240,1,105.599999677734,8|4,2:2|2:3,0:0:0:0:
126,298,78986,2,0,L|132:350,2,52.7999998388672,10|8|4,2:3|2:2|2:3,0:0:0:0:
14,219,79406,2,0,B|50:193|50:193|109:205,1,105.599999677734,8|10,2:2|2:2,0:0:0:0:
137,191,79720,1,8,2:2:0:0:
137,191,79825,6,0,L|125:57,1,105.599999677734,6|10,2:2|2:2,0:0:0:0:
231,97,80245,2,0,L|341:19,1,105.599999677734,10|10,2:2|2:3,0:0:0:0:
430,81,80664,2,0,L|437:133,3,52.7999998388672,10|10|10|10,2:2|2:3|2:2|2:3,0:0:0:0:
405,160,81084,2,0,L|377:205,3,52.7999998388672,10|10|10|10,2:2|2:2|2:2|2:3,0:0:0:0:
344,228,81504,6,0,P|320:233|299:246,1,47.9999985351563,6|2,2:2|2:0,0:0:0:0:
202,146,81818,2,0,P|248:153|336:84,1,143.999995605469,2|6,2:0|2:3,0:0:0:0:
379,10,82343,2,0,L|474:24,3,95.9999970703126,10|6|10|6,2:3|2:3|2:3|2:3,0:0:0:0:
512,118,83182,6,0,P|507:141|501:165,1,47.9999985351563,10|2,2:3|2:0,0:0:0:0:
402,166,83497,2,0,P|395:236|440:290,1,143.999995605469,2|6,2:0|2:3,0:0:0:0:
509,384,84021,2,0,L|414:370,1,95.9999970703126,10|10,2:2|2:2,0:0:0:0:
368,354,84336,1,10,2:3:0:0:
368,354,84441,2,0,L|301:369,2,47.9999985351563,10|2|10,2:2|2:0|2:2,0:0:0:0:
286,279,84860,6,0,P|289:255|287:231,1,47.9999985351563,6|2,2:2|2:0,0:0:0:0:
185,246,85175,2,0,P|137:245|61:305,1,143.999995605469,2|6,2:0|2:3,0:0:0:0:
144,377,85699,2,0,L|240:383,3,95.9999970703126,10|6|10|10,2:3|2:3|2:2|2:2,0:0:0:0:
323,298,86539,5,8,2:2:0:0:
312,203,86748,2,0,L|201:150,1,95.9999970703126,6|2,2:2|2:0,0:0:0:0:
145,220,87168,2,0,L|199:299,1,95.9999970703126,6|2,2:2|2:0,0:0:0:0:
64,340,87588,2,0,L|56:244,1,95.9999970703126,6|8,2:2|2:2,0:0:0:0:
85,144,88007,1,10,2:3:0:0:
35,60,88217,6,0,P|128:127|344:118,1,326.400001992187,6|0,2:2|0:0,0:0:0:0:
