osu file format v14

[General]
AudioFilename: smileskill.mp3
AudioLeadIn: 0
PreviewTime: 52867
Countdown: 0
SampleSet: Soft
StackLeniency: 0.7
Mode: 2
LetterboxInBreaks: 0
WidescreenStoryboard: 1

[Editor]
DistanceSpacing: 1.1
BeatDivisor: 4
GridSize: 16
TimelineZoom: 1

[Metadata]
Title:Smile Skill = Suki Skill! (TV Size)
TitleUnicode:スマイルスキル=スキスキル!(TV Size)
Artist:Akaki Chikai
ArtistUnicode:赤き誓い
Creator:Greaper
Version:Salad
Source:私、能力は平均値でって言ったよね!
Tags:Watashi Nouryoku wa Heikinchi de tte Itta yo ne! Noukin 能均 Didn't I Say to Make My Abilities Average in the Next Life?! anime op opening Adele von Ascham Azumi Waki 和氣あず未 Sora Tokui 徳井青空 von Austien Fumiko Uchimura 内村史子 Masumi Tazawa 田澤茉純 マイル レーナ メーヴィス ポーリン Mile Reina Mavis Pauline Japanese
BeatmapID:2240569
BeatmapSetID:1070009

[Difficulty]
HPDrainRate:3
CircleSize:3
OverallDifficulty:7
ApproachRate:7
SliderMultiplier:1.59999990463257
SliderTickRate:1

[Events]
//Background and Video events
0,0,"bg.jpg",0,0
//Break Periods
//Storyboard Layer 0 (Background)
//Storyboard Layer 1 (Fail)
//Storyboard Layer 2 (Pass)
//Storyboard Layer 3 (Foreground)
//Storyboard Layer 4 (Overlay)
//Storyboard Sound Samples

[TimingPoints]
956,419.58041958042,4,2,11,50,1,0
1983,419.58041958042,4,2,11,50,1,0
2623,419.58041958042,4,2,11,50,1,0
9337,-100,4,2,11,40,0,0
22763,-100,4,2,11,45,0,0
32833,-100,4,2,11,50,0,0
39547,-100,4,2,11,55,0,0
42903,-100,4,2,11,50,0,0
46260,-100,4,2,11,55,0,0
49617,-100,4,2,11,60,0,0
51295,-100,4,2,11,65,0,0
52972,-100,4,2,11,65,0,1
59685,-100,4,2,11,65,0,1
66399,-100,4,2,11,65,0,1
73112,-100,4,2,11,65,0,1
81504,-100,4,2,11,60,0,0
88636,-100,4,2,11,55,0,0
88846,-100,4,2,11,50,0,0
89056,-100,4,2,11,40,0,0
89266,-100,4,2,11,20,0,0
89476,-100,4,2,11,10,0,0
89685,-100,4,2,11,5,0,0

[Colours]
Combo1 : 153,236,240
Combo2 : 247,181,249
Combo3 : 245,109,109
Combo4 : 247,224,155

[HitObjects]
262,292,955,6,0,L|264:195,1,79.9999952316285,4|4,0:0|0:0,0:0:0:0:
163,207,1375,2,0,L|157:121,1,79.9999952316285,8|8,0:0|0:0,0:0:0:0:
313,112,1983,2,0,L|499:125,1,159.999990463257,2|8,0:0|0:0,0:0:0:0:
261,269,2623,6,0,P|229:176|264:167,1,159.999990463257,4|8,0:0|0:3,0:0:0:0:
351,167,3252,1,4,0:3:0:0:
232,139,3462,2,0,L|223:50,1,79.9999952316285,8|4,0:3|0:3,0:0:0:0:
336,53,3881,2,0,L|426:48,1,79.9999952316285,8|4,0:3|0:3,0:0:0:0:
208,51,4301,6,0,L|69:48,2,119.999992847443,10|0|4,0:3|0:0|0:3,0:0:0:0:
328,134,5140,2,0,L|334:229,1,79.9999952316285,8|8,0:0|0:0,0:0:0:0:
217,218,5560,2,0,L|208:304,1,79.9999952316285,8|8,0:3|0:0,0:0:0:0:
419,250,5979,6,0,P|459:240|401:162,1,159.999990463257,4|8,0:0|0:3,0:0:0:0:
333,151,6609,1,4,0:3:0:0:
215,142,6818,2,0,L|110:137,1,79.9999952316285,8|4,0:3|0:3,0:0:0:0:
247,81,7238,2,0,L|339:78,1,79.9999952316285,0|4,0:3|0:3,0:0:0:0:
121,35,7657,5,4,0:0:0:0:
45,98,7867,2,0,L|42:178,1,79.9999952316285,8|8,0:3|0:0,0:0:0:0:
154,215,8287,2,0,L|320:230,2,159.999990463257,8|8|8,0:0|0:0|0:0,0:0:0:0:
356,288,9336,6,0,L|359:202,1,79.9999952316285,4|0,0:0|0:0,0:0:0:0:
240,189,9755,2,0,P|177:116|239:91,1,159.999990463257,8|8,0:0|0:3,0:0:0:0:
383,139,10595,2,0,L|385:52,1,79.9999952316285,8|4,0:0|0:3,0:0:0:0:
180,58,11014,5,8,0:3:0:0:
97,89,11224,2,0,L|92:172,1,79.9999952316285,0|8,0:0|0:0,0:0:0:0:
210,188,11643,2,0,L|369:205,1,159.999990463257,4|4,0:3|0:3,0:0:0:0:
372,261,12273,1,8,0:0:0:0:
36,250,12692,6,0,L|39:157,1,79.9999952316285,10|4,0:3|0:3,0:0:0:0:
143,170,13112,2,0,P|202:156|244:49,1,159.999990463257,8|8,0:0|0:3,0:0:0:0:
163,32,13741,2,0,L|65:28,1,79.9999952316285,4|8,0:3|0:0,0:0:0:0:
432,171,14371,6,0,P|476:253|423:294,1,159.999990463257,10|8,0:3|0:0,0:0:0:0:
358,290,15000,1,4,0:3:0:0:
237,282,15210,2,0,L|232:112,1,159.999990463257,8|8,0:3|0:0,0:0:0:0:
313,117,15839,1,4,0:3:0:0:
103,113,16049,6,0,L|14:118,1,79.9999952316285,10|4,0:3|0:3,0:0:0:0:
120,178,16469,2,0,P|174:188|178:285,1,159.999990463257,8|8,0:0|0:3,0:0:0:0:
30,284,17308,1,8,0:0:0:0:
366,286,17727,6,0,L|374:126,1,159.999990463257,10|8,0:3|0:0,0:0:0:0:
216,123,18567,1,8,0:3:0:0:
131,116,18776,1,4,0:3:0:0:
146,37,18986,1,8,0:0:0:0:
229,32,19196,1,4,0:3:0:0:
446,137,19406,6,0,P|486:172|406:233,1,159.999990463257,10|8,0:3|0:0,0:0:0:0:
239,250,20245,1,8,0:3:0:0:
159,240,20455,1,4,0:3:0:0:
151,164,20664,1,8,0:0:0:0:
232,133,20874,1,4,0:3:0:0:
451,107,21084,5,10,0:3:0:0:
376,105,21294,2,0,L|265:114,1,79.9999952316285,0|8,0:0|0:0,0:0:0:0:
416,167,21713,2,0,L|419:255,1,79.9999952316285,4|8,0:3|0:3,0:0:0:0:
322,228,22133,2,0,L|320:307,1,79.9999952316285,4|8,0:3|0:0,0:0:0:0:
402,311,22553,1,8,0:0:0:0:
187,305,22762,6,0,P|141:279|193:202,1,159.999990463257,4|8,0:0|0:0,0:0:0:0:
265,202,23392,1,4,0:3:0:0:
151,133,23602,2,0,L|62:130,2,79.9999952316285,8|4|8,0:3|0:3|0:0,0:0:0:0:
232,137,24231,1,4,0:3:0:0:
450,133,24441,6,0,P|444:82|335:34,1,159.999990463257,10|8,0:3|0:0,0:0:0:0:
271,37,25070,2,0,L|177:33,2,79.9999952316285,4|8|4,0:3|0:3|0:3,0:0:0:0:
384,132,25699,2,0,L|389:221,1,79.9999952316285,8|4,0:0|0:3,0:0:0:0:
169,180,26119,6,0,P|96:154|74:68,1,159.999990463257,10|8,0:3|0:0,0:0:0:0:
145,71,26748,1,4,0:3:0:0:
265,66,26958,2,0,L|346:63,2,79.9999952316285,8|4|8,0:3|0:3|0:0,0:0:0:0:
181,72,27588,1,4,0:3:0:0:
396,126,27797,6,0,P|439:144|375:216,1,159.999990463257,10|8,0:3|0:0,0:0:0:0:
317,230,28427,1,4,0:3:0:0:
213,231,28636,2,0,L|209:321,1,79.9999952316285,8|4,0:3|0:3,0:0:0:0:
291,306,29056,2,0,L|366:339,1,79.9999952316285,8|4,0:0|0:3,0:0:0:0:
146,301,29476,6,0,P|166:202|228:195,1,159.999990463257,4|8,0:0|0:0,0:0:0:0:
102,158,30210,1,8,0:0:0:0:
60,143,30315,2,0,L|56:48,1,79.9999952316285,0|4,0:3|0:3,0:0:0:0:
136,53,30734,1,8,0:0:0:0:
352,56,30944,6,0,P|451:65|493:127,1,159.999990463257,4|8,0:0|0:0,0:0:0:0:
484,144,31574,1,8,0:0:0:0:
364,153,31783,2,0,L|278:162,1,79.9999952316285,8|8,0:0|0:3,0:0:0:0:
406,201,32203,2,0,L|433:284,1,79.9999952316285,8|8,0:0|0:0,0:0:0:0:
351,291,32623,1,8,0:0:0:0:
137,172,32832,6,0,P|82:196|153:254,1,159.999990463257,4|8,0:0|0:3,0:0:0:0:
208,264,33462,1,4,0:3:0:0:
324,206,33671,2,0,L|327:114,1,79.9999952316285,8|4,0:3|0:3,0:0:0:0:
213,102,34091,2,0,L|122:99,1,79.9999952316285,8|4,0:3|0:3,0:0:0:0:
350,59,34511,6,0,L|476:51,2,119.999992847443,10|0|4,0:3|0:0|0:3,0:0:0:0:
229,113,35350,2,0,L|225:207,1,79.9999952316285,8|8,0:0|0:0,0:0:0:0:
339,188,35769,2,0,L|348:272,1,79.9999952316285,8|8,0:3|0:0,0:0:0:0:
129,114,36189,6,0,P|71:140|67:233,1,159.999990463257,4|8,0:0|0:3,0:0:0:0:
154,208,36818,1,4,0:3:0:0:
273,189,37028,2,0,L|277:99,1,79.9999952316285,8|4,0:3|0:3,0:0:0:0:
157,141,37448,2,0,L|154:50,1,79.9999952316285,8|4,0:3|0:3,0:0:0:0:
371,57,37867,5,4,0:0:0:0:
452,97,38077,2,0,L|442:197,1,79.9999952316285,8|8,0:3|0:0,0:0:0:0:
331,186,38497,2,0,L|162:194,2,159.999990463257,8|8|8,0:0|0:0|0:0,0:0:0:0:
113,255,39546,6,0,P|56:229|126:165,1,159.999990463257,4|8,0:0|0:3,0:0:0:0:
269,148,40385,2,0,L|365:143,2,79.9999952316285,8|4|8,0:3|0:3|0:3,0:0:0:0:
53,121,41014,5,4,0:0:0:0:
197,140,41434,2,0,P|240:158|173:226,1,159.999990463257,4|4,0:3|0:3,0:0:0:0:
110,244,42063,2,0,L|246:254,2,119.999992847443,8|8|8,0:0|0:0|0:0,0:0:0:0:
333,210,42902,6,0,P|370:187|311:108,1,159.999990463257,4|8,0:0|0:3,0:0:0:0:
239,105,43532,1,4,0:3:0:0:
359,239,43741,2,0,L|368:339,1,79.9999952316285,8|4,0:3|0:3,0:0:0:0:
253,255,44161,2,0,L|250:336,1,79.9999952316285,8|4,0:3|0:3,0:0:0:0:
366,318,44581,5,8,0:3:0:0:
280,276,44790,2,0,L|280:191,1,79.9999952316285,4|8,0:3|0:3,0:0:0:0:
367,157,45210,2,0,L|453:155,1,79.9999952316285,4|8,0:3|0:3,0:0:0:0:
326,46,45629,2,0,L|238:43,1,79.9999952316285,4|8,0:3|0:3,0:0:0:0:
343,24,46049,1,4,0:3:0:0:
128,41,46259,6,0,P|87:68|158:139,1,159.999990463257,4|8,0:0|0:3,0:0:0:0:
215,146,46888,1,4,0:3:0:0:
105,188,47098,2,0,L|15:193,2,79.9999952316285,0|4|8,0:3|0:3|0:3,0:0:0:0:
321,179,47727,6,0,P|365:186|412:301,1,159.999990463257,4|4,0:0|0:3,0:0:0:0:
329,283,48357,2,0,L|244:285,1,79.9999952316285,8|4,0:3|0:3,0:0:0:0:
450,183,48776,2,0,P|485:147|439:91,1,119.999992847443,8|8,0:0|0:0,0:0:0:0:
329,87,49406,1,8,0:0:0:0:
104,97,49616,6,0,P|65:127|209:119,1,479.999971389771,4|8,0:0|0:3,0:0:0:0:
125,99,51084,1,4,0:3:0:0:
334,112,51294,6,0,L|503:122,1,159.999990463257,8|8,0:0|0:0,0:0:0:0:
158,146,52133,2,0,P|118:181|236:278,1,239.999985694885,8|0,0:0|0:0,0:0:0:0:
428,284,52972,6,0,P|478:221|428:190,1,159.999990463257,4|8,0:0|0:0,0:0:0:0:
348,191,53602,1,4,0:3:0:0:
220,185,53811,2,0,L|212:88,1,79.9999952316285,8|4,0:3|0:3,0:0:0:0:
293,88,54231,1,8,0:0:0:0:
76,93,54441,6,0,L|69:197,1,79.9999952316285,4|8,0:3|0:3,0:0:0:0:
192,209,54860,2,0,L|297:212,2,79.9999952316285,4|8|4,0:3|0:0|0:3,0:0:0:0:
402,257,55490,2,0,L|411:347,1,79.9999952316285,0|4,0:3|0:3,0:0:0:0:
306,334,55909,2,0,L|209:338,1,79.9999952316285,8|4,0:0|0:3,0:0:0:0:
445,221,56329,6,0,L|447:135,1,79.9999952316285,10|4,0:3|0:3,0:0:0:0:
342,138,56748,2,0,L|232:134,1,79.9999952316285,8|4,0:0|0:3,0:0:0:0:
385,78,57168,2,0,L|485:72,2,79.9999952316285,8|4|8,0:3|0:3|0:0,0:0:0:0:
168,88,57797,6,0,P|112:111|187:221,1,239.999985694885,4|10,0:3|0:0,0:0:0:0:
271,212,58636,1,4,0:3:0:0:
152,262,58846,2,0,L|147:358,1,79.9999952316285,8|4,0:3|0:3,0:0:0:0:
266,328,59266,2,0,L|352:331,1,79.9999952316285,8|8,0:0|0:0,0:0:0:0:
129,228,59685,6,0,P|87:220|138:149,1,159.999990463257,4|8,0:0|0:3,0:0:0:0:
204,141,60315,1,4,0:3:0:0:
326,129,60525,2,0,L|328:40,1,79.9999952316285,0|4,0:3|0:3,0:0:0:0:
223,47,60944,1,8,0:0:0:0:
441,46,61154,6,0,P|482:68|416:142,1,159.999990463257,4|4,0:3|0:3,0:0:0:0:
326,162,61783,2,0,L|222:167,1,79.9999952316285,8|4,0:0|0:3,0:0:0:0:
368,215,62203,2,0,L|467:222,2,79.9999952316285,8|4|8,0:3|0:3|0:0,0:0:0:0:
287,210,62832,1,4,0:3:0:0:
361,271,63042,1,8,0:3:0:0:
141,168,63252,6,0,L|49:170,2,79.9999952316285,4|8|4,0:3|0:0|0:3,0:0:0:0:
262,121,63881,2,0,L|264:19,1,79.9999952316285,0|4,0:3|0:3,0:0:0:0:
158,36,64301,1,8,0:0:0:0:
378,43,64511,6,0,P|437:81|401:152,1,159.999990463257,4|4,0:0|0:3,0:0:0:0:
285,138,65140,2,0,L|283:237,1,79.9999952316285,4|4,0:0|0:3,0:0:0:0:
413,182,65560,1,8,0:0:0:0:
490,200,65769,1,8,0:0:0:0:
483,285,65979,1,8,0:0:0:0:
406,292,66189,1,8,0:0:0:0:
189,295,66399,6,0,P|151:202|197:162,1,159.999990463257,4|8,0:0|0:0,0:0:0:0:
261,155,67028,1,4,0:3:0:0:
139,119,67238,2,0,L|50:114,2,79.9999952316285,0|4|8,0:3|0:3|0:0,0:0:0:0:
360,108,67867,6,0,P|415:163|391:238,1,159.999990463257,4|4,0:3|0:3,0:0:0:0:
273,209,68497,2,0,L|266:304,1,79.9999952316285,8|4,0:0|0:3,0:0:0:0:
388,293,68916,2,0,L|475:296,2,79.9999952316285,8|4|8,0:3|0:3|0:0,0:0:0:0:
293,284,69546,1,4,0:3:0:0:
69,266,69755,6,0,L|67:163,1,79.9999952316285,10|4,0:3|0:3,0:0:0:0:
190,166,70175,2,0,L|294:161,1,79.9999952316285,8|4,0:0|0:3,0:0:0:0:
172,105,70595,2,0,L|87:100,2,79.9999952316285,8|4|8,0:3|0:3|0:0,0:0:0:0:
396,74,71224,6,0,P|448:95|361:201,1,239.999985694885,4|8,0:3|0:0,0:0:0:0:
299,205,72063,1,4,0:3:0:0:
178,200,72273,2,0,L|172:119,1,79.9999952316285,8|4,0:3|0:3,0:0:0:0:
245,88,72692,2,0,L|160:77,1,79.9999952316285,8|8,0:0|0:0,0:0:0:0:
386,64,73112,6,0,P|381:153|308:187,1,159.999990463257,4|8,0:0|0:0,0:0:0:0:
245,191,73741,1,4,0:3:0:0:
365,232,73951,2,0,L|463:236,2,79.9999952316285,8|4|8,0:3|0:3|0:0,0:0:0:0:
146,234,74581,6,0,L|143:52,1,159.999990463257,4|4,0:3|0:3,0:0:0:0:
242,69,75210,2,0,L|334:66,1,79.9999952316285,8|4,0:0|0:3,0:0:0:0:
198,27,75629,2,0,L|106:25,2,79.9999952316285,8|4|8,0:3|0:3|0:0,0:0:0:0:
281,27,76259,1,4,0:3:0:0:
364,26,76469,1,8,0:3:0:0:
144,116,76678,6,0,L|51:114,2,79.9999952316285,4|8|4,0:3|0:0|0:3,0:0:0:0:
52,184,77308,2,0,L|56:274,1,79.9999952316285,8|4,0:3|0:3,0:0:0:0:
162,271,77727,1,8,0:0:0:0:
383,266,77937,6,0,P|425:249|348:130,1,239.999985694885,4|8,0:0|0:0,0:0:0:0:
275,139,78776,1,4,0:3:0:0:
179,153,78986,2,0,L|174:249,1,79.9999952316285,8|4,0:3|0:3,0:0:0:0:
255,241,79406,1,8,0:0:0:0:
377,243,79616,1,8,0:0:0:0:
153,297,79825,6,0,P|41:225|222:32,1,479.999971389771,4|8,0:0|0:0,0:0:0:0:
124,79,81294,1,8,0:0:0:0:
343,116,81504,6,0,P|400:139|335:193,1,159.999990463257,4|8,0:0|0:3,0:0:0:0:
275,209,82133,1,4,0:3:0:0:
153,217,82343,2,0,L|148:323,1,79.9999952316285,8|4,0:3|0:3,0:0:0:0:
254,303,82762,2,0,L|351:308,1,79.9999952316285,8|4,0:3|0:3,0:0:0:0:
115,232,83182,6,0,P|35:191|26:148,2,119.999992847443,8|0|4,0:3|0:0|0:3,0:0:0:0:
239,204,84021,2,0,L|242:108,1,79.9999952316285,8|8,0:0|0:0,0:0:0:0:
127,127,84441,2,0,L|121:27,1,79.9999952316285,8|8,0:0|0:0,0:0:0:0:
342,46,84860,6,0,P|402:53|443:142,1,159.999990463257,4|8,0:0|0:3,0:0:0:0:
354,133,85490,1,4,0:3:0:0:
474,190,85699,2,0,L|482:280,1,79.9999952316285,8|4,0:3|0:3,0:0:0:0:
369,273,86119,2,0,L|273:278,2,79.9999952316285,8|8|8,0:0|0:0|0:0,0:0:0:0:
153,223,86748,6,0,L|149:119,1,79.9999952316285,4|0,0:0|0:0,0:0:0:0:
279,131,87168,1,4,0:0:0:0:
133,91,87588,1,4,0:0:0:0:
343,65,88007,1,8,0:3:0:0:
125,44,88217,5,4,0:0:0:0:
256,192,88636,12,0,89685,0:0:0:0:
