osu file format v14

[General]
AudioFilename: smileskill.mp3
AudioLeadIn: 0
PreviewTime: 52867
Countdown: 0
SampleSet: Soft
StackLeniency: 0.7
Mode: 2
LetterboxInBreaks: 0
WidescreenStoryboard: 0

[Editor]
DistanceSpacing: 1.1
BeatDivisor: 12
GridSize: 16
TimelineZoom: 3.199998

[Metadata]
Title:Smile Skill = Suki Skill! (TV Size)
TitleUnicode:スマイルスキル=スキスキル!(TV Size)
Artist:Akaki Chikai
ArtistUnicode:赤き誓い
Creator:Greaper
Version:Overdose
Source:私、能力は平均値でって言ったよね!
Tags:Watashi Nouryoku wa Heikinchi de tte Itta yo ne! Noukin 能均 Didn't I Say to Make My Abilities Average in the Next Life?! anime op opening Adele von Ascham Azumi Waki 和氣あず未 Sora Tokui 徳井青空 von Austien Fumiko Uchimura 内村史子 Masumi Tazawa 田澤茉純 マイル レーナ メーヴィス ポーリン Mile Reina Mavis Pauline Japanese
BeatmapID:2239770
BeatmapSetID:1070009

[Difficulty]
HPDrainRate:6
CircleSize:4.1
OverallDifficulty:9.2
ApproachRate:9.2
SliderMultiplier:2.19999990463257
SliderTickRate:2

[Events]
//Background and Video events
0,0,"bg.jpg",0,0
//Break Periods
//Storyboard Layer 0 (Background)
//Storyboard Layer 1 (Fail)
//Storyboard Layer 2 (Pass)
//Storyboard Layer 3 (Foreground)
//Storyboard Layer 4 (Overlay)
//Storyboard Sound Samples

[TimingPoints]
956,419.58041958042,4,2,11,50,1,0
1983,419.58041958042,4,2,11,50,1,0
2623,419.58041958042,4,2,11,50,1,0
9337,-100,4,2,11,40,0,0
22763,-100,4,2,11,45,0,0
32833,-100,4,2,11,50,0,0
39547,-100,4,2,11,55,0,0
40595,-100,4,2,11,30,0,0
40804,-100,4,2,11,55,0,0
42903,-100,4,2,11,50,0,0
46260,-100,4,2,11,55,0,0
47308,-100,4,2,11,30,0,0
47518,-100,4,2,11,55,0,0
49617,-100,4,2,11,60,0,0
51295,-100,4,2,11,65,0,0
51609,-100,4,2,11,5,0,0
51713,-100,4,2,11,65,0,0
52028,-100,4,2,11,5,0,0
52133,-100,4,2,11,65,0,0
52762,-100,4,2,11,5,0,0
52972,-83.3333333333333,4,2,11,65,0,1
59685,-83.3333333333333,4,2,11,65,0,1
66399,-83.3333333333333,4,2,11,65,0,1
73112,-83.3333333333333,4,2,11,65,0,1
81504,-100,4,2,11,60,0,0
88636,-100,4,2,11,55,0,0
88846,-100,4,2,11,50,0,0
89056,-100,4,2,11,40,0,0
89266,-100,4,2,11,20,0,0
89476,-100,4,2,11,10,0,0
89685,-100,4,2,11,5,0,0

[Colours]
Combo1 : 153,236,240
Combo2 : 247,181,249
Combo3 : 245,109,109
Combo4 : 247,224,155

[HitObjects]
436,222,781,6,0,L|440:172,1,36.6666650772095,8|8,0:0|0:0,0:0:0:0:
256,180,955,1,4,0:0:0:0:
364,130,1165,2,0,L|434:125,1,54.9999976158142,8|8,0:0|0:0,0:0:0:0:
313,89,1375,1,8,0:0:0:0:
201,77,1585,1,8,0:0:0:0:
334,54,1795,1,8,0:0:0:0:
373,49,1865,1,8,0:0:0:0:
184,175,1983,2,0,L|52:170,1,109.999995231628,2|4,0:0|0:0,0:0:0:0:
274,254,2402,2,0,L|345:252,1,54.9999976158142,8|8,0:0|0:0,0:0:0:0:
113,253,2623,5,4,0:0:0:0:
56,220,2727,2,0,L|49:96,1,109.999995231628
107,98,3042,1,8,0:3:0:0:
396,92,3252,1,4,0:3:0:0:
98,185,3462,2,0,L|92:311,1,109.999995231628,8|4,0:3|0:3,0:0:0:0:
379,230,3881,2,0,L|510:234,1,109.999995231628,8|4,0:3|0:3,0:0:0:0:
154,313,4301,6,0,L|151:247,1,54.9999976158142,10|0,0:3|0:0,0:0:0:0:
342,224,4616,2,0,L|274:224,1,54.9999976158142,0|8,0:0|0:3,0:0:0:0:
105,210,4930,1,4,0:3:0:0:
386,141,5140,2,0,L|246:134,1,109.999995231628,8|8,0:0|0:0,0:0:0:0:
219,124,5455,1,8,0:0:0:0:
384,126,5560,2,0,L|452:124,1,54.9999976158142,8|8,0:3|0:3,0:0:0:0:
244,277,5769,2,0,L|189:278,1,54.9999976158142,8|8,0:0|0:0,0:0:0:0:
413,284,5979,6,0,L|421:347,1,54.9999976158142,4|0,0:0|0:0,0:0:0:0:
231,189,6294,2,0,L|161:185,2,54.9999976158142,0|8|0,0:0|0:3|0:0,0:0:0:0:
411,150,6609,1,4,0:3:0:0:
135,88,6818,2,0,L|8:83,1,109.999995231628,8|4,0:3|0:3,0:0:0:0:
316,80,7238,2,0,L|447:75,1,109.999995231628,0|4,0:3|0:3,0:0:0:0:
96,182,7657,5,4,0:0:0:0:
284,204,7867,2,0,L|300:259,1,54.9999976158142,8|0,0:3|0:0,0:0:0:0:
188,245,8077,2,0,L|169:313,1,54.9999976158142,8|8,0:0|0:0,0:0:0:0:
341,295,8287,1,8,0:0:0:0:
398,273,8392,1,8,0:3:0:0:
392,217,8497,1,8,0:3:0:0:
337,198,8602,1,8,0:3:0:0:
143,146,8706,1,8,0:0:0:0:
104,107,8811,1,8,0:3:0:0:
142,75,8916,1,8,0:3:0:0:
201,62,9021,1,8,0:3:0:0:
368,42,9126,2,0,L|431:38,1,54.9999976158142,8|8,0:0|0:3,0:0:0:0:
198,216,9336,5,4,0:0:0:0:
373,237,9546,1,0,0:0:0:0:
96,304,9755,2,0,L|88:167,1,109.999995231628,8|4,0:0|0:3,0:0:0:0:
257,132,10070,2,0,L|316:128,2,54.9999976158142,8|8|8,0:0|0:3|0:0,0:0:0:0:
145,132,10385,2,0,L|138:66,1,54.9999976158142,4|0,0:3|0:0,0:0:0:0:
307,50,10595,2,0,L|424:46,1,109.999995231628,8|4,0:0|0:3,0:0:0:0:
428,90,10909,1,8,0:0:0:0:
207,192,11014,5,8,0:3:0:0:
395,237,11224,2,0,L|253:246,1,109.999995231628,0|8,0:0|0:0,0:0:0:0:
472,279,11643,2,0,L|477:341,1,54.9999976158142,4|8,0:3|0:0,0:0:0:0:
306,332,11853,2,0,L|243:336,1,54.9999976158142,8|8,0:3|0:0,0:0:0:0:
418,200,12063,2,0,L|426:77,1,109.999995231628,4|8,0:3|0:0,0:0:0:0:
233,98,12483,2,0,L|151:93,1,54.9999976158142,4|8,0:3|0:0,0:0:0:0:
373,58,12692,6,0,L|491:53,1,109.999995231628,10|4,0:3|0:3,0:0:0:0:
197,182,13112,2,0,L|47:191,1,109.999995231628,8|4,0:0|0:3,0:0:0:0:
76,247,13427,1,8,0:0:0:0:
242,250,13532,2,0,L|305:252,2,54.9999976158142,8|8|4,0:3|0:0|0:3,0:0:0:0:
77,192,13951,2,8,L|73:80,1,109.999995231628,8|4,0:0|0:3,0:0:0:0:
125,81,14266,1,8,0:0:0:0:
318,83,14371,6,0,L|440:80,1,109.999995231628,10|4,0:3|0:3,0:0:0:0:
374,32,14685,1,0,0:0:0:0:
208,31,14790,1,8,0:0:0:0:
385,132,15000,2,0,L|393:197,1,54.9999976158142,4|8,0:3|0:0,0:0:0:0:
196,192,15210,2,0,L|123:197,2,54.9999976158142,8|8|4,0:3|0:0|0:3,0:0:0:0:
369,235,15629,2,0,L|488:239,1,109.999995231628,8|4,0:0|0:3,0:0:0:0:
487,295,15944,1,8,0:0:0:0:
292,306,16049,6,0,L|149:297,1,109.999995231628,10|4,0:3|0:3,0:0:0:0:
460,197,16469,2,0,L|324:186,1,109.999995231628,8|4,0:0|0:3,0:0:0:0:
292,135,16783,1,8,0:0:0:0:
298,71,16888,1,8,0:3:0:0:
353,54,16993,1,8,0:0:0:0:
158,54,17098,2,0,L|38:50,1,109.999995231628,4|8,0:3|0:0,0:0:0:0:
229,196,17518,2,0,L|312:196,1,54.9999976158142,4|8,0:3|0:0,0:0:0:0:
115,194,17727,6,0,P|56:227|140:308,1,219.999990463257,10|8,0:3|0:0,0:0:0:0:
314,297,18357,2,0,L|321:227,1,54.9999976158142,4|8,0:3|0:0,0:0:0:0:
151,169,18567,1,8,0:3:0:0:
96,168,18671,1,0,0:0:0:0:
41,166,18776,1,4,0:3:0:0:
235,124,18986,2,0,L|361:122,1,109.999995231628,8|4,0:0|0:3,0:0:0:0:
396,119,19301,1,8,0:0:0:0:
202,69,19406,6,0,P|146:100|226:196,1,219.999990463257,10|8,0:3|0:0,0:0:0:0:
403,193,20035,2,0,L|470:192,1,54.9999976158142,4|8,0:3|0:0,0:0:0:0:
262,222,20245,2,0,L|258:282,1,54.9999976158142,8|8,0:3|0:0,0:0:0:0:
370,269,20455,2,0,L|483:274,1,109.999995231628,4|8,0:3|0:0,0:0:0:0:
204,304,20874,2,0,L|148:308,1,54.9999976158142,4|0,0:3|0:0,0:0:0:0:
344,324,21084,5,10,0:3:0:0:
178,219,21294,2,0,L|316:213,2,109.999995231628,0|8|4,0:0|0:0|0:3,0:0:0:0:
120,216,21818,1,8,0:0:0:0:
108,153,21923,1,8,0:3:0:0:
163,114,22028,1,8,0:0:0:0:
356,88,22133,2,0,L|420:78,1,54.9999976158142,4|8,0:3|0:0,0:0:0:0:
243,57,22343,2,0,L|131:52,1,109.999995231628,8|8,0:0|0:0,0:0:0:0:
81,50,22657,1,8,0:0:0:0:
303,155,22762,6,0,P|367:171|285:242,1,219.999990463257,4|8,0:0|0:0,0:0:0:0:
121,237,23392,1,4,0:3:0:0:
397,288,23602,2,0,L|456:294,1,54.9999976158142,8|8,0:3|0:0,0:0:0:0:
286,280,23811,2,0,L|139:286,1,109.999995231628,4|8,0:3|0:0,0:0:0:0:
459,220,24231,2,0,L|461:150,1,54.9999976158142,4|8,0:3|0:0,0:0:0:0:
262,136,24441,6,0,L|121:129,2,109.999995231628,10|4|8,0:3|0:3|0:0,0:0:0:0:
447,103,25070,2,0,L|449:48,1,54.9999976158142,4|8,0:3|0:0,0:0:0:0:
337,50,25280,2,0,L|276:49,2,54.9999976158142,8|8|4,0:3|0:0|0:3,0:0:0:0:
61,65,25699,2,0,L|187:71,1,109.999995231628,8|4,0:0|0:3,0:0:0:0:
227,73,26014,1,8,0:0:0:0:
37,129,26119,6,0,P|37:197|176:264,1,219.999990463257,10|8,0:3|0:0,0:0:0:0:
333,269,26748,2,0,L|338:208,1,54.9999976158142,4|8,0:3|0:0,0:0:0:0:
167,178,26958,2,0,L|105:174,1,54.9999976158142,8|8,0:3|0:0,0:0:0:0:
213,130,27168,2,0,L|215:65,1,54.9999976158142,4|0,0:3|0:0,0:0:0:0:
32,145,27378,2,0,L|28:35,1,109.999995231628,8|4,0:0|0:3,0:0:0:0:
83,38,27692,1,8,0:0:0:0:
277,43,27797,6,0,L|414:38,2,109.999995231628,10|4|8,0:3|0:3|0:0,0:0:0:0:
99,101,28427,2,0,L|97:168,1,54.9999976158142,4|8,0:3|0:0,0:0:0:0:
294,164,28636,2,0,L|350:166,1,54.9999976158142,8|8,0:3|0:0,0:0:0:0:
248,220,28846,2,0,L|243:277,1,54.9999976158142,4|8,0:3|0:0,0:0:0:0:
349,277,29056,1,8,0:0:0:0:
74,289,29266,2,0,L|9:295,1,54.9999976158142,4|8,0:3|0:0,0:0:0:0:
242,180,29476,6,0,P|301:162|246:87,1,164.999992847443,4|0,0:0|0:0,0:0:0:0:
100,83,29895,2,0,L|89:196,1,109.999995231628,8|4,0:0|0:3,0:0:0:0:
148,198,30210,1,8,0:0:0:0:
314,227,30315,2,0,L|371:229,1,54.9999976158142,0|8,0:3|0:0,0:0:0:0:
202,278,30525,2,0,L|66:279,1,109.999995231628,4|8,0:3|0:0,0:0:0:0:
411,287,30944,6,0,P|472:266|391:177,1,219.999990463257,4|8,0:0|0:0,0:0:0:0:
352,172,31469,1,8,0:3:0:0:
183,144,31574,2,0,L|97:137,1,54.9999976158142,8|8,0:0|0:3,0:0:0:0:
324,91,31783,1,8,0:0:0:0:
376,75,31888,1,8,0:3:0:0:
381,21,31993,1,8,0:3:0:0:
328,10,32098,1,8,0:3:0:0:
133,37,32203,2,0,L|128:96,1,54.9999976158142,8|8,0:0|0:3,0:0:0:0:
241,108,32413,2,0,L|250:171,1,54.9999976158142,8|8,0:0|0:3,0:0:0:0:
79,172,32623,2,0,L|22:178,1,54.9999976158142,8|8,0:0|0:3,0:0:0:0:
245,221,32832,6,0,L|250:287,1,54.9999976158142,4|0,0:0|0:0,0:0:0:0:
71,254,33147,2,0,L|64:312,1,54.9999976158142,0|8,0:0|0:3,0:0:0:0:
341,306,33462,1,4,0:3:0:0:
74,174,33671,2,0,P|38:138|75:103,1,109.999995231628,8|4,0:3|0:3,0:0:0:0:
348,79,34091,2,0,L|469:71,1,109.999995231628,8|4,0:3|0:3,0:0:0:0:
190,81,34511,6,0,L|107:77,2,54.9999976158142,10|0|4,0:3|0:0|0:3,0:0:0:0:
301,127,34825,2,0,L|306:188,1,54.9999976158142,0|8,0:0|0:3,0:0:0:0:
90,195,35140,2,0,L|26:200,1,54.9999976158142,4|0,0:3|0:0,0:0:0:0:
238,242,35350,2,0,L|246:314,1,54.9999976158142,8|0,0:0|0:0,0:0:0:0:
172,187,35560,2,0,L|110:178,1,54.9999976158142,8|8,0:0|0:0,0:0:0:0:
314,142,35769,2,0,L|377:137,1,54.9999976158142,8|8,0:3|0:3,0:0:0:0:
146,121,35979,2,0,L|78:117,1,54.9999976158142,8|0,0:0|0:0,0:0:0:0:
341,78,36189,6,0,L|344:19,1,54.9999976158142,4|0,0:0|0:0,0:0:0:0:
154,42,36504,2,0,L|81:40,2,54.9999976158142,0|8|0,0:0|0:3|0:0,0:0:0:0:
347,37,36818,1,4,0:3:0:0:
72,106,37028,2,0,L|64:222,1,109.999995231628,8|4,0:3|0:3,0:0:0:0:
341,200,37448,2,0,L|457:203,1,109.999995231628,8|4,0:3|0:3,0:0:0:0:
118,259,37867,5,4,0:0:0:0:
302,140,38077,2,0,L|306:80,1,54.9999976158142,8|8,0:3|0:3,0:0:0:0:
191,80,38287,2,0,L|121:77,1,54.9999976158142,8|8,0:0|0:0,0:0:0:0:
305,182,38497,1,8,0:0:0:0:
360,212,38602,1,8,0:3:0:0:
366,267,38706,1,8,0:3:0:0:
311,283,38811,1,8,0:3:0:0:
90,291,38916,2,0,L|32:295,1,54.9999976158142,8|8,0:0|0:3,0:0:0:0:
230,332,39126,2,0,L|300:336,1,54.9999976158142,8|8,0:0|0:3,0:0:0:0:
35,346,39336,2,0,L|129:351,1,54.9999976158142,8|8,0:0|0:3,0:0:0:0:
344,230,39546,6,0,L|356:100,1,109.999995231628,4|4,0:0|0:3,0:0:0:0:
241,95,39860,2,0,L|238:29,1,54.9999976158142,0|8,0:0|0:3,0:0:0:0:
350,38,40070,2,0,L|411:34,2,54.9999976158142,0|4|0,0:0|0:3|0:0,0:0:0:0:
179,44,40385,2,0,L|33:40,1,109.999995231628,8|4,0:3|0:3,0:0:0:0:
59,61,40647,1,8,0:0:0:0:
66,88,40699,1,8,0:0:0:0:
177,112,40804,1,8,0:3:0:0:
456,123,41014,6,0,L|328:126,1,109.999995231628,4|8,0:0|0:3,0:0:0:0:
156,178,41434,1,4,0:3:0:0:
267,219,41539,2,0,L|278:287,1,54.9999976158142,0|8,0:0|0:3,0:0:0:0:
163,288,41748,2,0,L|104:290,2,54.9999976158142,0|4|0,0:0|0:3|0:0,0:0:0:0:
359,279,42063,2,0,L|475:274,1,109.999995231628,8|0,0:0|0:0,0:0:0:0:
300,157,42378,2,0,L|497:151,1,164.999992847443,8|8,0:0|0:0,0:0:0:0:
155,196,42902,6,0,L|154:71,1,109.999995231628,4|4,0:0|0:3,0:0:0:0:
266,83,43217,2,0,L|351:78,1,54.9999976158142,0|8,0:0|0:3,0:0:0:0:
42,35,43532,1,4,0:3:0:0:
345,54,43741,2,0,L|472:52,1,109.999995231628,8|4,0:3|0:3,0:0:0:0:
175,130,44161,2,0,L|43:133,2,109.999995231628,8|4|8,0:3|0:3|0:3,0:0:0:0:
449,145,44790,6,0,L|459:257,1,109.999995231628,4|8,0:3|0:3,0:0:0:0:
181,260,45210,2,0,L|330:268,1,109.999995231628,4|8,0:3|0:3,0:0:0:0:
116,314,45629,2,0,L|51:318,1,54.9999976158142,4|8,0:3|0:0,0:0:0:0:
229,208,45839,2,0,L|365:219,1,109.999995231628,8|4,0:3|0:3,0:0:0:0:
54,201,46259,6,0,L|48:74,1,109.999995231628,4|4,0:0|0:3,0:0:0:0:
163,83,46574,2,0,L|239:78,1,54.9999976158142,0|8,0:0|0:3,0:0:0:0:
108,31,46783,2,0,L|47:29,2,54.9999976158142,0|4|0,0:0|0:3|0:0,0:0:0:0:
277,34,47098,2,0,L|284:163,1,109.999995231628,0|4,0:3|0:3,0:0:0:0:
275,185,47360,1,8,0:0:0:0:
250,210,47413,1,8,0:0:0:0:
137,220,47518,1,8,0:3:0:0:
416,244,47727,6,0,L|423:122,1,109.999995231628,4|8,0:0|0:3,0:0:0:0:
233,106,48147,2,0,L|167:108,2,54.9999976158142,4|0|8,0:3|0:0|0:3,0:0:0:0:
344,78,48462,2,0,L|404:76,2,54.9999976158142,0|4|0,0:0|0:3|0:0,0:0:0:0:
150,179,48776,2,0,L|350:170,2,164.999992847443,8|8|8,0:0|0:0|0:0,0:0:0:0:
429,184,49616,6,0,L|438:315,1,109.999995231628,4|4,0:0|0:3,0:0:0:0:
247,274,50035,1,8,0:3:0:0:
191,277,50140,1,0,0:0:0:0:
138,280,50245,1,4,0:3:0:0:
326,124,50455,1,8,0:3:0:0:
382,127,50560,1,0,0:0:0:0:
436,130,50665,1,4,0:3:0:0:
246,75,50874,1,8,0:3:0:0:
190,78,50979,1,0,0:0:0:0:
383,68,51084,2,0,L|449:72,1,54.9999976158142,4|0,0:3|0:0,0:0:0:0:
160,154,51294,6,0,P|94:174|135:242,1,164.999992847443,8|0,0:0|0:0,0:0:0:0:
376,248,51713,2,0,L|199:259,1,164.999992847443,8|0,0:0|0:0,0:0:0:0:
462,282,52133,1,8,0:0:0:0:
256,192,52343,12,0,52762,0:0:0:0:
300,120,52972,6,0,L|461:114,1,131.999990249634,4|4,0:0|0:3,0:0:0:0:
75,167,53392,2,0,L|67:303,1,131.999990249634,8|4,0:0|0:3,0:0:0:0:
133,296,53706,1,8,0:3:0:0:
306,290,53811,2,0,L|389:296,1,65.9999951248171,8|8,0:3|0:0,0:0:0:0:
198,171,54021,2,0,L|52:177,1,131.999990249634,4|8,0:3|0:0,0:0:0:0:
433,114,54441,2,0,L|500:117,2,65.9999951248171,4|0|8,0:3|0:0|0:3,0:0:0:0:
101,85,54860,6,0,L|251:81,2,131.999990249634,4|8|4,0:3|0:0|0:3,0:0:0:0:
32,88,55385,1,8,0:0:0:0:
232,152,55490,2,0,L|305:154,1,65.9999951248171,0|8,0:3|0:0,0:0:0:0:
100,207,55699,2,0,L|244:210,2,131.999990249634,4|8|4,0:3|0:0|0:3,0:0:0:0:
33,204,56224,1,8,0:0:0:0:
270,288,56329,6,0,L|415:295,1,131.999990249634,10|4,0:3|0:3,0:0:0:0:
186,221,56748,2,0,L|176:72,1,131.999990249634,8|4,0:0|0:3,0:0:0:0:
244,87,57063,1,8,0:0:0:0:
416,83,57168,2,0,L|346:78,1,65.9999951248171,8|8,0:3|0:0,0:0:0:0:
176,52,57378,2,0,L|17:42,1,131.999990249634,4|8,0:3|0:0,0:0:0:0:
402,152,57797,6,0,L|481:156,1,65.9999951248171,4|0,0:3|0:0,0:0:0:0:
278,213,58007,2,0,L|141:219,1,131.999990249634,10|4,0:3|0:3,0:0:0:0:
364,221,58427,2,0,L|401:355,1,131.999990249634,10|4,0:0|0:3,0:0:0:0:
338,351,58741,1,8,0:0:0:0:
106,183,58846,2,0,L|33:183,1,65.9999951248171,8|8,0:3|0:0,0:0:0:0:
244,120,59056,2,0,L|321:116,1,65.9999951248171,4|8,0:3|0:0,0:0:0:0:
74,86,59266,2,0,L|217:78,1,131.999990249634,8|8,0:0|0:0,0:0:0:0:
273,75,59581,1,8,0:0:0:0:
491,125,59685,6,0,P|493:187|464:251,1,131.999990249634,4|4,0:0|0:3,0:0:0:0:
243,267,60105,2,0,L|94:284,1,131.999990249634,8|4,0:3|0:3,0:0:0:0:
49,288,60420,1,8,0:0:0:0:
253,203,60525,2,0,L|336:209,1,65.9999951248171,0|8,0:3|0:0,0:0:0:0:
132,153,60734,2,0,P|106:76|144:62,1,131.999990249634,4|8,0:3|0:0,0:0:0:0:
465,63,61154,6,0,L|510:129,2,65.9999951248171,4|0|8,0:3|0:0|0:3,0:0:0:0:
159,112,61574,2,0,L|18:103,2,131.999990249634,4|8|4,0:3|0:0|0:3,0:0:0:0:
226,119,62098,1,8,0:0:0:0:
424,147,62203,2,0,L|427:237,1,65.9999951248171,8|8,0:3|0:0,0:0:0:0:
221,236,62413,2,0,L|146:236,1,65.9999951248171,4|0,0:3|0:0,0:0:0:0:
356,246,62623,2,0,L|200:251,1,131.999990249634,8|4,0:0|0:3,0:0:0:0:
156,276,62937,1,8,0:0:0:0:
354,292,63042,5,8,0:3:0:0:
24,185,63252,2,0,L|185:172,2,131.999990249634,4|8|4,0:3|0:0|0:3,0:0:0:0:
91,130,63776,1,8,0:0:0:0:
323,146,63881,2,0,L|325:75,1,65.9999951248171,0|8,0:3|0:0,0:0:0:0:
191,59,64091,2,0,L|121:57,1,65.9999951248171,4|0,0:3|0:0,0:0:0:0:
361,47,64301,2,0,L|435:43,1,65.9999951248171,8|0,0:0|0:0,0:0:0:0:
125,180,64511,6,0,P|59:214|153:328,1,263.999980499268,4|4,0:0|0:3,0:0:0:0:
214,316,65035,1,8,0:0:0:0:
414,232,65140,2,0,L|246:221,1,131.999990249634,4|4,0:0|0:3,0:0:0:0:
217,221,65455,1,8,0:0:0:0:
385,168,65560,2,0,L|389:98,1,65.9999951248171,8|8,0:0|0:3,0:0:0:0:
154,96,65769,2,0,L|84:93,1,65.9999951248171,8|8,0:0|0:3,0:0:0:0:
355,61,65979,2,0,L|439:56,1,65.9999951248171,8|8,0:0|0:3,0:0:0:0:
218,57,66189,2,0,L|140:51,1,65.9999951248171,8|8,0:0|0:3,0:0:0:0:
453,131,66399,6,0,L|459:275,1,131.999990249634,4|4,0:0|0:3,0:0:0:0:
220,240,66818,2,0,L|88:244,1,131.999990249634,8|4,0:0|0:3,0:0:0:0:
24,248,67133,1,8,0:0:0:0:
226,168,67238,2,0,L|308:168,1,65.9999951248171,0|8,0:3|0:0,0:0:0:0:
104,112,67448,2,0,P|27:63|24:15,1,131.999990249634,4|8,0:3|0:0,0:0:0:0:
355,53,67867,6,0,L|430:48,2,65.9999951248171,4|8|8,0:3|0:0|0:3,0:0:0:0:
162,58,68287,1,4,0:3:0:0:
475,137,68497,2,0,L|476:288,1,131.999990249634,8|4,0:0|0:3,0:0:0:0:
410,197,68811,1,8,0:0:0:0:
209,208,68916,2,0,L|130:210,1,65.9999951248171,8|8,0:3|0:0,0:0:0:0:
331,258,69126,2,0,L|406:263,1,65.9999951248171,4|0,0:3|0:0,0:0:0:0:
164,288,69336,2,0,L|316:294,1,131.999990249634,8|4,0:0|0:3,0:0:0:0:
365,299,69650,1,8,0:0:0:0:
101,213,69755,6,0,L|94:71,1,131.999990249634,10|4,0:3|0:3,0:0:0:0:
332,71,70175,2,0,L|476:66,1,131.999990249634,8|4,0:0|0:3,0:0:0:0:
398,117,70490,1,8,0:0:0:0:
212,138,70595,2,0,L|144:141,2,65.9999951248171,8|8|4,0:3|0:0|0:3,0:0:0:0:
428,172,71014,1,8,0:0:0:0:
107,204,71224,6,0,L|254:207,2,131.999990249634,4|10|4,0:3|0:3|0:3,0:0:0:0:
323,267,71853,2,0,L|328:107,1,131.999990249634,8|4,0:0|0:3,0:0:0:0:
258,131,72168,1,8,0:0:0:0:
56,115,72273,2,0,L|53:39,1,65.9999951248171,8|8,0:3|0:0,0:0:0:0:
243,80,72483,2,0,L|313:77,1,65.9999951248171,4|0,0:3|0:0,0:0:0:0:
108,31,72692,2,0,L|246:26,1,131.999990249634,8|8,0:0|0:0,0:0:0:0:
308,21,73007,1,8,0:0:0:0:
108,139,73112,6,0,L|102:284,1,131.999990249634,4|4,0:0|0:3,0:0:0:0:
344,251,73532,2,0,L|495:256,1,131.999990249634,8|4,0:0|0:3,0:0:0:0:
421,303,73846,1,8,0:0:0:0:
189,293,73951,2,0,L|122:295,1,65.9999951248171,8|8,0:3|0:0,0:0:0:0:
312,256,74161,2,0,L|153:252,1,131.999990249634,4|8,0:3|0:0,0:0:0:0:
487,224,74581,2,0,L|487:151,1,65.9999951248171,4|8,0:3|0:0,0:0:0:0:
254,122,74790,6,0,L|104:118,1,131.999990249634,8|4,0:3|0:3,0:0:0:0:
427,123,75210,2,0,P|473:86|472:7,1,131.999990249634,8|4,0:0|0:3,0:0:0:0:
407,41,75525,1,8,0:0:0:0:
223,40,75629,2,0,L|138:38,1,65.9999951248171,8|8,0:3|0:0,0:0:0:0:
345,108,75839,2,0,L|349:189,1,65.9999951248171,4|0,0:3|0:0,0:0:0:0:
149,188,76049,2,0,L|305:192,1,131.999990249634,8|4,0:0|0:3,0:0:0:0:
349,197,76364,1,8,0:0:0:0:
147,290,76469,5,8,0:3:0:0:
319,283,76678,1,4,0:3:0:0:
18,230,76888,2,0,L|17:89,1,131.999990249634,8|4,0:0|0:3,0:0:0:0:
360,80,77308,2,0,L|433:78,1,65.9999951248171,8|8,0:3|0:0,0:0:0:0:
226,67,77518,2,0,L|146:64,1,65.9999951248171,4|0,0:3|0:0,0:0:0:0:
392,30,77727,1,8,0:0:0:0:
71,22,77937,6,0,L|222:18,2,131.999990249634,4|8|4,0:0|0:3|0:3,0:0:0:0:
297,81,78567,2,0,L|450:93,1,131.999990249634,8|4,0:0|0:3,0:0:0:0:
375,137,78881,1,8,0:0:0:0:
176,180,78986,2,0,L|103:184,1,65.9999951248171,8|8,0:3|0:0,0:0:0:0:
311,234,79196,2,0,L|465:241,1,131.999990249634,4|8,0:3|0:0,0:0:0:0:
40,293,79616,2,0,L|114:294,1,65.9999951248171,8|8,0:0|0:0,0:0:0:0:
370,293,79825,5,4,0:0:0:0:
300,274,79930,1,0,0:0:0:0:
201,198,80035,1,8,0:0:0:0:
257,148,80140,1,0,0:0:0:0:
425,122,80245,2,0,L|505:119,1,65.9999951248171,8|8,0:0|0:3,0:0:0:0:
254,113,80455,2,0,L|178:111,1,65.9999951248171,8|8,0:3|0:3,0:0:0:0:
422,58,80664,2,0,L|347:54,1,65.9999951248171,8|8,0:0|0:3,0:0:0:0:
121,52,80874,2,0,L|51:49,1,65.9999951248171,8|8,0:0|0:3,0:0:0:0:
325,51,81084,2,0,L|328:129,1,65.9999951248171,8|8,0:0|0:0,0:0:0:0:
92,147,81294,2,0,L|178:150,1,65.9999951248171,8|8,0:0|0:3,0:0:0:0:
410,165,81504,6,0,L|413:229,1,54.9999976158142,4|0,0:0|0:0,0:0:0:0:
228,224,81818,2,0,L|223:285,1,54.9999976158142,0|8,0:0|0:3,0:0:0:0:
495,282,82133,1,4,0:3:0:0:
213,157,82343,2,0,L|73:150,1,109.999995231628,8|4,0:3|0:3,0:0:0:0:
387,129,82762,2,0,L|392:0,1,109.999995231628,8|4,0:3|0:3,0:0:0:0:
114,55,83182,6,0,L|41:52,1,54.9999976158142,8|0,0:3|0:0,0:0:0:0:
248,101,83497,2,0,L|309:103,1,54.9999976158142,0|8,0:0|0:3,0:0:0:0:
29,117,83811,1,4,0:3:0:0:
306,169,84021,1,8,0:0:0:0:
117,192,84231,2,0,L|111:263,1,54.9999976158142,8|8,0:0|0:3,0:0:0:0:
280,268,84441,2,0,L|346:270,1,54.9999976158142,8|0,0:0|0:0,0:0:0:0:
140,311,84650,2,0,L|76:310,1,54.9999976158142,8|8,0:0|0:0,0:0:0:0:
310,187,84860,6,0,L|382:186,1,54.9999976158142,4|0,0:0|0:0,0:0:0:0:
177,98,85175,2,0,L|121:96,2,54.9999976158142,0|8|0,0:0|0:3|0:0,0:0:0:0:
344,93,85490,1,4,0:3:0:0:
61,51,85699,2,0,L|212:44,1,109.999995231628,8|4,0:3|0:3,0:0:0:0:
448,55,86119,1,8,0:0:0:0:
121,172,86329,2,0,L|54:179,2,54.9999976158142,8|8|8,0:0|0:0|0:0,0:0:0:0:
454,174,86748,6,0,L|463:320,1,109.999995231628,4|0,0:0|0:0,0:0:0:0:
178,315,87168,2,0,L|44:321,1,109.999995231628,4|0,0:0|0:0,0:0:0:0:
351,244,87588,2,0,P|386:198|336:175,1,109.999995231628,4|8,0:0|0:0,0:0:0:0:
74,152,88007,1,8,0:3:0:0:
459,130,88217,5,4,0:0:0:0:
256,192,88427,12,0,89685,0:0:0:0:
