osu file format v14

[General]
AudioFilename: smileskill.mp3
AudioLeadIn: 0
PreviewTime: 52867
Countdown: 0
SampleSet: Soft
StackLeniency: 0.7
Mode: 2
LetterboxInBreaks: 0
WidescreenStoryboard: 1

[Editor]
Bookmarks: 54441
DistanceSpacing: 1.1
BeatDivisor: 4
GridSize: 16
TimelineZoom: 1

[Metadata]
Title:Smile Skill = Suki Skill! (TV Size)
TitleUnicode:スマイルスキル=スキスキル!(TV Size)
Artist:Akaki Chikai
ArtistUnicode:赤き誓い
Creator:Greaper
Version:Cup
Source:私、能力は平均値でって言ったよね!
Tags:Watashi Nouryoku wa Heikinchi de tte Itta yo ne! Noukin 能均 Didn't I Say to Make My Abilities Average in the Next Life?! anime op opening Adele von Ascham Azumi Waki 和氣あず未 Sora Tokui 徳井青空 von Austien Fumiko Uchimura 内村史子 Masumi Tazawa 田澤茉純 マイル レーナ メーヴィス ポーリン Mile Reina Mavis Pauline Japanese
BeatmapID:2239793
BeatmapSetID:1070009

[Difficulty]
HPDrainRate:2
CircleSize:2.5
OverallDifficulty:6
ApproachRate:6
SliderMultiplier:1.39999990463257
SliderTickRate:1

[Events]
//Background and Video events
0,0,"bg.jpg",0,0
//Break Periods
//Storyboard Layer 0 (Background)
//Storyboard Layer 1 (Fail)
//Storyboard Layer 2 (Pass)
//Storyboard Layer 3 (Foreground)
//Storyboard Layer 4 (Overlay)
//Storyboard Sound Samples

[TimingPoints]
956,419.58041958042,4,2,11,50,1,0
1983,419.58041958042,4,2,11,50,1,0
2623,419.58041958042,4,2,11,50,1,0
9337,-100,4,2,11,40,0,0
22763,-100,4,2,11,45,0,0
32833,-100,4,2,11,50,0,0
39547,-100,4,2,11,55,0,0
42903,-100,4,2,11,50,0,0
46260,-100,4,2,11,55,0,0
49617,-100,4,2,11,60,0,0
51295,-100,4,2,11,65,0,0
52972,-100,4,2,11,65,0,1
59685,-100,4,2,11,65,0,1
66399,-100,4,2,11,65,0,1
73112,-100,4,2,11,65,0,1
81504,-100,4,2,11,60,0,0
88636,-100,4,2,11,55,0,0
88846,-100,4,2,11,50,0,0
89056,-100,4,2,11,40,0,0
89266,-100,4,2,11,20,0,0
89476,-100,4,2,11,10,0,0
89685,-100,4,2,11,5,0,0

[Colours]
Combo1 : 153,236,240
Combo2 : 247,181,249
Combo3 : 245,109,109
Combo4 : 247,224,155

[HitObjects]
306,235,955,6,0,P|354:212|304:152,1,139.999990463257,4|4,0:0|0:0,0:0:0:0:
173,150,1795,1,8,0:0:0:0:
261,145,1983,2,0,P|277:63|262:0,1,139.999990463257,2|8,0:0|0:0,0:0:0:0:
143,35,2623,6,0,P|101:58|154:118,1,139.999990463257,4|8,0:0|0:3,0:0:0:0:
323,128,3462,2,0,L|328:206,1,69.9999952316284,8|4,0:3|0:3,0:0:0:0:
229,214,3881,2,0,L|224:310,1,69.9999952316284,8|4,0:3|0:3,0:0:0:0:
339,302,4301,6,0,P|394:283|422:193,1,139.999990463257,10|8,0:3|0:3,0:0:0:0:
243,191,5140,1,8,0:0:0:0:
170,191,5350,2,0,L|164:36,1,139.999990463257,8|8,0:0|0:0,0:0:0:0:
280,52,5979,6,0,P|347:74|363:152,1,139.999990463257,4|8,0:0|0:3,0:0:0:0:
198,164,6818,2,0,L|194:244,1,69.9999952316284,8|4,0:3|0:3,0:0:0:0:
293,242,7238,2,0,P|344:290|296:333,1,139.999990463257,0|4,0:3|0:0,0:0:0:0:
195,315,7867,6,0,L|186:219,1,69.9999952316284,8|8,0:3|0:0,0:0:0:0:
288,204,8287,1,8,0:0:0:0:
417,170,8706,1,8,0:0:0:0:
221,137,9126,6,0,L|215:51,1,69.9999952316284,8|4,0:0|0:0,0:0:0:0:
386,58,9755,2,0,P|437:100|401:143,1,104.999992847443,8|8,0:0|0:0,0:0:0:0:
391,113,10175,1,8,0:3:0:0:
241,113,10595,2,0,L|236:197,1,69.9999952316285,8|4,0:0|0:3,0:0:0:0:
337,190,11014,5,8,0:3:0:0:
409,195,11224,2,0,L|496:201,2,69.9999952316285,0|8|4,0:0|0:0|0:3,0:0:0:0:
266,240,12063,1,4,0:3:0:0:
71,232,12483,6,0,L|66:154,1,69.9999952316285,4|10,0:3|0:3,0:0:0:0:
265,150,13112,2,0,P|299:117|199:43,1,209.999985694886,8|4,0:0|0:3,0:0:0:0:
137,58,13951,1,8,0:0:0:0:
333,191,14371,6,0,L|484:163,1,139.999990463257,10|8,0:3|0:0,0:0:0:0:
302,222,15210,2,0,P|254:271|323:294,1,139.999990463257,8|8,0:3|0:0,0:0:0:0:
410,303,15839,6,0,P|438:263|435:225,1,69.9999952316285,4|10,0:3|0:3,0:0:0:0:
242,195,16469,2,0,L|88:189,2,139.999990463257,8|8|8,0:0|0:3|0:0,0:0:0:0:
443,181,17727,6,0,P|485:125|430:80,1,139.999990463257,10|8,0:3|0:0,0:0:0:0:
282,83,18567,2,0,L|182:78,1,69.9999952316285,8|4,0:3|0:3,0:0:0:0:
286,151,18986,2,0,L|297:232,1,69.9999952316285,8|4,0:0|0:3,0:0:0:0:
182,235,19406,6,0,P|131:219|177:151,1,139.999990463257,10|8,0:3|0:0,0:0:0:0:
299,120,20245,2,0,L|379:113,2,69.9999952316285,8|4|8,0:3|0:3|0:0,0:0:0:0:
185,125,20874,5,4,0:3:0:0:
321,169,21294,2,0,L|329:248,1,69.9999952316285,0|8,0:0|0:0,0:0:0:0:
239,252,21713,2,0,L|93:261,1,139.999990463257,4|4,0:3|0:3,0:0:0:0:
93,318,22343,1,8,0:0:0:0:
303,319,22762,6,0,P|347:301|288:242,1,139.999990463257,4|8,0:0|0:0,0:0:0:0:
169,217,23602,2,0,L|81:213,2,69.9999952316285,8|4|8,0:3|0:3|0:0,0:0:0:0:
279,194,24231,6,0,P|380:132|231:50,1,349.999976158143,4|8,0:3|0:3,0:0:0:0:
377,245,25699,2,0,L|381:329,1,69.9999952316285,8|4,0:0|0:3,0:0:0:0:
268,326,26119,6,0,P|220:282|271:232,1,139.999990463257,10|8,0:3|0:0,0:0:0:0:
402,192,26958,2,0,L|481:186,2,69.9999952316285,8|4|8,0:3|0:3|0:0,0:0:0:0:
282,199,27588,6,0,P|211:183|157:55,1,209.999985694886,4|8,0:3|0:0,0:0:0:0:
296,124,28636,2,0,L|415:29,1,139.999990463257,8|8,0:3|0:0,0:0:0:0:
209,207,29476,6,0,P|165:229|221:290,1,139.999990463257,4|8,0:0|0:0,0:0:0:0:
347,295,30315,2,0,L|350:210,1,69.9999952316285,0|4,0:3|0:3,0:0:0:0:
139,195,30944,6,0,P|93:154|147:100,1,139.999990463257,4|8,0:0|0:0,0:0:0:0:
200,100,31574,1,8,0:0:0:0:
274,152,31783,2,0,L|281:229,1,69.9999952316285,8|8,0:0|0:3,0:0:0:0:
201,216,32203,2,0,P|158:236|215:295,1,139.999990463257,8|8,0:0|0:0,0:0:0:0:
311,300,32832,6,0,P|358:267|297:217,1,139.999990463257,4|8,0:0|0:3,0:0:0:0:
144,178,33671,2,0,L|136:86,1,69.9999952316285,8|4,0:3|0:3,0:0:0:0:
238,98,34091,2,0,L|321:91,1,69.9999952316285,8|4,0:3|0:3,0:0:0:0:
195,198,34511,6,0,P|131:217|106:304,1,139.999990463257,10|8,0:3|0:3,0:0:0:0:
270,278,35350,1,8,0:0:0:0:
332,250,35560,1,8,0:0:0:0:
337,183,35769,1,8,0:3:0:0:
282,140,35979,1,8,0:0:0:0:
169,135,36189,6,0,P|131:102|186:46,1,139.999990463257,4|8,0:0|0:3,0:0:0:0:
350,42,37028,2,0,L|446:46,1,69.9999952316285,8|4,0:3|0:3,0:0:0:0:
321,109,37448,2,0,L|313:206,1,69.9999952316285,8|4,0:3|0:3,0:0:0:0:
431,196,37867,5,4,0:0:0:0:
351,228,38077,2,0,L|272:241,1,69.9999952316285,8|8,0:3|0:0,0:0:0:0:
211,254,38497,1,8,0:0:0:0:
344,336,38916,1,8,0:0:0:0:
197,326,39336,1,8,0:0:0:0:
310,279,39546,6,0,L|391:273,2,69.9999952316285,4|4|8,0:0|0:3|0:3,0:0:0:0:
169,232,40385,2,0,L|160:148,1,69.9999952316285,8|4,0:3|0:3,0:0:0:0:
375,109,41014,6,0,P|430:93|372:40,1,139.999990463257,4|4,0:0|0:3,0:0:0:0:
332,27,41643,1,8,0:3:0:0:
188,39,42063,2,0,L|67:47,2,104.999992847443,8|8|8,0:0|0:0|0:0,0:0:0:0:
306,118,42902,6,0,P|355:160|323:218,1,139.999990463257,4|8,0:0|0:3,0:0:0:0:
152,207,43741,2,0,L|140:287,1,69.9999952316285,8|4,0:3|0:3,0:0:0:0:
240,287,44161,2,0,L|340:289,1,69.9999952316285,8|4,0:3|0:3,0:0:0:0:
114,309,44790,6,0,L|113:217,1,69.9999952316285,4|8,0:3|0:3,0:0:0:0:
212,208,45210,2,0,L|345:155,2,139.999990463257,4|4|4,0:3|0:3|0:3,0:0:0:0:
99,121,46259,6,0,P|68:93|122:32,1,139.999990463257,4|8,0:0|0:3,0:0:0:0:
274,64,47098,2,0,L|355:68,2,69.9999952316285,0|4|8,0:3|0:3|0:3,0:0:0:0:
163,121,47727,6,0,L|156:209,1,69.9999952316285,4|8,0:0|0:3,0:0:0:0:
233,192,48147,2,0,L|310:199,1,69.9999952316285,4|8,0:3|0:3,0:0:0:0:
147,283,48776,2,0,L|14:292,2,104.999992847443,8|8|8,0:0|0:0|0:0,0:0:0:0:
260,188,49616,6,0,L|268:36,1,139.999990463257,4|8,0:0|0:3,0:0:0:0:
114,54,50455,2,0,P|67:70|114:130,1,139.999990463257,8|8,0:3|0:3,0:0:0:0:
172,143,51084,1,4,0:3:0:0:
285,157,51294,5,8,0:0:0:0:
101,192,51713,1,8,0:0:0:0:
272,241,52133,2,0,P|341:238|407:105,1,209.999985694886,8|0,0:0|0:0,0:0:0:0:
292,94,52972,6,0,L|130:87,1,139.999990463257,4|8,0:0|0:0,0:0:0:0:
322,182,53811,2,0,L|406:186,2,69.9999952316285,8|4|8,0:3|0:3|0:0,0:0:0:0:
202,192,54441,6,0,L|187:276,1,69.9999952316285,4|8,0:3|0:3,0:0:0:0:
351,255,55070,2,0,L|360:167,1,69.9999952316285,8|4,0:0|0:3,0:0:0:0:
256,149,55490,2,0,P|152:104|137:79,1,139.999990463257,0|8,0:3|0:0,0:0:0:0:
348,107,56329,6,0,L|434:105,2,69.9999952316285,10|4|8,0:3|0:3|0:0,0:0:0:0:
197,128,57168,2,0,P|161:159|204:225,1,139.999990463257,8|8,0:3|0:0,0:0:0:0:
322,223,57797,6,0,P|436:201|472:105,1,209.999985694886,4|10,0:3|0:0,0:0:0:0:
332,96,58846,2,0,L|330:13,1,69.9999952316285,8|4,0:3|0:3,0:0:0:0:
415,27,59266,1,8,0:0:0:0:
210,177,59685,6,0,L|68:173,1,139.999990463257,4|8,0:0|0:3,0:0:0:0:
187,241,60525,2,0,L|264:239,2,69.9999952316285,0|4|8,0:3|0:3|0:0,0:0:0:0:
71,243,61154,6,0,L|69:164,1,69.9999952316285,4|8,0:3|0:3,0:0:0:0:
231,155,61783,2,0,L|319:150,1,69.9999952316285,8|4,0:0|0:3,0:0:0:0:
215,92,62203,2,0,L|138:90,2,69.9999952316285,8|4|8,0:3|0:3|0:0,0:0:0:0:
388,88,63042,5,8,0:3:0:0:
260,139,63462,2,0,L|258:218,1,69.9999952316285,8|4,0:0|0:3,0:0:0:0:
372,222,63881,2,0,L|459:228,2,69.9999952316285,0|4|8,0:3|0:3|0:0,0:0:0:0:
251,217,64511,6,0,P|210:202|273:91,1,209.999985694886,4|4,0:0|0:0,0:0:0:0:
407,134,65560,2,0,L|411:52,1,69.9999952316285,8|8,0:0|0:0,0:0:0:0:
310,88,65979,2,0,L|308:8,1,69.9999952316285,8|8,0:0|0:0,0:0:0:0:
428,44,66399,6,0,P|472:59|415:113,1,139.999990463257,4|8,0:0|0:0,0:0:0:0:
284,148,67238,2,0,L|285:227,1,69.9999952316285,0|4,0:3|0:3,0:0:0:0:
358,220,67657,1,8,0:0:0:0:
252,218,67867,6,0,L|168:217,1,69.9999952316285,4|8,0:3|0:3,0:0:0:0:
53,210,68497,2,0,L|52:122,1,69.9999952316285,8|4,0:0|0:3,0:0:0:0:
136,138,68916,2,0,L|282:128,1,139.999990463257,8|8,0:3|0:0,0:0:0:0:
61,110,69755,6,0,P|63:63|158:15,1,139.999990463257,10|8,0:3|0:0,0:0:0:0:
271,17,70595,2,0,L|361:15,2,69.9999952316285,8|4|8,0:3|0:3|0:0,0:0:0:0:
152,67,71224,6,0,P|155:156|265:197,1,209.999985694886,4|8,0:3|0:0,0:0:0:0:
417,243,72273,2,0,L|424:333,1,69.9999952316285,8|4,0:3|0:3,0:0:0:0:
337,302,72692,2,0,L|256:304,1,69.9999952316285,8|8,0:0|0:0,0:0:0:0:
387,182,73112,6,0,P|383:117|307:88,1,139.999990463257,4|8,0:0|0:0,0:0:0:0:
181,85,73951,2,0,L|95:80,2,69.9999952316285,8|4|8,0:3|0:3|0:0,0:0:0:0:
301,94,74581,6,0,L|382:98,1,69.9999952316285,4|8,0:3|0:3,0:0:0:0:
221,212,75210,1,8,0:0:0:0:
367,226,75629,2,0,L|442:228,2,69.9999952316285,8|4|8,0:3|0:3|0:0,0:0:0:0:
184,272,76469,5,8,0:3:0:0:
255,259,76678,2,0,L|328:254,1,69.9999952316285,4|8,0:3|0:0,0:0:0:0:
123,217,77308,2,0,L|35:191,2,69.9999952316285,8|4|8,0:3|0:3|0:0,0:0:0:0:
236,144,77937,6,0,P|302:139|353:262,1,209.999985694886,4|8,0:0|0:0,0:0:0:0:
190,232,78986,2,0,L|115:228,2,69.9999952316285,8|4|8,0:3|0:3|0:0,0:0:0:0:
262,235,79616,1,8,0:0:0:0:
380,234,79825,6,0,P|352:123|150:41,1,349.999976158143,4|8,0:0|0:0,0:0:0:0:
293,30,81294,1,8,0:0:0:0:
407,126,81504,6,0,P|455:145|401:208,1,139.999990463257,4|8,0:0|0:3,0:0:0:0:
229,229,82343,2,0,L|220:317,1,69.9999952316285,8|4,0:3|0:3,0:0:0:0:
325,265,82762,2,0,L|329:350,1,69.9999952316285,8|4,0:3|0:3,0:0:0:0:
213,338,83182,6,0,L|73:330,1,139.999990463257,8|8,0:3|0:3,0:0:0:0:
248,202,84021,1,8,0:0:0:0:
335,200,84231,2,0,L|341:43,1,139.999990463257,8|8,0:0|0:0,0:0:0:0:
221,61,84860,6,0,P|188:84|241:150,1,139.999990463257,4|8,0:0|0:3,0:0:0:0:
396,197,85699,2,0,L|405:281,1,69.9999952316285,8|4,0:3|0:3,0:0:0:0:
303,273,86119,2,0,L|207:274,1,69.9999952316285,8|8,0:0|0:0,0:0:0:0:
456,188,86748,6,0,L|457:102,1,69.9999952316285,4|0,0:0|0:0,0:0:0:0:
382,113,87168,1,4,0:0:0:0:
198,98,87588,1,4,0:0:0:0:
338,57,88007,1,8,0:3:0:0:
219,37,88217,5,4,0:0:0:0:
256,192,88636,12,0,89685,0:0:0:0:
