osu file format v14

[General]
AudioFilename: Smile Skill = Suki Skill!.mp3
AudioLeadIn: 0
PreviewTime: 52567
Countdown: 0
SampleSet: Normal
StackLeniency: 0.7
Mode: 1
LetterboxInBreaks: 0
WidescreenStoryboard: 1

[Editor]
DistanceSpacing: 1.5
BeatDivisor: 4
GridSize: 32
TimelineZoom: 1.8

[Metadata]
Title:Smile Skill = Suki Skill! (TV Size)
TitleUnicode:スマイルスキル=スキスキル!(TV Size)
Artist:Akaki Chikai
ArtistUnicode:赤き誓い
Creator:Cynplytholowazy
Version:Muzukashii
Source:私、能力は平均値でって言ったよね!
Tags:Watashi, Nōryoku Nouryoku wa Heikinchi de tte Itta yo ne! Didn't I Say to Make My Abilities Average in the Next Life?! Anime Japanese OP opening The Crimson Vow マイル 和氣あず未 レーナ 徳井青空 メーヴィス 内村史子 ポーリン 田澤茉純 Mile Waki Azumi Reina Touki Sora Mavis Uchimura Fumiko Pauline Tazawa Masumi 畑亜貴 Hata Aki tatsuo noukin 能均 God Bless me? Xinely
BeatmapID:2301589
BeatmapSetID:1101719

[Difficulty]
HPDrainRate:6
CircleSize:7
OverallDifficulty:4
ApproachRate:10
SliderMultiplier:1.4
SliderTickRate:1

[Events]
//Background and Video events
0,0,"pzte511jncDbuBP3OYJ-o.png",0,50
//Break Periods
//Storyboard Layer 0 (Background)
//Storyboard Layer 1 (Fail)
//Storyboard Layer 2 (Pass)
//Storyboard Layer 3 (Foreground)
//Storyboard Layer 4 (Overlay)
//Storyboard Sound Samples

[TimingPoints]
2238,419.58041958042,4,1,0,80,1,0
2238,-90.9090909090909,4,1,0,90,0,0
9161,-100,4,1,0,80,0,0
32342,-100,4,1,0,90,0,0
32447,419.58041958042,4,1,0,90,1,0
32447,-90.9090909090909,4,1,0,90,0,0
39370,-100,4,1,0,80,0,0
40628,-90.9090909090909,4,1,0,80,0,0
40838,-100,4,1,0,80,0,0
41677,-90.9090909090909,4,1,0,80,0,0
42307,-100,4,1,0,80,0,0
42412,-90.9090909090909,4,1,0,90,0,0
45978,-100,4,1,0,80,0,0
47342,-90.9090909090909,4,1,0,80,0,0
47551,-100,4,1,0,80,0,0
48391,-90.9090909090909,4,1,0,80,0,0
49020,-100,4,1,0,80,0,0
49230,-93.0232558139535,4,1,0,80,0,0
50856,-86.9565217391304,4,1,0,90,0,0
51118,-74.0740740740741,4,1,0,93,0,0
51537,-62.5,4,1,0,96,0,0
52534,-62.5,4,1,0,100,0,0
52586,-62.5,4,1,0,100,0,1
81013,-86.9565217391304,4,1,0,90,0,1
81118,419.58041958042,4,1,0,90,1,0
81118,-86.9565217391304,4,1,0,90,0,0
81327,-90.9090909090909,4,1,0,90,0,0

[HitObjects]
256,192,559,5,2,0:0:0:0:
256,192,874,1,2,0:0:0:0:
256,192,979,1,2,0:0:0:0:
256,192,1189,1,0,0:0:0:0:
256,192,1398,1,0,0:0:0:0:
256,192,1608,1,2,0:0:0:0:
256,192,1818,1,0,0:0:0:0:
256,192,2238,1,4,0:0:0:0:
256,192,2552,1,2,0:0:0:0:
256,192,2657,1,0,0:0:0:0:
256,192,2867,1,2,0:0:0:0:
256,192,3077,1,2,0:0:0:0:
256,192,3286,1,0,0:0:0:0:
256,192,3496,1,2,0:0:0:0:
256,192,3916,1,0,0:0:0:0:
256,192,4231,1,2,0:0:0:0:
256,192,4335,1,0,0:0:0:0:
256,192,4545,1,2,0:0:0:0:
256,192,4755,1,2,0:0:0:0:
256,192,4965,1,0,0:0:0:0:
256,192,5070,1,0,0:0:0:0:
256,192,5175,1,0,0:0:0:0:
256,192,5594,1,4,0:0:0:0:
256,192,5909,1,2,0:0:0:0:
256,192,6014,1,0,0:0:0:0:
256,192,6224,1,2,0:0:0:0:
256,192,6433,1,2,0:0:0:0:
256,192,6643,1,0,0:0:0:0:
256,192,6853,1,2,0:0:0:0:
256,192,7272,1,4,0:0:0:0:
256,192,7482,1,0,0:0:0:0:
256,192,7587,1,0,0:0:0:0:
256,192,7692,1,0,0:0:0:0:
256,192,7902,1,2,0:0:0:0:
256,192,8007,1,2,0:0:0:0:
256,192,8112,1,2,0:0:0:0:
256,192,8321,1,0,0:0:0:0:
256,192,8426,1,0,0:0:0:0:
256,192,8531,1,0,0:0:0:0:
256,192,8741,1,2,0:0:0:0:
256,192,8951,1,4,0:0:0:0:
256,192,9370,1,2,0:0:0:0:
256,192,9580,1,0,0:0:0:0:
256,192,9790,1,2,0:0:0:0:
256,192,9895,1,2,0:0:0:0:
256,192,10000,1,2,0:0:0:0:
256,192,10210,1,2,0:0:0:0:
256,192,10629,1,2,0:0:0:0:
256,192,11049,1,2,0:0:0:0:
256,192,11258,1,2,0:0:0:0:
256,192,11468,1,0,0:0:0:0:
256,192,11573,1,0,0:0:0:0:
256,192,11678,1,0,0:0:0:0:
256,192,11888,1,2,0:0:0:0:
256,192,12307,1,2,0:0:0:0:
256,192,12727,1,2,0:0:0:0:
256,192,12937,1,0,0:0:0:0:
256,192,13147,1,0,0:0:0:0:
256,192,13251,1,0,0:0:0:0:
256,192,13356,1,0,0:0:0:0:
256,192,13566,1,2,0:0:0:0:
256,192,13986,1,0,0:0:0:0:
256,192,14405,1,2,0:0:0:0:
256,192,14615,1,0,0:0:0:0:
256,192,14825,1,2,0:0:0:0:
256,192,14930,1,2,0:0:0:0:
256,192,15035,1,2,0:0:0:0:
256,192,15244,1,0,0:0:0:0:
256,192,15454,1,0,0:0:0:0:
256,192,15664,1,2,0:0:0:0:
256,192,16084,1,2,0:0:0:0:
256,192,16293,1,0,0:0:0:0:
256,192,16503,1,2,0:0:0:0:
256,192,16608,1,2,0:0:0:0:
256,192,16713,1,2,0:0:0:0:
256,192,16923,1,2,0:0:0:0:
256,192,17342,1,2,0:0:0:0:
256,192,17762,1,2,0:0:0:0:
256,192,17972,1,2,0:0:0:0:
256,192,18182,1,0,0:0:0:0:
256,192,18286,1,0,0:0:0:0:
256,192,18391,1,0,0:0:0:0:
256,192,18601,1,2,0:0:0:0:
256,192,19021,1,2,0:0:0:0:
256,192,19440,1,2,0:0:0:0:
256,192,19650,1,0,0:0:0:0:
256,192,19860,1,2,0:0:0:0:
256,192,19965,1,2,0:0:0:0:
256,192,20070,1,2,0:0:0:0:
256,192,20279,1,2,0:0:0:0:
256,192,20699,1,2,0:0:0:0:
256,192,21119,1,2,0:0:0:0:
256,192,21328,1,0,0:0:0:0:
256,192,21538,1,2,0:0:0:0:
256,192,21748,1,0,0:0:0:0:
256,192,21853,1,0,0:0:0:0:
256,192,21958,1,0,0:0:0:0:
256,192,22168,1,0,0:0:0:0:
256,192,22377,1,6,0:0:0:0:
256,192,22797,1,2,0:0:0:0:
256,192,23007,1,0,0:0:0:0:
256,192,23217,1,2,0:0:0:0:
256,192,23321,1,2,0:0:0:0:
256,192,23426,1,2,0:0:0:0:
256,192,23636,1,2,0:0:0:0:
256,192,24056,1,4,0:0:0:0:
256,192,24475,1,2,0:0:0:0:
256,192,24685,1,0,0:0:0:0:
256,192,24895,1,0,0:0:0:0:
256,192,25000,1,0,0:0:0:0:
256,192,25105,1,0,0:0:0:0:
256,192,25314,1,2,0:0:0:0:
256,192,25524,1,0,0:0:0:0:
256,192,25734,1,6,0:0:0:0:
256,192,26154,1,2,0:0:0:0:
256,192,26363,1,0,0:0:0:0:
256,192,26573,1,2,0:0:0:0:
256,192,26678,1,2,0:0:0:0:
256,192,26783,1,2,0:0:0:0:
256,192,26993,1,2,0:0:0:0:
256,192,27412,1,4,0:0:0:0:
256,192,27832,1,2,0:0:0:0:
256,192,28042,1,0,0:0:0:0:
256,192,28251,1,2,0:0:0:0:
256,192,28356,1,0,0:0:0:0:
256,192,28566,1,0,0:0:0:0:
256,192,28671,1,2,0:0:0:0:
256,192,28881,1,2,0:0:0:0:
256,192,29091,1,4,0:0:0:0:
256,192,29510,1,2,0:0:0:0:
256,192,29825,1,2,0:0:0:0:
256,192,29930,1,0,0:0:0:0:
256,192,30140,1,2,0:0:0:0:
256,192,30349,1,0,0:0:0:0:
256,192,30559,1,6,0:0:0:0:
256,192,30979,1,0,0:0:0:0:
256,192,31084,1,0,0:0:0:0:
256,192,31189,1,0,0:0:0:0:
256,192,31398,1,2,0:0:0:0:
256,192,31503,1,2,0:0:0:0:
256,192,31608,1,2,0:0:0:0:
256,192,31818,1,2,0:0:0:0:
256,192,32028,1,2,0:0:0:0:
256,192,32238,1,0,0:0:0:0:
256,192,32447,1,4,0:0:0:0:
256,192,32761,1,2,0:0:0:0:
256,192,32866,1,0,0:0:0:0:
256,192,33076,1,2,0:0:0:0:
256,192,33286,1,2,0:0:0:0:
256,192,33495,1,0,0:0:0:0:
256,192,33705,1,2,0:0:0:0:
256,192,34125,1,0,0:0:0:0:
256,192,34440,1,2,0:0:0:0:
256,192,34544,1,0,0:0:0:0:
256,192,34754,1,2,0:0:0:0:
256,192,34964,1,2,0:0:0:0:
256,192,35174,1,0,0:0:0:0:
256,192,35279,1,0,0:0:0:0:
256,192,35384,1,0,0:0:0:0:
256,192,35803,1,4,0:0:0:0:
256,192,36118,1,2,0:0:0:0:
256,192,36223,1,0,0:0:0:0:
256,192,36433,1,2,0:0:0:0:
256,192,36642,1,2,0:0:0:0:
256,192,36852,1,0,0:0:0:0:
256,192,37062,1,2,0:0:0:0:
256,192,37481,1,4,0:0:0:0:
256,192,37691,1,0,0:0:0:0:
256,192,37796,1,0,0:0:0:0:
256,192,37901,1,0,0:0:0:0:
256,192,38111,1,2,0:0:0:0:
256,192,38216,1,2,0:0:0:0:
256,192,38321,1,2,0:0:0:0:
256,192,38530,1,0,0:0:0:0:
256,192,38635,1,0,0:0:0:0:
256,192,38740,1,0,0:0:0:0:
256,192,38950,1,2,0:0:0:0:
256,192,39160,1,4,0:0:0:0:
256,192,39579,1,0,0:0:0:0:
256,192,39789,1,2,0:0:0:0:
256,192,39999,1,0,0:0:0:0:
256,192,40209,1,2,0:0:0:0:
256,192,40314,1,2,0:0:0:0:
256,192,40419,1,2,0:0:0:0:
256,192,40628,1,6,0:0:0:0:
256,192,41048,1,2,0:0:0:0:
256,192,41258,1,0,0:0:0:0:
256,192,41467,1,2,0:0:0:0:
256,192,41677,1,4,0:0:0:0:
256,192,41992,1,4,0:0:0:0:
256,192,42307,1,0,0:0:0:0:
256,192,42516,1,6,0:0:0:0:
256,192,42831,1,2,0:0:0:0:
256,192,42936,1,0,0:0:0:0:
256,192,43146,1,2,0:0:0:0:
256,192,43356,1,2,0:0:0:0:
256,192,43565,1,0,0:0:0:0:
256,192,43775,1,2,0:0:0:0:
256,192,44195,1,0,0:0:0:0:
256,192,44405,1,2,0:0:0:0:
256,192,44614,1,2,0:0:0:0:
256,192,45034,1,0,0:0:0:0:
256,192,45244,1,2,0:0:0:0:
256,192,45349,1,2,0:0:0:0:
256,192,45453,1,2,0:0:0:0:
256,192,45663,1,4,0:0:0:0:
256,192,45873,1,6,0:0:0:0:
256,192,46293,1,0,0:0:0:0:
256,192,46502,1,2,0:0:0:0:
256,192,46712,1,0,0:0:0:0:
256,192,46922,1,2,0:0:0:0:
256,192,47027,1,2,0:0:0:0:
256,192,47132,1,2,0:0:0:0:
256,192,47342,1,6,0:0:0:0:
256,192,47761,1,2,0:0:0:0:
256,192,47971,1,0,0:0:0:0:
256,192,48181,1,2,0:0:0:0:
256,192,48391,1,4,0:0:0:0:
256,192,48705,1,4,0:0:0:0:
256,192,49020,1,0,0:0:0:0:
256,192,49230,1,6,0:0:0:0:
256,192,49649,1,2,0:0:0:0:
256,192,49859,1,0,0:0:0:0:
256,192,50069,1,2,0:0:0:0:
256,192,50279,1,0,0:0:0:0:
256,192,50488,1,2,0:0:0:0:
256,192,50698,1,0,0:0:0:0:
256,192,50908,1,6,0:0:0:0:
256,192,51328,1,6,0:0:0:0:
256,192,51747,1,4,0:0:0:0:
256,192,52586,1,6,0:0:0:0:
256,192,53006,1,2,0:0:0:0:
256,192,53321,1,2,0:0:0:0:
256,192,53426,1,0,0:0:0:0:
256,192,53635,1,2,0:0:0:0:
256,192,53845,1,2,0:0:0:0:
256,192,54265,1,2,0:0:0:0:
256,192,54474,1,0,0:0:0:0:
256,192,54684,1,2,0:0:0:0:
256,192,54894,1,0,0:0:0:0:
256,192,55104,1,2,0:0:0:0:
256,192,55209,1,2,0:0:0:0:
256,192,55314,1,2,0:0:0:0:
256,192,55523,1,2,0:0:0:0:
256,192,55943,1,2,0:0:0:0:
256,192,56153,1,2,0:0:0:0:
256,192,56363,1,0,0:0:0:0:
256,192,56572,1,2,0:0:0:0:
256,192,56782,1,2,0:0:0:0:
256,192,56887,1,2,0:0:0:0:
256,192,56992,1,2,0:0:0:0:
256,192,57202,1,2,0:0:0:0:
256,192,57412,1,2,0:0:0:0:
256,192,57621,1,0,0:0:0:0:
256,192,58041,1,0,0:0:0:0:
256,192,58251,1,2,0:0:0:0:
256,192,58356,1,2,0:0:0:0:
256,192,58460,1,2,0:0:0:0:
256,192,58670,1,0,0:0:0:0:
256,192,58880,1,2,0:0:0:0:
256,192,59300,1,6,0:0:0:0:
256,192,59719,1,2,0:0:0:0:
256,192,60034,1,2,0:0:0:0:
256,192,60139,1,0,0:0:0:0:
256,192,60349,1,2,0:0:0:0:
256,192,60558,1,2,0:0:0:0:
256,192,60978,1,2,0:0:0:0:
256,192,61188,1,0,0:0:0:0:
256,192,61398,1,2,0:0:0:0:
256,192,61607,1,0,0:0:0:0:
256,192,61817,1,2,0:0:0:0:
256,192,61922,1,2,0:0:0:0:
256,192,62027,1,2,0:0:0:0:
256,192,62237,1,2,0:0:0:0:
256,192,62656,1,2,0:0:0:0:
256,192,62866,1,2,0:0:0:0:
256,192,63076,1,0,0:0:0:0:
256,192,63286,1,2,0:0:0:0:
256,192,63495,1,2,0:0:0:0:
256,192,63600,1,2,0:0:0:0:
256,192,63705,1,2,0:0:0:0:
256,192,63915,1,2,0:0:0:0:
256,192,64125,1,4,0:0:0:0:
256,192,64544,1,0,0:0:0:0:
256,192,64754,1,6,0:0:0:0:
256,192,64964,1,0,0:0:0:0:
256,192,65174,1,0,0:0:0:0:
256,192,65384,1,2,0:0:0:0:
256,192,65488,1,2,0:0:0:0:
256,192,65593,1,2,0:0:0:0:
256,192,66013,1,6,0:0:0:0:
256,192,66433,1,2,0:0:0:0:
256,192,66747,1,2,0:0:0:0:
256,192,66852,1,0,0:0:0:0:
256,192,67062,1,2,0:0:0:0:
256,192,67272,1,2,0:0:0:0:
256,192,67691,1,2,0:0:0:0:
256,192,67901,1,0,0:0:0:0:
256,192,68111,1,2,0:0:0:0:
256,192,68321,1,0,0:0:0:0:
256,192,68530,1,2,0:0:0:0:
256,192,68635,1,2,0:0:0:0:
256,192,68740,1,2,0:0:0:0:
256,192,68950,1,2,0:0:0:0:
256,192,69370,1,2,0:0:0:0:
256,192,69579,1,2,0:0:0:0:
256,192,69789,1,0,0:0:0:0:
256,192,69999,1,2,0:0:0:0:
256,192,70209,1,2,0:0:0:0:
256,192,70314,1,2,0:0:0:0:
256,192,70419,1,2,0:0:0:0:
256,192,70628,1,2,0:0:0:0:
256,192,70838,1,2,0:0:0:0:
256,192,71048,1,0,0:0:0:0:
256,192,71467,1,0,0:0:0:0:
256,192,71677,1,2,0:0:0:0:
256,192,71887,1,2,0:0:0:0:
256,192,71992,1,2,0:0:0:0:
256,192,72097,1,2,0:0:0:0:
256,192,72307,1,0,0:0:0:0:
256,192,72726,1,6,0:0:0:0:
256,192,73146,1,2,0:0:0:0:
256,192,73460,1,2,0:0:0:0:
256,192,73565,1,0,0:0:0:0:
256,192,73775,1,2,0:0:0:0:
256,192,73985,1,2,0:0:0:0:
256,192,74405,1,2,0:0:0:0:
256,192,74614,1,0,0:0:0:0:
256,192,74824,1,2,0:0:0:0:
256,192,75034,1,0,0:0:0:0:
256,192,75244,1,2,0:0:0:0:
256,192,75349,1,2,0:0:0:0:
256,192,75453,1,2,0:0:0:0:
256,192,75663,1,2,0:0:0:0:
256,192,76083,1,2,0:0:0:0:
256,192,76293,1,2,0:0:0:0:
256,192,76502,1,0,0:0:0:0:
256,192,76712,1,2,0:0:0:0:
256,192,76922,1,2,0:0:0:0:
256,192,77027,1,2,0:0:0:0:
256,192,77132,1,2,0:0:0:0:
256,192,77342,1,2,0:0:0:0:
256,192,77551,1,4,0:0:0:0:
256,192,77971,1,2,0:0:0:0:
256,192,78181,1,4,0:0:0:0:
256,192,78600,1,0,0:0:0:0:
256,192,78810,1,0,0:0:0:0:
256,192,78915,1,0,0:0:0:0:
256,192,79020,1,0,0:0:0:0:
256,192,79230,1,2,0:0:0:0:
256,192,79440,1,6,0:0:0:0:
256,192,79649,1,2,0:0:0:0:
256,192,79859,1,0,0:0:0:0:
256,192,79964,1,0,0:0:0:0:
256,192,80069,1,0,0:0:0:0:
256,192,80279,1,2,0:0:0:0:
256,192,80384,1,2,0:0:0:0:
256,192,80488,1,2,0:0:0:0:
256,192,80698,1,0,0:0:0:0:
256,192,80908,1,2,0:0:0:0:
256,192,81118,1,4,0:0:0:0:
256,192,81432,1,2,0:0:0:0:
256,192,81537,1,0,0:0:0:0:
256,192,81747,1,2,0:0:0:0:
256,192,81957,1,2,0:0:0:0:
256,192,82166,1,0,0:0:0:0:
256,192,82376,1,2,0:0:0:0:
256,192,82796,1,0,0:0:0:0:
256,192,83111,1,2,0:0:0:0:
256,192,83215,1,0,0:0:0:0:
256,192,83425,1,2,0:0:0:0:
256,192,83635,1,2,0:0:0:0:
256,192,83845,1,0,0:0:0:0:
256,192,83950,1,0,0:0:0:0:
256,192,84055,1,0,0:0:0:0:
256,192,84474,1,4,0:0:0:0:
256,192,84789,1,2,0:0:0:0:
256,192,84894,1,0,0:0:0:0:
256,192,85104,1,2,0:0:0:0:
256,192,85313,1,2,0:0:0:0:
256,192,85523,1,0,0:0:0:0:
256,192,85733,1,2,0:0:0:0:
256,192,86152,1,2,0:0:0:0:
256,192,86362,1,4,0:0:0:0:
256,192,86782,1,4,0:0:0:0:
256,192,87201,1,4,0:0:0:0:
256,192,87411,1,2,0:0:0:0:
256,192,87621,1,0,0:0:0:0:
256,192,87831,1,4,0:0:0:0:
256,192,88041,8,0,88670,0:0:0:0:
