osu file format v14

[General]
AudioFilename: Smile Skill = Suki Skill!.mp3
AudioLeadIn: 0
PreviewTime: 52567
Countdown: 0
SampleSet: Normal
StackLeniency: 0.7
Mode: 1
LetterboxInBreaks: 0
WidescreenStoryboard: 1

[Editor]
DistanceSpacing: 1.4
BeatDivisor: 4
GridSize: 32
TimelineZoom: 0.4999999

[Metadata]
Title:Smile Skill = Suki Skill! (TV Size)
TitleUnicode:スマイルスキル=スキスキル!(TV Size)
Artist:Akaki Chikai
ArtistUnicode:赤き誓い
Creator:Cynplytholowazy
Version:Kantan
Source:私、能力は平均値でって言ったよね!
Tags:Watashi, Nōryoku Nouryoku wa Heikinchi de tte Itta yo ne! Didn't I Say to Make My Abilities Average in the Next Life?! Anime Japanese OP opening The Crimson Vow マイル 和氣あず未 レーナ 徳井青空 メーヴィス 内村史子 ポーリン 田澤茉純 Mile Waki Azumi Reina Touki Sora Mavis Uchimura Fumiko Pauline Tazawa Masumi 畑亜貴 Hata Aki tatsuo noukin 能均 God Bless me? Xinely
BeatmapID:2301588
BeatmapSetID:1101719

[Difficulty]
HPDrainRate:8
CircleSize:10
OverallDifficulty:2
ApproachRate:10
SliderMultiplier:1.4
SliderTickRate:1

[Events]
//Background and Video events
0,0,"pzte511jncDbuBP3OYJ-o.png",0,50
//Break Periods
//Storyboard Layer 0 (Background)
//Storyboard Layer 1 (Fail)
//Storyboard Layer 2 (Pass)
//Storyboard Layer 3 (Foreground)
//Storyboard Layer 4 (Overlay)
//Storyboard Sound Samples

[TimingPoints]
2238,419.58041958042,4,1,0,80,1,0
2238,-95.2380952380952,4,1,0,90,0,0
9161,-100,4,1,0,80,0,0
32342,-100,4,1,0,90,0,0
32447,419.58041958042,4,1,0,90,1,0
32447,-95.2380952380952,4,1,0,90,0,0
39370,-100,4,1,0,80,0,0
42412,-95.2380952380952,4,1,0,90,0,0
45768,-95.2380952380952,4,1,0,80,0,0
46083,-100,4,1,0,80,0,0
49230,-97.5609756097561,4,1,0,80,0,0
50856,-95.2380952380952,4,1,0,90,0,0
51118,-86.9565217391304,4,1,0,93,0,0
51537,-80,4,1,0,96,0,0
52534,-80,4,1,0,100,0,0
52586,-93.0232558139535,4,1,0,100,0,1
81013,-93.0232558139535,4,1,0,90,0,1
81118,419.58041958042,4,1,0,90,1,0
81118,-93.0232558139535,4,1,0,90,0,0
81327,-95.2380952380952,4,1,0,90,0,0

[HitObjects]
256,192,559,5,2,0:0:0:0:
256,192,979,1,2,0:0:0:0:
256,192,1398,1,0,0:0:0:0:
256,192,2238,1,4,0:0:0:0:
256,192,3077,1,2,0:0:0:0:
256,192,3496,1,2,0:0:0:0:
256,192,3916,1,0,0:0:0:0:
256,192,4755,1,2,0:0:0:0:
256,192,5594,1,4,0:0:0:0:
256,192,6433,1,2,0:0:0:0:
256,192,6853,1,2,0:0:0:0:
256,192,7272,1,4,0:0:0:0:
256,192,8112,1,2,0:0:0:0:
256,192,8531,1,2,0:0:0:0:
256,192,8951,1,4,0:0:0:0:
256,192,10210,1,2,0:0:0:0:
256,192,10629,1,0,0:0:0:0:
256,192,11468,1,0,0:0:0:0:
256,192,11888,1,0,0:0:0:0:
256,192,12307,1,2,0:0:0:0:
256,192,13147,1,0,0:0:0:0:
256,192,13566,1,2,0:0:0:0:
256,192,13986,1,0,0:0:0:0:
256,192,14825,1,2,0:0:0:0:
256,192,15244,1,0,0:0:0:0:
256,192,15664,1,2,0:0:0:0:
256,192,16084,1,2,0:0:0:0:
256,192,17342,1,2,0:0:0:0:
256,192,18182,1,2,0:0:0:0:
256,192,18601,1,0,0:0:0:0:
256,192,19021,1,2,0:0:0:0:
256,192,19860,1,0,0:0:0:0:
256,192,20279,1,2,0:0:0:0:
256,192,20699,1,2,0:0:0:0:
256,192,21119,1,0,0:0:0:0:
256,192,21538,1,2,0:0:0:0:
256,192,22377,1,6,0:0:0:0:
256,192,23217,1,0,0:0:0:0:
256,192,23636,1,2,0:0:0:0:
256,192,24056,1,4,0:0:0:0:
256,192,25314,1,0,0:0:0:0:
256,192,25734,1,6,0:0:0:0:
256,192,26573,1,2,0:0:0:0:
256,192,26993,1,2,0:0:0:0:
256,192,27412,1,4,0:0:0:0:
256,192,29091,1,4,0:0:0:0:
256,192,29510,1,2,0:0:0:0:
256,192,29930,1,0,0:0:0:0:
256,192,30559,1,6,0:0:0:0:
256,192,31608,1,2,0:0:0:0:
256,192,32028,1,2,0:0:0:0:
256,192,32447,1,4,0:0:0:0:
256,192,33286,1,2,0:0:0:0:
256,192,33705,1,2,0:0:0:0:
256,192,34125,1,0,0:0:0:0:
256,192,34964,1,2,0:0:0:0:
256,192,35803,1,4,0:0:0:0:
256,192,36642,1,2,0:0:0:0:
256,192,37062,1,2,0:0:0:0:
256,192,37481,1,4,0:0:0:0:
256,192,38321,1,2,0:0:0:0:
256,192,38740,1,2,0:0:0:0:
256,192,39160,1,4,0:0:0:0:
256,192,40628,1,6,0:0:0:0:
256,192,41258,1,2,0:0:0:0:
256,192,41677,1,4,0:0:0:0:
256,192,42516,1,6,0:0:0:0:
256,192,43356,1,2,0:0:0:0:
256,192,43775,1,2,0:0:0:0:
256,192,44195,1,0,0:0:0:0:
256,192,44614,1,0,0:0:0:0:
256,192,45034,1,2,0:0:0:0:
256,192,45873,1,4,0:0:0:0:
256,192,47342,1,6,0:0:0:0:
256,192,47971,1,0,0:0:0:0:
256,192,48391,1,4,0:0:0:0:
256,192,49230,1,6,0:0:0:0:
256,192,49649,1,0,0:0:0:0:
256,192,50069,1,2,0:0:0:0:
256,192,50488,1,0,0:0:0:0:
256,192,50908,1,6,0:0:0:0:
256,192,51328,1,6,0:0:0:0:
256,192,51747,1,4,0:0:0:0:
256,192,52586,1,6,0:0:0:0:
256,192,53845,1,2,0:0:0:0:
256,192,54265,1,2,0:0:0:0:
256,192,54684,1,0,0:0:0:0:
256,192,55104,1,2,0:0:0:0:
256,192,55943,1,2,0:0:0:0:
256,192,56363,1,2,0:0:0:0:
256,192,56782,1,2,0:0:0:0:
256,192,57202,1,0,0:0:0:0:
256,192,57621,1,2,0:0:0:0:
256,192,58460,1,2,0:0:0:0:
256,192,58880,1,0,0:0:0:0:
256,192,59300,1,6,0:0:0:0:
256,192,60558,1,2,0:0:0:0:
256,192,60978,1,2,0:0:0:0:
256,192,61398,1,0,0:0:0:0:
256,192,61817,1,2,0:0:0:0:
256,192,62656,1,2,0:0:0:0:
256,192,63076,1,2,0:0:0:0:
256,192,63495,1,2,0:0:0:0:
256,192,64125,1,4,0:0:0:0:
256,192,64754,1,6,0:0:0:0:
256,192,65593,1,2,0:0:0:0:
256,192,66013,1,6,0:0:0:0:
256,192,67272,1,2,0:0:0:0:
256,192,67692,1,2,0:0:0:0:
256,192,68111,1,0,0:0:0:0:
256,192,68531,1,2,0:0:0:0:
256,192,69370,1,2,0:0:0:0:
256,192,69790,1,2,0:0:0:0:
256,192,70209,1,2,0:0:0:0:
256,192,70629,1,0,0:0:0:0:
256,192,71048,1,2,0:0:0:0:
256,192,71887,1,2,0:0:0:0:
256,192,72307,1,0,0:0:0:0:
256,192,72727,1,6,0:0:0:0:
256,192,73985,1,2,0:0:0:0:
256,192,74405,1,2,0:0:0:0:
256,192,74825,1,0,0:0:0:0:
256,192,75244,1,2,0:0:0:0:
256,192,76083,1,2,0:0:0:0:
256,192,76503,1,2,0:0:0:0:
256,192,76922,1,2,0:0:0:0:
256,192,77551,5,4,0:0:0:0:
256,192,78181,1,4,0:0:0:0:
256,192,79020,1,2,0:0:0:0:
256,192,79440,1,6,0:0:0:0:
256,192,80279,1,2,0:0:0:0:
256,192,80698,1,0,0:0:0:0:
256,192,81118,1,4,0:0:0:0:
256,192,81957,1,2,0:0:0:0:
256,192,82376,1,2,0:0:0:0:
256,192,82796,1,0,0:0:0:0:
256,192,83635,1,2,0:0:0:0:
256,192,84474,1,4,0:0:0:0:
256,192,85313,1,2,0:0:0:0:
256,192,85733,5,2,0:0:0:0:
256,192,86362,1,4,0:0:0:0:
256,192,86782,1,4,0:0:0:0:
256,192,87201,1,4,0:0:0:0:
256,192,87831,12,0,88670,0:0:0:0:
