osu file format v14

[General]
AudioFilename: audio.mp3
AudioLeadIn: 0
PreviewTime: 80275
Countdown: 0
SampleSet: Normal
StackLeniency: 0.6
Mode: 0
LetterboxInBreaks: 0
WidescreenStoryboard: 0

[Editor]
Bookmarks: 19555,66760
DistanceSpacing: 1.8
BeatDivisor: 4
GridSize: 4
TimelineZoom: 1.5

[Metadata]
Title:Romantic Now
TitleUnicode:Romantic Now
Artist:Akagi Miria (CV.Kurosawa Tomoyo)
ArtistUnicode:赤城みりあ (CV.黒沢ともよ)
Creator:Snowy Dream
Version:MASTER
Source:アイドルマスター シンデレラガールズ
Tags:the idolm@ster cinderella girls idolmaster im@s starlight stage deresute スターライトステージ デレステ 346Pro IDOL selection vol.1 THE IDOLM@STER CINDERELLA MASTER 017 Akagi Miria
BeatmapID:1090385
BeatmapSetID:513122

[Difficulty]
HPDrainRate:6.2
CircleSize:4
OverallDifficulty:7
ApproachRate:8.5
SliderMultiplier:1.6
SliderTickRate:1

[Events]
//Background and Video events
0,0,"bg.jpg",0,0
//Break Periods
//Storyboard Layer 0 (Background)
//Storyboard Layer 1 (Fail)
//Storyboard Layer 2 (Pass)
//Storyboard Layer 3 (Foreground)
//Storyboard Sound Samples

[TimingPoints]
1923,352.941176470588,4,1,0,60,1,0
21775,-100,4,2,1,50,0,0
21952,-100,4,1,0,60,0,0
22128,-100,4,2,1,50,0,0
22305,-100,4,1,0,60,0,0
22481,-100,4,2,1,50,0,0
22658,-100,4,1,0,60,0,0
30246,-100,4,2,1,50,0,0
30422,-100,4,1,0,60,0,0
30599,-100,4,2,1,50,0,0
30775,-100,4,1,0,60,0,0
30952,-100,4,2,1,50,0,0
31128,-100,4,1,0,60,0,0
31305,-100,4,2,1,50,0,0
31481,-100,4,1,0,60,0,0
33070,-100,4,2,1,50,0,0
33246,-100,4,1,0,60,0,0
33422,-100,4,2,1,50,0,0
33599,-100,4,1,0,60,0,0
33775,-100,4,2,1,50,0,0
33952,-100,4,1,0,60,0,0
34128,-100,4,2,1,50,0,0
34305,-100,4,1,0,60,0,0
38187,-100,4,1,0,30,0,0
38364,-100,4,1,0,60,0,0
41143,-100,4,1,0,20,0,0
41231,-100,4,1,0,60,0,0
41320,-100,4,1,0,20,0,0
41408,-100,4,1,0,60,0,0
41893,-100,4,1,0,40,0,0
42422,-100,4,1,0,60,0,0
42775,-100,4,2,0,50,0,0
42952,-100,4,1,0,60,0,0
45599,-100,4,1,0,40,0,0
46128,-100,4,1,0,70,0,0
56717,-100,4,1,0,50,0,0
58305,-133.333333333333,4,2,1,60,0,0
67658,-133.333333333333,4,2,1,35,0,0
67834,-133.333333333333,4,2,1,50,0,0
68540,-133.333333333333,4,2,1,50,0,0
68717,-133.333333333333,4,2,1,50,0,0
68893,-133.333333333333,4,2,1,35,0,0
69070,-133.333333333333,4,2,1,50,0,0
80275,-133.333333333333,4,2,1,45,0,0
80981,-100,4,1,0,60,0,1
81158,-100,4,1,0,25,0,1
81334,-100,4,1,0,60,0,1
81511,-100,4,1,0,25,0,1
81687,-100,4,1,0,60,0,1
83893,-100,4,2,1,55,0,1
84158,-100,4,1,0,60,0,1
84246,-100,4,2,1,55,0,1
84511,-100,4,1,0,60,0,1
84599,-100,4,2,1,30,0,1
84864,-100,4,1,0,55,0,1
85834,-100,4,1,0,45,0,1
86275,-100,4,1,0,60,0,1
91922,-100,4,1,0,60,0,0
92275,-100,4,1,0,60,0,1
95187,-100,4,1,0,20,0,1
95364,-100,4,1,0,60,0,1
95540,-100,4,1,0,20,0,1
95717,-100,4,1,0,60,0,1
98011,-100,4,1,0,40,0,1
98187,-100,4,1,0,60,0,1
98364,-100,4,1,0,40,0,1
98540,-100,4,1,0,60,0,1
104981,-100,4,1,0,60,0,0

[Colours]
Combo1 : 248,165,39
Combo2 : 247,234,0
Combo3 : 253,84,28
Combo4 : 244,34,176
Combo5 : 52,111,248
Combo6 : 159,37,250
Combo7 : 2,249,88

[HitObjects]
53,269,1922,5,4,0:2:0:0:
110,201,2099,2,0,L|167:265,1,80
259,301,2452,2,0,L|241:268,4,20
341,236,2805,2,0,L|355:316,1,80
457,294,3158,2,0,L|478:315,4,20
438,191,3511,5,0,0:0:0:0:
495,104,3687,2,0,L|514:106,4,20
466,101,3952,1,0,0:0:0:0:
437,98,4040,1,0,0:0:0:0:
347,151,4217,2,0,L|304:78,1,80
202,75,4570,2,0,L|182:98,3,20
170,108,4746,6,0,L|88:100,1,80,4|0,0:2|0:0,0:0:0:0:
20,225,5099,2,0,L|102:233,1,80,4|0,0:2|0:0,0:0:0:0:
277,191,5452,2,0,L|195:183,1,80,4|0,0:2|0:0,0:0:0:0:
123,309,5805,2,0,L|205:317,1,80,4|0,0:2|0:0,0:0:0:0:
384,204,6158,5,0,0:0:0:0:
424,356,6334,1,0,0:0:0:0:
480,259,6511,1,0,0:0:0:0:
327,300,6687,1,0,0:0:0:0:
360,128,6864,5,0,0:0:0:0:
344,140,6952,1,0,0:0:0:0:
328,152,7040,1,0,0:0:0:0:
312,164,7128,1,0,0:0:0:0:
296,176,7217,1,8,0:0:0:0:
280,188,7305,1,0,0:0:0:0:
264,200,7393,1,0,0:0:0:0:
248,212,7481,1,0,0:0:0:0:
232,224,7570,5,4,0:2:0:0:
140,76,7922,1,0,0:0:0:0:
414,149,8275,1,0,0:0:0:0:
213,350,8628,1,0,0:0:0:0:
236,116,8981,5,0,0:0:0:0:
276,268,9158,1,0,0:0:0:0:
179,212,9334,1,0,0:0:0:0:
336,180,9511,1,0,0:0:0:0:
336,180,9864,1,8,0:0:0:0:
72,156,10393,6,0,L|56:320,1,160
440,228,11099,2,0,L|456:64,1,160
196,156,11805,5,0,0:0:0:0:
195,267,11981,1,0,0:0:0:0:
326,124,12158,1,0,0:0:0:0:
318,230,12334,1,0,0:0:0:0:
236,38,12687,1,8,0:0:0:0:
236,38,12864,1,8,0:0:0:0:
416,320,13217,5,4,0:2:0:0:
128,352,13570,1,0,0:0:0:0:
96,64,13922,1,0,0:0:0:0:
384,32,14275,1,0,0:0:0:0:
159,223,14628,5,0,0:0:0:0:
287,288,14805,1,0,0:0:0:0:
352,160,14981,1,0,0:0:0:0:
228,96,15158,1,0,0:0:0:0:
228,96,15511,1,8,0:0:0:0:
445,160,16040,6,0,P|427:240|363:273,1,160
66,223,16746,2,0,P|84:143|148:110,1,160
297,184,17452,5,0,0:0:0:0:
211,199,17628,1,0,0:0:0:0:
324,100,17805,1,0,0:0:0:0:
184,283,17981,1,0,0:0:0:0:
44,40,18334,5,0,0:0:0:0:
52,60,18422,1,0,0:0:0:0:
60,80,18511,1,0,0:0:0:0:
68,100,18599,1,0,0:0:0:0:
76,120,18687,1,0,0:0:0:0:
84,140,18775,1,0,0:0:0:0:
92,160,18864,6,0,P|168:136|244:160,1,160,4|8,0:2|0:0,0:0:0:0:
308,216,19393,1,0,0:0:0:0:
428,112,19570,2,0,P|410:147|380:173,1,80
308,216,19922,1,8,0:0:0:0:
472,356,20099,2,0,P|388:340|340:284,1,160
252,272,20628,2,0,P|216:288|188:320,1,80,8|0,0:0|0:0,0:0:0:0:
104,332,20981,2,0,P|68:316|40:284,2,80,0|0|8,0:0|0:0|0:0,0:0:0:0:
120,244,21511,1,0,0:0:0:0:
84,88,21687,6,0,P|100:125|134:145,1,80
248,52,22040,2,0,P|208:47|173:65,1,80,8|0,0:0|0:0,0:0:0:0:
200,212,22393,2,0,P|223:180|225:141,1,80
308,116,22746,1,8,0:0:0:0:
452,276,22922,2,0,P|372:256|336:192,1,160
392,124,23452,2,0,P|424:100|440:64,1,80,8|0,0:0|0:0,0:0:0:0:
448,41,23717,1,0,0:0:0:0:
443,17,23805,1,0,0:0:0:0:
358,42,23981,1,0,0:0:0:0:
244,132,24158,1,8,0:0:0:0:
236,113,24246,1,0,0:0:0:0:
228,94,24334,1,0,0:0:0:0:
220,75,24422,1,0,0:0:0:0:
212,56,24511,6,0,P|138:85|62:61,1,160,0|8,0:0|0:0,0:0:0:0:
52,149,25040,1,0,0:0:0:0:
55,311,25217,2,0,P|70:274|69:235,1,80
52,149,25570,1,8,0:0:0:0:
281,211,25746,2,0,P|202:218|132:183,1,160
121,95,26275,2,0,L|165:22,1,80,8|0,0:0|0:0,0:0:0:0:
313,84,26628,2,0,L|233:82,1,80
386,128,26981,2,0,L|424:198,1,80,8|0,0:0|0:0,0:0:0:0:
346,330,27334,6,0,P|242:289|253:178,1,240,4|0,0:2|0:0,0:0:0:0:
322,241,28040,1,0,0:0:0:0:
244,93,28393,1,0,0:0:0:0:
328,65,28570,1,0,0:0:0:0:
153,243,28746,2,0,P|176:161|58:91,1,240,4|0,0:2|0:0,0:0:0:0:
85,180,29452,2,0,P|62:211|58:252,1,80
112,320,29805,1,0,0:0:0:0:
130,326,29893,1,0,0:0:0:0:
148,332,29981,1,0,0:0:0:0:
168,329,30070,1,0,0:0:0:0:
187,326,30158,6,0,B|226:317|226:317|266:330,1,80,4|0,0:2|0:0,0:0:0:0:
374,228,30511,2,0,B|335:237|335:237|295:224,1,80
126,178,30864,2,0,B|164:189|164:189|192:220,1,80
370,98,31217,2,0,B|331:86|331:86|303:55,1,80
109,33,31570,5,0,0:0:0:0:
75,113,31746,1,0,0:0:0:0:
203,33,31922,1,0,0:0:0:0:
236,113,32099,1,0,0:0:0:0:
450,46,32452,1,8,0:0:0:0:
200,249,32981,6,0,L|138:310,1,80,4|0,0:2|0:0,0:0:0:0:
312,249,33334,2,0,L|374:310,1,80
313,136,33687,2,0,L|374:74,1,80
200,135,34040,2,0,L|138:74,1,80
255,88,34393,5,0,0:0:0:0:
257,296,34570,1,0,0:0:0:0:
152,191,34746,1,0,0:0:0:0:
360,191,34922,1,0,0:0:0:0:
158,65,35628,5,0,0:0:0:0:
158,65,35805,2,0,P|127:92|117:136,1,80,4|0,0:2|0:0,0:0:0:0:
204,140,36158,1,0,0:0:0:0:
274,289,36334,2,0,P|198:271|151:209,1,160
117,128,36864,2,0,P|93:94|62:73,2,80
67,200,37393,2,0,P|58:240|65:286,1,80
260,341,37746,2,0,P|216:276|144:245,1,160
143,245,38275,1,0,0:0:0:0:
379,89,38628,6,0,P|366:49|374:5,2,80
484,183,39158,2,0,P|492:99|448:42,1,160
401,195,39687,1,0,0:0:0:0:
432,344,39864,1,0,0:0:0:0:
287,297,40040,1,0,0:0:0:0:
459,260,40217,1,0,0:0:0:0:
346,362,40393,1,0,0:0:0:0:
165,221,40570,2,0,P|239:193|319:215,1,160
356,134,41099,2,0,L|378:174,1,40
444,74,41275,2,0,L|434:122,1,40
360,56,41452,6,0,P|317:66|288:94,1,80
202,87,41805,1,0,0:0:0:0:
174,310,41981,2,0,P|140:239|156:162,1,160
452,267,42687,2,0,P|413:278|369:277,1,80,4|0,0:2|0:0,0:0:0:0:
371,68,43040,2,0,P|324:132|314:210,2,160
106,122,44099,1,0,0:0:0:0:
163,56,44275,6,0,P|187:89|194:127,1,80
50,190,44628,2,0,P|25:156|18:118,1,80
138,206,44981,2,0,P|120:243|91:268,2,80
226,208,45511,1,0,0:0:0:0:
442,244,45687,6,0,P|385:189|308:179,1,160
237,124,46217,1,0,0:0:0:0:
234,104,46305,1,0,0:0:0:0:
231,84,46393,1,0,0:0:0:0:
319,95,46570,2,0,P|360:87|393:63,1,80,2|0,0:0|0:0,0:0:0:0:
321,11,46922,1,0,0:0:0:0:
133,154,47099,6,0,P|67:107|68:25,1,160,4|0,0:2|0:0,0:0:0:0:
145,66,47628,2,0,L|6:149,1,160
130,336,48158,1,0,0:0:0:0:
62,208,48334,1,0,0:0:0:0:
215,29,48511,2,0,P|281:76|280:158,1,160,0|0,0:2|0:0,0:0:0:0:
203,117,49040,2,0,L|342:34,1,160
371,118,49570,1,0,0:0:0:0:
447,306,49746,1,0,0:0:0:0:
431,292,49834,1,0,0:0:0:0:
415,278,49922,6,0,P|337:303|268:275,1,160
200,216,50452,1,0,0:0:0:0:
135,156,50628,2,0,P|169:135|208:133,1,80
239,137,50893,1,0,0:0:0:0:
267,152,50981,2,0,P|306:162|348:153,1,80
447,30,51334,2,0,P|366:34|306:85,1,160
386,280,51864,2,0,P|423:207|408:130,1,160
409,132,52393,1,0,0:0:0:0:
242,341,52570,6,0,P|254:257|322:228,1,160
391,359,53099,2,0,L|325:315,1,80,8|0,0:0|0:0,0:0:0:0:
259,106,53452,2,0,L|325:150,1,80
402,106,53805,1,0,0:0:0:0:
202,166,53981,2,0,P|173:90|222:30,1,160
259,106,54511,2,0,L|328:64,1,80
218,243,54864,2,0,L|149:285,1,80
62,268,55217,1,0,0:0:0:0:
65,84,55393,5,0,0:0:0:0:
65,84,55570,2,0,P|103:98|142:94,1,80
226,72,55922,1,0,0:0:0:0:
362,162,56099,1,0,0:0:0:0:
362,162,56275,2,0,P|320:153|294:126,1,80
226,72,56628,1,0,0:0:0:0:
310,44,56805,1,0,0:0:0:0:
402,232,56981,6,0,P|415:271|408:310,2,80
325,276,57511,1,0,0:0:0:0:
245,239,57687,2,0,L|192:301,1,80
36,308,58040,2,0,L|89:246,1,80,8|0,0:0|0:0,0:0:0:0:
35,79,58393,6,0,P|95:85|150:133,1,120.000004577637,4|2,0:2|0:0,0:0:0:0:
214,162,58922,1,0,3:0:0:0:
258,233,59099,2,0,P|293:186|289:127,1,120.000004577637,0|2,3:0|0:0,0:0:0:0:
452,55,59628,1,0,0:0:0:0:
452,55,59805,2,0,P|394:41|338:59,1,120.000004577637,0|2,3:0|0:0,0:0:0:0:
503,240,60334,2,0,P|514:182|501:124,1,120.000004577637,0|0,3:0|3:0,0:0:0:0:
501,124,60864,1,8,0:1:0:0:
452,310,61040,1,0,0:0:0:0:
441,299,61128,1,0,0:0:0:0:
429,288,61217,6,0,P|368:287|313:315,1,120.000004577637,0|2,3:0|0:0,0:0:0:0:
230,306,61746,1,0,3:0:0:0:
141,232,61922,2,0,P|195:258|231:309,1,120.000004577637,0|2,3:0|0:0,0:0:0:0:
70,269,62628,2,0,P|62:208|95:163,1,120.000004577637,0|2,3:0|0:0,0:0:0:0:
179,154,63158,2,0,P|213:106|205:48,1,120.000004577637,0|8,3:0|0:1,0:0:0:0:
140,232,63687,1,8,0:1:0:0:
294,136,63864,1,0,0:0:0:0:
294,136,64040,6,0,P|346:167|405:161,1,120.000004577637,0|2,3:0|0:0,0:0:0:0:
483,183,64570,1,0,3:0:0:0:
483,183,64746,2,0,P|514:235|500:299,1,120.000004577637,0|2,3:0|0:0,0:0:0:0:
431,249,65275,1,0,0:0:0:0:
305,338,65452,2,0,P|302:280|340:234,1,120.000004577637,0|2,3:0|0:0,0:0:0:0:
384,307,65981,2,0,L|268:272,1,120.000004577637,0|0,3:0|0:0,0:0:0:0:
254,269,66422,1,0,0:0:0:0:
239,264,66511,1,8,0:1:0:0:
220,345,66687,1,0,0:0:0:0:
135,141,66864,6,0,P|102:220|159:285,1,180.000006866455,0|0,3:0|3:0,0:0:0:0:
190,206,67570,2,0,L|229:160,1,60.0000022888184,0|0,3:0|0:0,0:0:0:0:
284,97,67922,1,2,0:0:0:0:
378,172,68099,1,0,3:0:0:0:
363,161,68187,1,0,3:0:0:0:
348,150,68275,1,0,3:0:0:0:
406,29,68452,2,0,L|359:66,1,60.0000022888184,0|2,3:0|0:0,0:0:0:0:
337,252,68805,2,0,L|289:215,1,60.0000022888184,0|0,3:0|3:0,0:0:0:0:
430,106,69158,1,8,0:1:0:0:
415,234,69334,1,8,0:1:0:0:
293,95,69511,5,0,0:0:0:0:
272,89,69599,1,0,0:0:0:0:
251,85,69687,2,0,P|166:93|109:164,1,180.000006866455,0|0,3:0|3:0,0:0:0:0:
60,231,70393,2,0,P|116:247|169:221,1,120.000004577637,0|2,3:0|0:0,0:0:0:0:
31,152,70922,1,0,0:0:0:0:
241,261,71099,2,0,P|247:196|215:151,1,120.000004577637,0|2,3:0|0:0,0:0:0:0:
293,116,71628,2,0,L|339:70,1,60.0000022888184,0|0,3:0|3:0,0:0:0:0:
447,157,71981,1,0,0:0:0:0:
439,140,72070,1,0,0:0:0:0:
431,123,72158,2,0,L|385:169,1,60.0000022888184,8|0,0:1|0:0,0:0:0:0:
326,309,72511,6,0,P|299:256|311:199,1,120.000004577637,0|2,3:0|0:0,0:0:0:0:
199,356,73040,2,0,L|235:299,1,60.0000022888184,0|0,3:0|3:0,0:0:0:0:
100,311,73393,2,0,L|59:264,2,60.0000022888184,0|2|0,0:0|3:0|0:0,0:0:0:0:
129,127,73922,1,0,0:0:0:0:
129,127,74099,2,0,P|153:180|136:237,1,120.000004577637,0|2,3:0|3:0,0:0:0:0:
68,188,74628,1,0,3:0:0:0:
147,16,74805,1,8,0:1:0:0:
232,117,74981,1,8,0:1:0:0:
358,75,75158,1,0,0:0:0:0:
373,83,75246,1,0,0:0:0:0:
389,90,75334,6,0,P|345:129|332:188,1,120.000004577637,0|2,3:0|0:0,0:0:0:0:
360,266,75864,1,0,3:0:0:0:
495,334,76040,2,0,P|482:276|438:235,1,120.000004577637,0|2,3:0|0:0,0:0:0:0:
209,342,76570,2,0,P|265:360|322:341,2,120.000004577637,0|0|0,3:0|3:0|3:0,0:0:0:0:
126,323,77452,1,0,3:0:0:0:
126,323,77628,2,0,P|96:332|69:351,2,60.0000022888184,0|2|0,3:0|0:0|0:0,0:0:0:0:
166,147,78158,6,0,P|190:200|182:261,1,120.000004577637,0|0,3:0|3:2,0:0:0:0:
147,38,78864,1,0,3:0:0:0:
416,168,79217,1,0,3:0:0:0:
416,168,79393,1,0,3:0:0:0:
104,248,79746,1,0,0:0:0:0:
336,32,80099,1,0,0:0:0:0:
165,199,80452,5,0,0:0:0:0:
96,8,80628,1,2,0:0:0:0:
34,138,80805,1,0,0:0:0:0:
225,68,80981,2,0,P|282:93|315:144,1,120,4|0,0:2|0:0,0:0:0:0:
337,209,81334,2,0,P|353:265|405:309,1,120,8|0,0:0|0:0,0:0:0:0:
472,303,81687,2,0,P|431:375|357:370,1,160,0|8,0:0|0:0,0:0:0:0:
233,333,82217,6,0,P|154:320|78:348,1,160
10,157,82746,1,8,0:0:0:0:
66,265,82922,1,0,0:0:0:0:
166,197,83099,1,0,0:0:0:0:
60,56,83275,1,0,0:0:0:0:
75,69,83364,1,0,0:0:0:0:
89,82,83452,1,8,0:0:0:0:
158,28,83628,2,0,L|171:71,1,40
238,90,83805,6,0,P|272:68|313:60,1,80,2|0,0:0|0:0,0:0:0:0:
357,68,84070,1,2,0:0:0:0:
395,96,84158,2,0,P|415:132|415:173,1,80,10|0,0:0|0:0,0:0:0:0:
412,217,84422,1,2,0:0:0:0:
394,262,84511,2,0,P|358:287|315:290,1,80,2|0,0:0|0:0,0:0:0:0:
275,293,84775,1,2,0:0:0:0:
231,271,84864,1,8,0:0:0:0:
139,135,85040,2,0,P|182:137|218:153,1,80
377,113,85393,6,0,P|390:75|380:37,2,80,0|8|0,0:0|0:0|0:0,0:0:0:0:
358,144,85834,1,0,0:0:0:0:
326,161,85922,1,0,0:0:0:0:
291,170,86011,1,0,0:0:0:0:
255,170,86099,1,0,0:0:0:0:
219,164,86187,1,0,0:0:0:0:
185,151,86275,2,0,P|159:182|154:228,1,80,8|0,0:0|0:0,0:0:0:0:
257,79,86628,6,0,P|233:42|203:19,1,80,2|0,0:0|0:0,0:0:0:0:
83,101,86981,2,0,P|94:57|118:28,1,80,10|0,0:0|0:0,0:0:0:0:
30,209,87334,2,0,P|100:172|185:193,1,160,2|8,0:0|0:0,0:0:0:0:
333,331,87864,2,0,P|258:308|229:238,1,160
361,187,88393,2,0,P|348:223|314:249,2,80,8|0|0,0:0|0:0|0:0,0:0:0:0:
415,326,88922,1,0,0:0:0:0:
410,306,89011,1,0,0:0:0:0:
405,286,89099,2,0,L|482:322,1,80,8|0,0:0|0:0,0:0:0:0:
506,197,89452,6,0,L|429:161,1,80
283,28,89805,2,0,L|360:64,1,80,8|0,0:0|0:0,0:0:0:0:
259,276,90158,2,0,L|174:283,1,80
40,77,90511,2,0,L|124:69,1,80,8|0,0:0|0:0,0:0:0:0:
35,285,90864,5,0,0:0:0:0:
44,258,90952,1,0,0:0:0:0:
63,238,91040,1,0,0:0:0:0:
86,222,91128,1,0,0:0:0:0:
112,212,91217,1,8,0:0:0:0:
139,207,91305,1,0,0:0:0:0:
166,208,91393,1,0,0:0:0:0:
193,212,91481,1,0,0:0:0:0:
219,220,91570,2,0,P|296:239|364:197,1,160,0|2,0:0|0:2,0:0:0:0:
66,51,92275,6,0,P|107:53|139:77,1,80,4|0,0:2|0:0,0:0:0:0:
96,153,92628,2,0,P|123:183|129:223,1,80,8|0,0:0|0:0,0:0:0:0:
153,320,92981,2,0,P|77:286|44:215,1,160,0|8,0:0|0:0,0:0:0:0:
207,229,93511,2,0,P|258:288|250:365,1,160
199,147,94040,2,0,P|229:120|269:108,1,80,8|0,0:0|0:0,0:0:0:0:
356,125,94393,1,0,0:0:0:0:
368,252,94570,1,0,0:0:0:0:
391,246,94658,1,0,0:0:0:0:
415,241,94746,1,8,0:0:0:0:
266,184,94922,1,0,0:0:0:0:
152,108,95099,6,0,L|88:52,1,80,2|0,0:0|0:0,0:0:0:0:
91,328,95452,2,0,L|152:276,1,80,2|0,0:0|0:0,0:0:0:0:
416,136,95805,5,0,0:0:0:0:
294,254,95981,1,0,0:0:0:0:
415,254,96158,1,8,0:0:0:0:
294,134,96334,2,0,B|246:98|246:98|290:67|295:11,1,160
353,86,96864,1,8,0:0:0:0:
151,70,97040,1,0,0:0:0:0:
158,92,97128,1,0,0:0:0:0:
162,115,97217,2,0,P|122:127|93:151,1,80
95,299,97570,2,0,P|135:287|164:263,1,80,8|0,0:0|0:0,0:0:0:0:
340,85,97922,6,0,P|324:123|328:165,1,80,2|0,0:0|0:0,0:0:0:0:
470,184,98275,2,0,P|446:152|410:135,1,80,10|0,0:0|0:0,0:0:0:0:
316,246,98628,2,0,P|355:241|389:220,2,80,2|0|8,0:0|0:0|0:0,0:0:0:0:
155,98,99158,2,0,P|171:176|229:230,1,160
19,108,99687,2,0,P|58:95|86:65,2,80,8|0|0,0:0|0:0|0:0,0:0:0:0:
7,19,100217,1,0,0:0:0:0:
7,19,100305,1,0,0:0:0:0:
7,19,100393,1,8,0:0:0:0:
144,22,100570,1,0,0:0:0:0:
83,168,100746,5,2,0:0:0:0:
73,280,100922,1,0,0:0:0:0:
64,261,101011,1,0,0:0:0:0:
55,243,101099,1,8,0:0:0:0:
244,97,101275,1,0,0:0:0:0:
213,212,101452,1,2,0:0:0:0:
288,309,101628,1,0,0:0:0:0:
270,297,101717,1,0,0:0:0:0:
254,284,101805,1,8,0:0:0:0:
350,138,101981,1,0,0:0:0:0:
435,261,102158,6,0,L|459:184,1,80
354,330,102511,2,0,L|330:253,1,80,0|0,0:0|0:0,0:0:0:0:
209,124,102864,1,0,0:0:0:0:
199,146,102952,1,0,0:0:0:0:
190,168,103040,1,0,0:0:0:0:
181,190,103128,1,0,0:0:0:0:
171,212,103217,1,0,0:0:0:0:
162,234,103305,1,0,0:0:0:0:
153,256,103393,1,0,0:0:0:0:
144,278,103481,1,0,0:0:0:0:
135,300,103570,1,4,0:2:0:0:
256,192,103658,12,4,104981,0:2:0:0:
439,182,105334,5,0,0:0:0:0:
170,353,105687,1,0,0:0:0:0:
156,38,106040,1,0,0:0:0:0:
356,346,106393,5,0,0:0:0:0:
225,284,106570,1,0,0:0:0:0:
343,203,106746,1,0,0:0:0:0:
356,346,106922,1,0,0:0:0:0:
156,38,107275,1,8,0:0:0:0:
109,312,107805,5,0,0:0:0:0:
376,339,108158,1,0,0:0:0:0:
403,72,108511,1,0,0:0:0:0:
136,45,108864,1,0,0:0:0:0:
255,279,109217,5,0,0:0:0:0:
255,103,109393,1,0,0:0:0:0:
167,191,109570,1,0,0:0:0:0:
343,191,109746,1,0,0:0:0:0:
256,192,110099,5,2,2:0:0:0:
