osu file format v14

[General]
AudioFilename: audio.mp3
AudioLeadIn: 0
PreviewTime: 99226
Countdown: 0
SampleSet: Soft
StackLeniency: 0.2
Mode: 0
LetterboxInBreaks: 0
WidescreenStoryboard: 0

[Editor]
DistanceSpacing: 1.8
BeatDivisor: 4
GridSize: 16
TimelineZoom: 2.1

[Metadata]
Title:Pensamento Tipico De Buzina Doce Futurista
TitleUnicode:Pensamento Tipico De Buzina Doce Futurista
Artist:AkaeBoshi
ArtistUnicode:AkaeBoshi
Creator:Akaeboshi
Version:The Ultimate Mashup garotada
Source:
Tags:
BeatmapID:2197183
BeatmapSetID:1051329

[Difficulty]
HPDrainRate:4.5
CircleSize:3.8
OverallDifficulty:9
ApproachRate:9.6
SliderMultiplier:1.8
SliderTickRate:1

[Events]
//Background and Video events
0,0,"wallpapis fofu.jpg",0,0
//Break Periods
2,728,7685
//Storyboard Layer 0 (Background)
//Storyboard Layer 1 (Fail)
//Storyboard Layer 2 (Pass)
//Storyboard Layer 3 (Foreground)
//Storyboard Layer 4 (Overlay)
//Storyboard Sound Samples

[TimingPoints]
528,333.333333333333,4,2,1,35,1,0
9444,-100,4,2,1,5,0,0
11589,333.333333333333,4,2,1,35,1,0
12019,333.333333333333,4,2,1,60,1,0
12089,333.333333333333,4,2,1,100,1,0
12089,-80,4,2,1,60,0,0
12339,-80,4,2,1,5,0,0
12422,-80,4,2,1,60,0,0
13005,-80,4,2,1,5,0,0
13088,-80,4,2,1,60,0,0
13672,-80,4,2,1,5,0,0
13755,-80,4,2,1,60,0,0
15005,-80,4,2,1,5,0,0
15088,-80,4,2,1,60,0,0
16338,-80,4,2,1,5,0,0
16422,-80,4,2,1,60,0,0
16838,-80,4,2,1,5,0,0
16922,-80,4,2,1,60,0,0
17005,-80,4,2,1,5,0,0
17088,-80,4,2,1,60,0,0
17172,-80,4,2,1,5,0,0
17255,-80,4,2,1,60,0,0
17338,-80,4,2,1,5,0,0
17422,-80,4,2,1,60,0,0
22755,-100,4,2,1,60,0,0
23005,-100,4,2,1,5,0,0
23088,-100,4,2,1,60,0,0
23338,-100,4,2,1,5,0,0
23422,-100,4,2,1,60,0,0
24088,-100,4,2,1,60,0,0
24338,-100,4,2,1,5,0,0
24422,-100,4,2,1,60,0,0
24672,-100,4,2,1,5,0,0
24755,-100,4,2,1,60,0,0
25672,-100,4,2,1,5,0,0
25755,-100,4,2,1,60,0,0
26005,-100,4,2,1,5,0,0
26088,-100,4,2,1,60,0,0
27005,-100,4,2,1,5,0,0
27088,-100,4,2,1,60,0,0
27338,-100,4,2,1,5,0,0
27422,-100,4,2,1,60,0,0
28088,-74.0740740740741,4,2,1,60,0,0
28338,-74.0740740740741,4,2,1,5,0,0
28422,-74.0740740740741,4,2,1,60,0,0
29422,-57.1428571428571,4,2,1,60,0,0
32377,333.333333333333,4,2,1,100,1,0
32377,-333.333333333333,4,2,1,100,0,0
33377,-100,4,2,1,60,0,0
33710,-60.6060606060606,4,2,1,60,0,0
38293,-76.9230769230769,4,2,1,60,0,0
38710,-60.6060606060606,4,2,1,60,0,0
43210,-66.6666666666667,4,2,1,60,0,0
44043,-222.222222222222,4,2,1,60,0,0
44376,-60.6060606060606,4,2,1,60,0,0
54043,-117.647058823529,4,2,1,60,0,0
54710,-66.6666666666667,4,2,1,60,0,0
55043,-66.6666666666667,4,2,1,60,0,0
59376,-100,4,2,1,60,0,0
60043,-60.6060606060606,4,2,1,60,0,0
61876,-66.6666666666667,4,2,1,60,0,0
62043,-74.0740740740741,4,2,1,60,0,0
62376,-60.6060606060606,4,2,1,60,0,0
64710,-100,4,2,1,60,0,0
67576,333.333333333333,4,2,1,100,1,0
68060,333.333333333333,4,2,1,45,1,0
68060,-80,4,2,1,45,0,0
74726,-50,4,2,1,45,0,0
74810,-50,4,2,1,5,0,0
75060,-50,4,2,1,45,0,0
76726,-50,4,2,1,45,0,0
76809,-50,4,2,1,5,0,0
77059,-50,4,2,1,45,0,0
77143,-50,4,2,1,5,0,0
77393,-50,4,2,1,45,0,0
78726,-86.9565217391304,4,2,1,45,0,0
85559,-28.169014084507,4,2,1,45,0,0
86726,-80,4,2,1,45,0,0
86976,-80,4,2,1,5,0,0
87059,-80,4,2,1,45,0,0
89643,-80,4,2,1,5,0,0
89726,-80,4,2,1,45,0,0
90309,-80,4,2,1,5,0,0
90393,-80,4,2,1,45,0,0
90976,-80,4,2,1,5,0,0
91059,-80,4,2,1,45,0,0
92309,-80,4,2,1,5,0,0
92393,-80,4,2,1,45,0,0
93643,-80,4,2,1,5,0,0
93726,-80,4,2,1,45,0,0
94143,-80,4,2,1,5,0,0
94226,-80,4,2,1,45,0,0
100059,-100,4,2,1,45,0,0
100309,-100,4,2,1,5,0,0
100393,-100,4,2,1,45,0,0
100643,-100,4,2,1,5,0,0
100726,-100,4,2,1,45,0,0
101643,-100,4,2,1,5,0,0
101726,-100,4,2,1,45,0,0
101976,-100,4,2,1,5,0,0
102059,-100,4,2,1,45,0,0
104059,-74.0740740740741,4,2,1,45,0,0
104309,-74.0740740740741,4,2,1,5,0,0
104393,-74.0740740740741,4,2,1,45,0,0
105643,-74.0740740740741,4,2,1,5,0,0
105726,-74.0740740740741,4,2,1,45,0,0
110726,-74.0740740740741,4,2,1,45,0,0
110893,-74.0740740740741,4,2,1,5,0,0
110976,-74.0740740740741,4,2,1,45,0,0
111059,-74.0740740740741,4,2,1,45,0,0
111143,-74.0740740740741,4,2,1,5,0,0
111226,-74.0740740740741,4,2,1,45,0,0
111309,-74.0740740740741,4,2,1,5,0,0
111393,-74.0740740740741,4,2,1,45,0,0
111559,-74.0740740740741,4,2,1,5,0,0
111643,-74.0740740740741,4,2,1,45,0,0
111809,-74.0740740740741,4,2,1,5,0,0
111893,-74.0740740740741,4,2,1,45,0,0
112226,-74.0740740740741,4,2,1,5,0,0
112309,-74.0740740740741,4,2,1,45,0,0
112476,-74.0740740740741,4,2,1,5,0,0
112559,-74.0740740740741,4,2,1,45,0,0
112643,-74.0740740740741,4,2,1,5,0,0
112726,-74.0740740740741,4,2,1,45,0,0
113393,-74.0740740740741,4,2,1,45,0,0
113559,-74.0740740740741,4,2,1,5,0,0
113643,-74.0740740740741,4,2,1,45,0,0
113726,-74.0740740740741,4,2,1,45,0,0
113809,-74.0740740740741,4,2,1,5,0,0
113893,-74.0740740740741,4,2,1,45,0,0
113976,-74.0740740740741,4,2,1,5,0,0
114059,-74.0740740740741,4,2,1,45,0,0
114226,-74.0740740740741,4,2,1,5,0,0
114309,-74.0740740740741,4,2,1,45,0,0
114476,-74.0740740740741,4,2,1,5,0,0
114559,-74.0740740740741,4,2,1,45,0,0
114893,-74.0740740740741,4,2,1,5,0,0
114976,-74.0740740740741,4,2,1,45,0,0
115143,-74.0740740740741,4,2,1,5,0,0
115226,-74.0740740740741,4,2,1,45,0,0
115309,-74.0740740740741,4,2,1,5,0,0
115393,-74.0740740740741,4,2,1,45,0,0
116226,-74.0740740740741,4,2,1,5,0,0
116309,-74.0740740740741,4,2,1,45,0,0
116476,-74.0740740740741,4,2,1,5,0,0
116559,-74.0740740740741,4,2,1,45,0,0
116643,-74.0740740740741,4,2,1,5,0,0
116726,-74.0740740740741,4,2,1,45,0,0
116893,-74.0740740740741,4,2,1,5,0,0
116976,-74.0740740740741,4,2,1,45,0,0
117143,-74.0740740740741,4,2,1,5,0,0
117226,-74.0740740740741,4,2,1,45,0,0
117559,-74.0740740740741,4,2,1,5,0,0
117643,-74.0740740740741,4,2,1,45,0,0
117809,-74.0740740740741,4,2,1,5,0,0
117893,-74.0740740740741,4,2,1,45,0,0
117976,-74.0740740740741,4,2,1,5,0,0
118059,-74.0740740740741,4,2,1,45,0,0
118893,-74.0740740740741,4,2,1,5,0,0
118976,-74.0740740740741,4,2,1,45,0,0
119143,-74.0740740740741,4,2,1,5,0,0
119226,-74.0740740740741,4,2,1,45,0,0
119309,-74.0740740740741,4,2,1,5,0,0
119393,-74.0740740740741,4,2,1,45,0,0
119559,-74.0740740740741,4,2,1,5,0,0
119643,-74.0740740740741,4,2,1,45,0,0
119809,-74.0740740740741,4,2,1,5,0,0
119893,-74.0740740740741,4,2,1,45,0,0
119976,-74.0740740740741,4,2,1,5,0,0
120059,-74.0740740740741,4,2,1,45,0,0
121393,-58.8235294117647,4,2,1,45,0,0
122393,-45.4545454545455,4,2,1,45,0,0
122726,-60.6060606060606,4,2,1,45,0,0
123726,-45.4545454545455,4,2,1,45,0,0
124059,-60.6060606060606,4,2,1,45,0,0
125059,-45.4545454545455,4,2,1,45,0,0
125393,-60.6060606060606,4,2,1,45,0,0
127726,-45.4545454545455,4,2,1,45,0,0
128059,-60.6060606060606,4,2,1,45,0,0
129059,-45.4545454545455,4,2,1,45,0,0
129393,-60.6060606060606,4,2,1,45,0,0
130393,-45.4545454545455,4,2,1,45,0,0
130726,-60.6060606060606,4,2,1,45,0,0

[Colours]
Combo1 : 255,192,0
Combo2 : 100,177,255
Combo3 : 255,255,0
Combo4 : 97,204,0

[HitObjects]
256,192,528,5,0,0:0:0:0:
256,192,8194,12,0,9444,0:0:0:0:
92,184,11589,5,0,0:0:0:0:
160,304,11755,1,0,0:0:0:0:
224,128,11922,1,0,0:0:0:0:
355,277,12089,6,0,L|173:209,1,168.75
92,184,12422,5,0,0:0:0:0:
224,128,12589,1,0,0:0:0:0:
15,19,12755,6,0,B|133:42|133:42|181:84,1,168.75
224,128,13088,5,0,0:0:0:0:
160,304,13255,1,0,0:0:0:0:
299,210,13422,6,0,B|359:155|359:155|442:127,1,168.75
512,109,13755,5,0,0:0:0:0:
341,8,13922,1,0,0:0:0:0:
497,198,14088,1,0,0:0:0:0:
418,26,14255,1,0,0:0:0:0:
224,128,14422,1,0,0:0:0:0:
341,8,14588,1,0,0:0:0:0:
386,184,14755,6,0,B|426:299|426:299|456:338,1,168.75
512,384,15088,5,0,0:0:0:0:
321,273,15255,1,0,0:0:0:0:
222,384,15422,1,0,0:0:0:0:
385,319,15588,1,0,0:0:0:0:
196,217,15755,1,0,0:0:0:0:
222,384,15922,1,0,0:0:0:0:
80,265,16088,6,0,B|31:213|31:213|20:116,1,168.75
91,10,16422,1,0,0:0:0:0:
256,120,16588,2,0,B|180:180|180:180|108:182,1,168.75
0,187,16922,6,0,P|23:202|35:227,1,56.25
174,268,17088,2,0,P|149:280|121:278,1,56.25
16,378,17255,2,0,P|17:350|33:327,1,56.25
246,237,17422,6,0,B|275:219|275:219|358:237,1,112.5
508,271,17755,1,0,0:0:0:0:
361,384,17922,1,0,0:0:0:0:
351,164,18088,1,0,0:0:0:0:
435,319,18255,1,0,0:0:0:0:
235,314,18422,1,0,0:0:0:0:
404,102,18588,1,0,0:0:0:0:
241,32,18755,2,0,B|207:20|207:20|91:64,1,112.5
0,88,19088,5,0,0:0:0:0:
20,213,19255,1,0,0:0:0:0:
203,110,19422,1,0,0:0:0:0:
0,88,19588,1,0,0:0:0:0:
32,290,19755,1,0,0:0:0:0:
88,173,19922,1,0,0:0:0:0:
235,314,20088,6,0,B|213:362|213:362|153:364,1,112.5
0,364,20422,1,0,0:0:0:0:
88,173,20588,1,0,0:0:0:0:
235,314,20755,2,0,B|276:346|276:346|330:320,1,112.5
471,215,21088,1,0,0:0:0:0:
285,261,21255,1,0,0:0:0:0:
512,384,21422,5,0,0:0:0:0:
62,193,22088,1,0,0:0:0:0:
145,84,22255,5,0,0:0:0:0:
135,97,22338,1,0,0:0:0:0:
126,110,22422,1,0,0:0:0:0:
210,0,22588,1,0,0:0:0:0:
62,193,22755,6,0,B|46:253|46:253|74:333,1,135
200,379,23088,2,0,B|216:319|216:319|188:239,1,135
166,177,23422,5,0,0:0:0:0:
249,316,23588,1,0,0:0:0:0:
303,169,23755,1,0,0:0:0:0:
142,322,23922,1,0,0:0:0:0:
327,248,24088,6,0,B|382:231|382:231|458:245,1,135
512,377,24422,2,0,B|456:393|456:393|380:379,1,135
305,362,24755,5,0,0:0:0:0:
429,147,24922,1,0,0:0:0:0:
452,318,25088,1,0,0:0:0:0:
418,67,25255,1,0,0:0:0:0:
271,124,25422,6,0,B|204:144|204:144|150:108,1,135
17,8,25755,2,0,B|84:-12|84:-12|137:23,1,135
213,59,26088,5,0,0:0:0:0:
6,78,26255,1,0,0:0:0:0:
273,222,26422,1,0,0:0:0:0:
84,44,26588,1,0,0:0:0:0:
26,246,26755,6,0,B|14:298|14:298|70:384,1,135
223,384,27088,2,0,B|235:332|235:332|179:246,1,135
138,178,27422,5,0,0:0:0:0:
137,384,27588,1,0,0:0:0:0:
319,166,27755,1,0,0:0:0:0:
76,297,27922,1,0,0:0:0:0:
342,258,28088,6,0,B|407:232|407:232|461:109,1,182.250000695229
497,38,28422,1,0,0:0:0:0:
259,115,28588,1,0,0:0:0:0:
512,231,28755,1,0,0:0:0:0:
376,0,28922,1,0,0:0:0:0:
208,167,29088,1,0,0:0:0:0:
512,323,29255,1,0,0:0:0:0:
315,60,29422,6,0,B|281:22|281:22|163:27,1,157.500001502037
43,34,29755,1,0,0:0:0:0:
364,126,29922,1,0,0:0:0:0:
206,296,30088,5,0,0:0:0:0:
112,71,30254,1,0,0:0:0:0:
380,104,30421,5,0,0:0:0:0:
161,355,30588,1,0,0:0:0:0:
376,0,30754,5,0,0:0:0:0:
430,313,30921,1,0,0:0:0:0:
73,224,31088,5,0,0:0:0:0:
438,49,31254,1,0,0:0:0:0:
492,383,31422,5,0,0:0:0:0:
256,192,31588,1,0,0:0:0:0:
512,123,31755,5,0,0:0:0:0:
0,261,31922,1,0,0:0:0:0:
256,384,32088,5,0,0:0:0:0:
256,368,32377,6,0,L|256:306,2,53.9999983520508
280,193,33377,6,0,P|255:144|234:194,1,135,0|0,0:0|0:0,0:0:0:0:
374,225,33710,6,0,B|454:161|454:161|484:-20,1,222.75000212431,0|0,0:0|0:0,0:0:0:0:
325,0,34043,2,0,B|318:76|318:76|368:149,1,148.500001416206,0|0,0:0|0:0,0:0:0:0:
512,380,34293,2,0,B|519:304|519:304|478:244,1,148.500001416206,0|0,0:0|0:0,0:0:0:0:
214,283,34543,2,0,B|313:271,1,74.2500007081032,0|0,0:0|0:0,0:0:0:0:
442,323,34710,6,0,B|343:335,3,74.2500007081032
272,360,35043,5,0,0:0:0:0:
235,364,35126,1,0,0:0:0:0:
198,369,35209,1,0,0:0:0:0:
161,374,35293,1,0,0:0:0:0:
124,379,35377,6,0,B|61:327|61:327|60:260,1,148.500001416206,0|0,0:0|0:0,0:0:0:0:
0,154,35627,2,0,B|75:125|75:125|134:158,1,148.500001416206,0|0,0:0|0:0,0:0:0:0:
255,164,35877,2,0,B|241:245|241:245,1,74.2500007081032
181,268,36043,6,0,B|242:239|242:239|273:73,1,222.75000212431
361,10,36376,2,0,L|319:229,1,222.75000212431
435,318,36710,2,0,B|388:270|388:270|411:136,1,148.500001416206
416,114,36960,6,0,L|388:278,1,148.500001416206
290,374,37210,2,0,L|304:301,1,74.2500007081032
319,229,37376,2,0,L|290:374,1,148.500001416206
42,147,37710,6,0,L|87:230,1,74.2500007081032
148,332,37876,1,0,0:0:0:0:
382,19,38043,6,0,B|345:95|345:95|283:109,1,148.500001416206
219,175,38293,2,0,B|185:125|185:125|203:71,1,116.999994644165
298,32,38543,6,0,L|249:43,2,29.2499986610413
434,83,38710,6,0,B|439:154|439:154|314:269,1,222.75000212431
284,384,39043,2,0,B|220:352|220:352|182:187,1,222.75000212431
132,105,39376,2,0,B|91:86|91:86|0:134,1,148.500001416206
137,312,39626,2,0,B|100:336|100:336|0:305,1,148.500001416206
0,221,39876,6,0,L|74:220,1,74.2500007081032
186,204,40043,5,0,0:0:0:0:
237,204,40126,1,0,0:0:0:0:
289,204,40210,1,0,0:0:0:0:
340,204,40293,1,0,0:0:0:0:
443,129,40376,5,0,0:0:0:0:
392,129,40459,1,0,0:0:0:0:
340,129,40543,1,0,0:0:0:0:
289,129,40626,1,0,0:0:0:0:
186,52,40710,6,0,L|334:51,1,148.500001416206
488,203,40960,2,0,L|339:203,1,148.500001416206
136,131,41210,2,0,L|210:130,1,74.2500007081032
355,283,41376,6,0,B|275:300|275:300|143:398,1,222.75000212431
307,384,41710,2,0,B|387:367|387:367|519:269,1,222.75000212431
481,107,42043,2,0,B|430:157|430:157|410:231,1,148.500001416206
340,129,42293,2,0,B|391:79|391:79|410:4,1,148.500001416206
289,68,42543,6,0,L|237:121,1,74.2500007081032
1,34,42710,2,0,L|72:52,1,74.2500007081032
116,300,42876,2,0,L|96:228,1,74.2500007081032
1,34,43043,6,0,L|72:52,1,74.2500007081032
230,316,43210,6,0,L|196:316,2,33.7500012874604
286,363,43376,5,0,0:0:0:0:
334,382,43460,1,0,0:0:0:0:
371,358,43543,1,0,0:0:0:0:
372,321,43626,1,0,0:0:0:0:
350,299,43710,1,0,0:0:0:0:
328,303,43793,1,0,0:0:0:0:
318,314,43876,1,0,0:0:0:0:
317,321,43960,1,0,0:0:0:0:
442,341,44043,6,0,L|502:341,1,60.7499981460572
462,215,44376,6,0,B|420:112|420:112|471:13,1,222.75000212431
387,111,44710,2,0,B|321:77|321:77|253:105,1,148.500001416206
175,186,44960,2,0,B|240:220|240:220|309:192,1,148.500001416206
97,293,45210,2,0,B|117:241|117:241|109:224,1,74.2500007081032
53,117,45376,5,0,0:0:0:0:
33,165,45460,1,0,0:0:0:0:
36,216,45543,1,0,0:0:0:0:
16,264,45627,1,0,0:0:0:0:
33,165,45710,5,0,0:0:0:0:
53,117,45794,1,0,0:0:0:0:
50,66,45877,1,0,0:0:0:0:
70,18,45961,1,0,0:0:0:0:
165,12,46043,6,0,B|192:63|192:63|127:125,1,148.500001416206
343,194,46293,2,0,B|284:192|284:192|263:105,1,148.500001416206
96,257,46543,2,0,B|127:206|127:206|144:210,1,74.2500007081032
240,325,46710,6,0,B|289:357|289:357|480:357,1,222.75000212431
353,278,47043,2,0,B|403:246|403:246|483:74,1,222.75000212431
470,0,47376,2,0,B|419:31|419:31|382:112,1,148.500001416206
177,122,47626,6,0,B|208:172|208:172|289:209,1,148.500001416206
322,59,47876,2,0,L|294:127,1,74.2500007081032
124,183,48043,2,0,B|155:233|155:233|236:270,1,148.500001416206
345,363,48376,5,0,0:0:0:0:
297,384,48460,1,0,0:0:0:0:
249,363,48543,1,0,0:0:0:0:
203,337,48626,1,0,0:0:0:0:
61,311,48710,5,0,0:0:0:0:
109,290,48794,1,0,0:0:0:0:
157,311,48876,2,0,L|133:363,1,37.1250003540516
203,337,48960,2,0,L|218:303,1,37.1250003540516
249,363,49043,6,0,L|316:394,1,74.2500007081032
380,297,49210,5,0,0:0:0:0:
429,281,49293,1,0,0:0:0:0:
470,311,49376,6,0,B|448:231|448:231|490:82,1,222.75000212431
340,29,49710,2,0,B|281:88|281:88|145:122,1,222.75000212431
309,230,50043,2,0,L|389:105,1,148.500001416206
447,7,50293,1,0,0:0:0:0:
428,42,50376,2,0,L|388:104,1,74.2500007081032
309,230,50543,2,0,L|269:292,1,74.2500007081032
148,252,50710,5,0,0:0:0:0:
124,205,50793,1,0,0:0:0:0:
73,194,50876,1,0,0:0:0:0:
49,147,50960,1,0,0:0:0:0:
24,265,51043,5,0,0:0:0:0:
48,312,51126,1,0,0:0:0:0:
99,323,51209,1,0,0:0:0:0:
123,370,51293,1,0,0:0:0:0:
174,370,51376,6,0,B|243:345|243:345|313:370,1,148.500001416206
489,304,51626,2,0,B|420:329|420:329|350:304,1,148.500001416206
414,176,51876,2,0,B|426:210|426:210|414:245,1,74.2500007081032
245,312,52043,2,0,B|232:277|232:277|245:242,1,74.2500007081032
405,83,52210,5,0,0:0:0:0:
430,127,52293,1,0,0:0:0:0:
414,176,52376,2,0,L|312:176,1,74.2500007081032
126,269,52543,5,0,0:0:0:0:
101,225,52626,1,0,0:0:0:0:
117,176,52709,2,0,L|219:176,1,74.2500007081032
464,43,52876,5,0,0:0:0:0:
499,106,52959,1,0,0:0:0:0:
477,176,53042,2,0,L|331:176,1,74.2500007081032
55,310,53209,5,0,0:0:0:0:
19,242,53292,1,0,0:0:0:0:
40,171,53376,1,0,0:0:0:0:
150,99,53459,5,0,0:0:0:0:
185,110,53543,1,0,0:0:0:0:
203,141,53626,1,0,0:0:0:0:
191,176,53710,1,0,0:0:0:0:
161,194,53793,1,0,0:0:0:0:
125,183,53877,1,0,0:0:0:0:
108,151,53960,1,0,0:0:0:0:
119,117,54043,6,0,B|154:81|189:152|224:117,1,114.750002188683
253,39,54376,2,0,P|206:67|233:121,1,114.750002188683
303,121,54710,6,0,B|406:133|363:241|503:209,1,202.500007724762
391,317,55043,6,0,B|320:388|320:388|218:386,1,202.500007724762
339,253,55376,6,0,B|291:204|291:204|223:206,1,135.000005149842
152,332,55626,2,0,B|104:380|104:380|36:378,1,135.000005149842
57,238,55876,6,0,B|33:213|33:213|0:214,1,67.5000025749208
0,129,56043,6,0,B|68:128|68:128|113:79,1,135.000005149842
186,0,56293,2,0,B|254:-1|254:-1|301:45,1,135.000005149842
187,136,56543,6,0,B|221:136|221:136|244:113,1,67.5000025749208
301,45,56710,6,0,B|340:13|340:13|484:13,1,180.000006866455
356,106,57043,6,0,B|381:137|356:169,1,67.5000025749208
314,306,57210,2,0,B|288:274|313:242,1,67.5000025749208
464,221,57376,6,0,B|442:246|442:246|407:245,1,67.5000025749208
230,249,57543,1,0,0:0:0:0:
217,232,57626,2,0,B|195:206|195:206|160:207,1,67.5000025749208
18,314,57793,1,0,0:0:0:0:
31,331,57876,2,0,B|52:356|52:356|87:355,1,67.5000025749208
86,174,58043,6,0,L|18:174,1,67.5000025749208
101,27,58210,1,0,0:0:0:0:
114,44,58293,2,0,B|135:69|135:69|170:68,1,67.5000025749208
285,175,58460,1,0,0:0:0:0:
272,158,58543,2,0,B|250:132|250:132|215:133,1,67.5000025749208
281,0,58710,6,0,L|348:0,1,67.5000025749208
512,133,58876,1,0,0:0:0:0:
499,116,58959,2,0,B|477:90|477:90|442:91,1,67.5000025749208
326,238,59126,1,0,0:0:0:0:
339,255,59209,2,0,B|360:280|360:280|395:279,1,67.5000025749208
510,372,59376,6,0,L|349:373,1,135
240,304,59710,6,0,L|225:287,1,22.5
192,304,59793,2,0,L|177:287,1,22.5
131,352,59876,5,0,0:0:0:0:
83,352,59960,1,0,0:0:0:0:
10,278,60043,6,0,B|-26:242|-26:242|60:93,1,222.75000212431
190,0,60376,2,0,B|226:36|226:36|139:184,1,222.75000212431
283,153,60710,6,0,B|356:138|356:138|417:179,1,148.500001416206
512,40,60960,2,0,B|439:55|439:55|377:13,1,148.500001416206
491,198,61210,6,0,B|501:175|501:175|491:127,1,74.2500007081032
271,8,61376,6,0,B|260:30|260:30|284:163,1,148.500001416206
428,323,61626,2,0,B|438:300|438:300|415:168,1,148.500001416206
341,75,61876,6,0,L|353:141,1,67.5000025749208
301,384,62043,6,0,B|341:294|341:294|328:211,1,182.250000695229
144,110,62376,6,0,B|184:120|184:120|202:147,1,74.2500007081032
263,283,62543,2,0,B|223:273|223:273|204:245,1,74.2500007081032
64,73,62710,6,0,B|54:110|54:110|64:147,1,74.2500007081032
129,265,62876,1,0,0:0:0:0:
147,300,62960,2,0,L|186:362,1,74.2500007081032
383,265,63126,1,0,0:0:0:0:
365,300,63210,2,0,L|325:362,1,74.2500007081032
256,192,63376,6,0,L|256:117,1,74.2500007081032
423,19,63543,1,0,0:0:0:0:
448,73,63626,2,0,B|458:110|458:110|448:147,1,74.2500007081032
316,27,63793,1,0,0:0:0:0:
256,27,63876,2,0,L|181:27,1,74.2500007081032
39,113,64043,6,0,B|106:82,1,74.2500007081032
326,160,64210,1,0,0:0:0:0:
256,192,64293,2,0,B|188:222,1,74.2500007081032
340,336,64460,1,0,0:0:0:0:
407,299,64543,2,0,B|475:269,1,74.2500007081032
490,102,64710,6,0,L|475:173,3,45
316,27,65043,2,0,L|331:98,3,45
512,0,65376,5,0,0:0:0:0:
454,70,67576,5,0,0:0:0:0:
446,90,67659,1,0,0:0:0:0:
446,112,67742,1,0,0:0:0:0:
512,0,67909,1,0,0:0:0:0:
485,193,68060,6,0,B|468:288|333:215|316:311,1,225
449,359,68560,5,0,0:0:0:0:
352,145,68726,1,0,0:0:0:0:
316,311,68893,1,0,0:0:0:0:
218,120,69060,5,0,0:0:0:0:
55,278,69226,1,0,0:0:0:0:
195,290,69393,5,0,0:0:0:0:
177,268,69476,1,0,0:0:0:0:
158,246,69560,1,0,0:0:0:0:
140,224,69643,1,0,0:0:0:0:
122,201,69726,1,0,0:0:0:0:
41,105,69893,5,0,0:0:0:0:
137,24,70060,5,0,0:0:0:0:
218,120,70226,5,0,0:0:0:0:
335,14,70393,1,0,0:0:0:0:
387,216,70560,1,0,0:0:0:0:
446,104,70726,5,0,0:0:0:0:
458,78,70810,1,0,0:0:0:0:
471,53,70893,1,0,0:0:0:0:
484,28,70976,1,0,0:0:0:0:
497,3,71060,1,0,0:0:0:0:
510,187,71226,5,0,0:0:0:0:
428,349,71393,2,0,P|379:377|323:383,1,112.5
387,216,71726,5,0,0:0:0:0:
239,366,71893,1,0,0:0:0:0:
112,301,72060,5,0,0:0:0:0:
87,287,72143,1,0,0:0:0:0:
61,275,72226,1,0,0:0:0:0:
35,262,72310,1,0,0:0:0:0:
11,247,72393,1,0,0:0:0:0:
65,146,72560,5,0,0:0:0:0:
166,200,72726,5,0,0:0:0:0:
240,59,72893,5,0,0:0:0:0:
381,133,73060,1,0,0:0:0:0:
307,274,73226,1,0,0:0:0:0:
435,212,73393,6,0,P|479:144|372:43,1,225
240,59,73893,5,0,0:0:0:0:
381,133,74060,1,0,0:0:0:0:
307,274,74226,1,0,0:0:0:0:
173,377,74393,2,0,P|94:379|55:326,1,112.5
186,223,74726,6,0,L|135:297,1,90
97,84,75059,5,0,0:0:0:0:
168,95,75143,1,0,0:0:0:0:
245,166,75226,5,0,0:0:0:0:
306,129,75309,1,0,0:0:0:0:
378,122,75393,1,0,0:0:0:0:
443,151,75476,1,0,0:0:0:0:
484,209,75559,1,0,0:0:0:0:
496,280,75643,1,0,0:0:0:0:
451,384,75726,5,0,0:0:0:0:
207,227,76059,5,0,0:0:0:0:
141,194,76143,1,0,0:0:0:0:
69,195,76226,1,0,0:0:0:0:
6,230,76309,1,0,0:0:0:0:
114,332,76393,5,0,0:0:0:0:
173,291,76476,1,0,0:0:0:0:
207,227,76559,1,0,0:0:0:0:
204,154,76643,1,0,0:0:0:0:
119,71,76726,6,0,L|200:32,1,90
393,313,77059,2,0,L|311:351,1,90
265,79,77393,5,0,0:0:0:0:
143,182,77559,1,0,0:0:0:0:
246,304,77726,1,0,0:0:0:0:
368,201,77892,1,0,0:0:0:0:
283,35,78059,5,0,0:0:0:0:
99,164,78225,5,0,0:0:0:0:
412,219,78392,5,0,0:0:0:0:
228,348,78558,5,0,0:0:0:0:
256,191,78726,6,0,P|305:134|381:122,1,155.250002961159
468,153,79059,1,0,0:0:0:0:
328,332,79226,1,0,0:0:0:0:
326,175,79393,1,0,0:0:0:0:
195,66,79559,5,0,0:0:0:0:
51,138,79726,2,0,P|6:200|8:277,1,155.250002961159
54,345,80059,1,0,0:0:0:0:
141,177,80226,2,0,P|122:102|63:54,1,155.250002961159
6,48,80559,1,0,0:0:0:0:
83,224,80726,1,0,0:0:0:0:
224,144,80893,5,0,0:0:0:0:
176,352,81059,1,0,0:0:0:0:
288,256,81226,1,0,0:0:0:0:
400,259,81393,2,0,P|356:348|258:363,1,207.000003948212
224,144,81893,5,0,0:0:0:0:
288,256,82059,1,0,0:0:0:0:
447,169,82226,2,0,P|484:134|505:86,1,103.500001974106
357,0,82559,1,0,0:0:0:0:
362,193,82726,2,0,P|399:259|470:288,1,155.250002961159
512,284,83059,1,0,0:0:0:0:
386,118,83226,2,0,P|344:87|294:76,1,103.500001974106
97,87,83559,5,0,0:0:0:0:
15,219,83726,1,0,0:0:0:0:
81,359,83893,1,0,0:0:0:0:
153,222,84059,2,0,P|173:174|165:124,1,103.500001974106
65,4,84393,5,0,0:0:0:0:
90,169,84559,1,0,0:0:0:0:
301,6,84726,1,0,0:0:0:0:
299,215,84893,2,0,P|307:266|339:306,1,103.500001974106
464,356,85226,1,0,0:0:0:0:
385,234,85393,1,0,0:0:0:0:
320,131,85559,6,0,L|425:69,1,79.8750003046989
309,80,85643,2,0,L|430:95,1,79.8750003046989
330,34,85726,2,0,L|401:103,1,79.8750003046989
376,12,85809,2,0,L|389:106,1,79.8750003046989
426,19,85893,2,0,L|378:106,1,79.8750003046989
461,56,85976,2,0,L|366:99,1,79.8750003046989
467,106,86059,2,0,L|351:82,1,79.8750003046989
441,149,86143,2,0,L|376:79,1,79.8750003046989
385,234,86226,5,0,0:0:0:0:
381,259,86309,1,0,0:0:0:0:
386,284,86393,1,0,0:0:0:0:
460,381,86559,1,0,0:0:0:0:
303,276,86726,6,0,P|226:247|145:265,1,168.75
74,317,87059,5,0,0:0:0:0:
234,208,87226,1,0,0:0:0:0:
96,180,87393,1,0,0:0:0:0:
203,347,87559,2,0,P|254:368|310:365,1,112.5
455,262,87893,1,0,0:0:0:0:
331,146,88059,2,0,P|279:124|223:127,1,112.5
15,218,88393,5,0,0:0:0:0:
160,304,88559,1,0,0:0:0:0:
0,384,88726,1,0,0:0:0:0:
92,184,88893,5,0,0:0:0:0:
160,304,89059,1,0,0:0:0:0:
224,128,89226,1,0,0:0:0:0:
355,277,89393,6,0,L|173:209,1,168.75
92,184,89726,5,0,0:0:0:0:
224,128,89893,1,0,0:0:0:0:
15,19,90059,6,0,B|133:42|133:42|181:84,1,168.75
224,128,90392,5,0,0:0:0:0:
160,304,90559,1,0,0:0:0:0:
299,210,90726,6,0,B|359:155|359:155|442:127,1,168.75
512,109,91059,5,0,0:0:0:0:
341,8,91226,1,0,0:0:0:0:
497,198,91392,1,0,0:0:0:0:
418,26,91559,1,0,0:0:0:0:
224,128,91726,1,0,0:0:0:0:
341,8,91892,1,0,0:0:0:0:
386,184,92059,6,0,B|426:299|426:299|456:338,1,168.75
512,384,92392,5,0,0:0:0:0:
321,273,92559,1,0,0:0:0:0:
222,384,92726,1,0,0:0:0:0:
385,319,92892,1,0,0:0:0:0:
196,217,93059,1,0,0:0:0:0:
222,384,93226,1,0,0:0:0:0:
80,265,93392,6,0,B|31:213|31:213|20:116,1,168.75
91,10,93726,1,0,0:0:0:0:
256,120,93892,2,0,B|180:180|180:180|108:182,1,168.75
6,188,94226,5,0,0:0:0:0:
174,268,94393,1,0,0:0:0:0:
16,378,94559,1,0,0:0:0:0:
241,231,94726,6,0,B|270:213|270:213|353:231,1,112.5
508,271,95059,1,0,0:0:0:0:
361,384,95226,1,0,0:0:0:0:
358,157,95392,1,0,0:0:0:0:
435,319,95559,1,0,0:0:0:0:
235,314,95726,1,0,0:0:0:0:
407,95,95892,1,0,0:0:0:0:
241,32,96059,2,0,B|207:20|207:20|91:64,1,112.5
0,88,96392,5,0,0:0:0:0:
20,213,96559,1,0,0:0:0:0:
203,110,96726,1,0,0:0:0:0:
0,88,96892,1,0,0:0:0:0:
32,290,97059,1,0,0:0:0:0:
88,173,97226,1,0,0:0:0:0:
235,314,97392,6,0,B|213:362|213:362|153:364,1,112.5
0,364,97726,1,0,0:0:0:0:
88,173,97892,1,0,0:0:0:0:
235,314,98059,2,0,B|276:346|276:346|330:320,1,112.5
471,215,98392,1,0,0:0:0:0:
285,261,98559,1,0,0:0:0:0:
512,384,98726,5,0,0:0:0:0:
62,193,99393,1,0,0:0:0:0:
145,84,99560,5,0,0:0:0:0:
135,97,99643,1,0,0:0:0:0:
126,110,99727,1,0,0:0:0:0:
210,0,99893,1,0,0:0:0:0:
271,136,100059,6,0,B|328:208|328:208|378:226,1,135
512,178,100393,2,0,B|455:106|455:106|404:87,1,135
330,76,100726,1,0,0:0:0:0:
445,236,100893,1,0,0:0:0:0:
483,72,101059,1,0,0:0:0:0:
231,74,101226,1,0,0:0:0:0:
205,338,101392,6,0,B|160:362|160:362|78:342,1,135
0,244,101726,2,0,B|45:220|45:220|126:239,1,135
205,260,102059,5,0,0:0:0:0:
3,322,102226,1,0,0:0:0:0:
267,300,102392,1,0,0:0:0:0:
42,183,102559,1,0,0:0:0:0:
265,384,102726,5,0,0:0:0:0:
263,136,102893,1,0,0:0:0:0:
455,353,103059,1,0,0:0:0:0:
141,310,103226,1,0,0:0:0:0:
386,276,103393,1,0,0:0:0:0:
212,76,103559,1,0,0:0:0:0:
141,310,103726,1,0,0:0:0:0:
392,103,103893,1,0,0:0:0:0:
126,154,104059,6,0,B|40:177|40:177|0:261,1,182.250000695229
106,384,104393,1,0,0:0:0:0:
241,293,104559,1,0,0:0:0:0:
225,166,104726,5,0,0:0:0:0:
0,356,104893,1,0,0:0:0:0:
196,384,105059,1,0,0:0:0:0:
18,155,105226,1,0,0:0:0:0:
225,166,105392,6,0,B|294:183|294:183|365:269,1,182.250000695229
416,341,105726,1,0,0:0:0:0:
316,154,105892,1,0,0:0:0:0:
127,250,106059,1,0,0:0:0:0:
436,248,106225,1,0,0:0:0:0:
306,384,106392,1,0,0:0:0:0:
199,106,106559,1,0,0:0:0:0:
444,158,106726,6,0,B|513:207|513:207|511:273,1,121.500000463486
512,384,107059,5,0,0:0:0:0:
249,255,107226,1,0,0:0:0:0:
512,47,107392,5,0,0:0:0:0:
367,307,107558,1,0,0:0:0:0:
154,312,107725,5,0,0:0:0:0:
512,307,107892,1,0,0:0:0:0:
276,42,108058,5,0,0:0:0:0:
313,384,108225,1,0,0:0:0:0:
85,269,108392,5,0,0:0:0:0:
512,96,108558,1,0,0:0:0:0:
411,323,108726,5,0,0:0:0:0:
200,16,108892,1,0,0:0:0:0:
75,317,109059,5,0,0:0:0:0:
512,0,109226,1,0,0:0:0:0:
256,384,109392,5,0,0:0:0:0:
256,128,109726,5,0,0:0:0:0:
320,192,109893,1,0,0:0:0:0:
256,338,110059,5,0,0:0:0:0:
109,191,110226,1,0,0:0:0:0:
256,45,110393,1,0,0:0:0:0:
402,192,110559,1,0,0:0:0:0:
192,248,110726,6,0,B|99:273|99:273|74:265,1,121.500000463486
91,95,110976,1,0,0:0:0:0:
26,163,111059,2,0,B|9:186|9:186|0:217,1,60.7500002317429
15,384,111226,2,0,B|32:361|32:361|41:329,1,60.7500002317429
109,191,111393,6,0,B|172:140|172:140|212:140,1,121.500000463486
359,287,111643,2,0,B|296:338|296:338|255:338,1,121.500000463486
143,332,111893,1,0,0:0:0:0:
309,196,112059,6,0,B|371:140|371:140|376:103,1,121.500000463486
158,2,112309,2,0,B|95:57|95:57|90:94,1,121.500000463486
293,107,112559,2,0,B|304:78|304:78|296:49,1,60.7500002317429
197,84,112726,5,0,0:0:0:0:
205,196,112837,1,0,0:0:0:0:
308,241,112948,1,0,0:0:0:0:
161,119,113059,5,0,0:0:0:0:
197,225,113170,1,0,0:0:0:0:
308,241,113281,1,0,0:0:0:0:
408,206,113393,6,0,B|493:162|493:162|501:137,1,121.500000463486
382,29,113643,1,0,0:0:0:0:
417,145,113726,2,0,L|407:205,1,60.7500002317429
494,370,113893,2,0,L|503:309,1,60.7500002317429
313,341,114059,6,0,L|193:362,1,121.500000463486
0,282,114309,2,0,B|75:277|75:277|115:300,1,121.500000463486
193,362,114559,1,0,0:0:0:0:
241,237,114726,6,0,L|285:123,1,121.500000463486
434,96,114976,1,0,0:0:0:0:
345,112,115059,2,0,L|285:123,1,60.7500002317429
193,13,115226,2,0,L|230:60,1,60.7500002317429
338,195,115393,5,0,0:0:0:0:
432,255,115504,1,0,0:0:0:0:
331,307,115615,1,0,0:0:0:0:
381,151,115726,5,0,0:0:0:0:
448,315,115837,1,0,0:0:0:0:
271,290,115948,1,0,0:0:0:0:
170,342,116059,6,0,B|100:372|100:372|54:372,1,121.500000463486
0,217,116309,2,0,B|70:187|70:187|115:186,1,121.500000463486
57,290,116559,2,0,L|0:310,1,60.7500002317429
176,252,116726,6,0,L|310:203,1,121.500000463486
482,141,116976,2,0,L|367:181,1,121.500000463486
176,252,117226,1,0,0:0:0:0:
306,122,117393,6,0,B|355:77|355:77|370:24,1,121.500000463486
159,0,117643,1,0,0:0:0:0:
158,83,117726,2,0,L|178:139,1,60.7500002317429
283,0,117893,2,0,L|262:56,1,60.7500002317429
106,176,118059,5,0,0:0:0:0:
34,242,118171,1,0,0:0:0:0:
34,339,118282,1,0,0:0:0:0:
106,176,118393,5,0,0:0:0:0:
101,273,118505,1,0,0:0:0:0:
170,342,118616,1,0,0:0:0:0:
280,339,118726,6,0,L|401:331,1,121.500000463486
487,172,118976,1,0,0:0:0:0:
388,216,119059,2,0,L|331:237,1,60.7500002317429
261,116,119226,2,0,L|317:137,1,60.7500002317429
388,16,119393,6,0,B|305:48|305:48|273:39,1,121.500000463486
79,47,119643,2,0,B|162:15|162:15|193:23,1,121.500000463486
118,120,119893,2,0,L|60:140,1,60.7500002317429
13,266,120059,6,0,L|71:249,7,60.7500002317429
171,384,120726,6,0,L|200:330,1,60.7500002317429
366,355,120893,2,0,L|349:296,1,60.7500002317429
483,196,121059,2,0,L|429:166,1,60.7500002317429
453,0,121226,2,0,L|394:16,1,60.7500002317429
167,214,121393,5,0,0:0:0:0:
319,93,121559,2,0,P|309:129|283:157,1,76.5000014591217
34,146,121726,2,0,P|-2:212|0:288,1,153.000002918243
225,100,122059,2,0,P|186:35|119:0,1,153.000002918243
88,271,122393,6,0,B|109:317|109:317|156:326,1,99.0000030212403
336,147,122559,2,0,B|285:142|285:142|253:178,1,99.0000030212403
281,382,122726,6,0,B|310:340|310:340|248:163,1,222.75000212431
224,99,123059,1,0,0:0:0:0:
85,346,123226,1,0,0:0:0:0:
341,340,123393,2,0,P|406:306|445:244,1,148.500001416206
261,21,123726,6,0,P|222:53|225:101,1,99.0000030212403
448,238,123892,2,0,P|439:188|396:166,1,99.0000030212403
215,238,124059,6,0,B|268:264|268:264|399:166,1,222.75000212431
490,81,124393,2,0,P|456:96|419:94,1,74.2500007081032
184,0,124559,1,0,0:0:0:0:
44,119,124726,2,0,P|4:181|0:254,1,148.500001416206
252,384,125059,6,0,P|254:334|235:289,1,99.0000030212403
0,352,125226,2,0,P|29:373|100:359,1,99.0000030212403
144,148,125393,2,0,P|86:191|174:299,1,222.75000212431
325,299,125726,2,0,P|397:284|453:237,1,148.500001416206
481,26,126059,5,0,0:0:0:0:
268,0,126226,1,0,0:0:0:0:
242,210,126393,1,0,0:0:0:0:
453,237,126559,1,0,0:0:0:0:
216,85,126726,6,0,B|152:47|103:32|56:33|56:33|43:65|66:117,1,222.75000212431
69,187,127059,1,0,0:0:0:0:
170,9,127226,1,0,0:0:0:0:
166,243,127393,2,0,P|194:310|259:342,1,148.500001416206
460,275,127726,6,0,B|505:255|505:255|512:206,1,99.0000030212403
278,169,127893,2,0,B|272:218|272:218|310:248,1,99.0000030212403
420,44,128059,6,0,B|373:25|373:25|264:188,1,222.75000212431
193,316,128393,2,0,P|165:340|133:359,1,74.2500007081032
378,307,128559,1,0,0:0:0:0:
211,97,128726,2,0,P|158:45|88:21,1,148.500001416206
1,209,129059,6,0,P|20:253|65:272,1,99.0000030212403
211,97,129226,2,0,P|162:92|124:121,1,99.0000030212403
202,334,129393,6,0,P|230:294|105:225,1,222.75000212431
262,236,129726,1,0,0:0:0:0:
357,0,129893,1,0,0:0:0:0:
477,212,130059,2,0,P|443:276|377:306,1,148.500001416206
298,81,130393,6,0,P|265:62|192:96,1,99.0000030212403
78,290,130559,2,0,P|109:271|118:190,1,99.0000030212403
0,0,130726,2,0,P|0:36|166:117,1,222.75000212431
298,80,131059,2,0,P|370:90|429:135,1,148.500001416206
506,314,131393,5,0,0:0:0:0:
254,374,131559,1,0,0:0:0:0:
194,122,131726,1,0,0:0:0:0:
446,61,131893,1,0,0:0:0:0:
350,218,132059,5,0,0:0:0:0:
256,192,132143,12,0,134059,0:0:0:0:
