osu file format v14

[General]
AudioFilename: audio.mp3
AudioLeadIn: 0
PreviewTime: -1
Countdown: 1
SampleSet: Normal
StackLeniency: 0.7
Mode: 0
LetterboxInBreaks: 0
WidescreenStoryboard: 0

[Editor]
DistanceSpacing: 0.8
BeatDivisor: 4
GridSize: 8
TimelineZoom: 0.8000001

[Metadata]
Title:Weak
TitleUnicode:Weak
Artist:Ajr
ArtistUnicode:Ajr
Creator:Minerguy0210
Version:Strong
Source:
Tags:
BeatmapID:1278411
BeatmapSetID:605080

[Difficulty]
HPDrainRate:6
CircleSize:4
OverallDifficulty:7
ApproachRate:7
SliderMultiplier:0.900000005960464
SliderTickRate:1

[Events]
//Background and Video events
//Break Periods
//Storyboard Layer 0 (Background)
//Storyboard Layer 1 (Fail)
//Storyboard Layer 2 (Pass)
//Storyboard Layer 3 (Foreground)
//Storyboard Sound Samples

[TimingPoints]
2600,483.870967741935,4,1,0,100,1,0
2961,-66.6666666666667,4,1,0,100,0,0
15059,-125,4,1,0,100,0,0
16269,-50,4,1,0,100,0,0
35503,-50,4,1,0,100,0,0

[HitObjects]
112,112,2600,5,0,0:0:0:0:
192,112,3083,2,0,L|287:110,1,67.5000030219556
336,112,3567,1,0,0:0:0:0:
352,112,3809,1,0,0:0:0:0:
80,72,5261,5,0,0:0:0:0:
248,84,5503,1,0,0:0:0:0:
80,72,5745,1,0,0:0:0:0:
231,213,5987,1,0,0:0:0:0:
80,72,6229,1,0,0:0:0:0:
111,222,6470,2,0,L|110:291,1,67.5000030219556
171,80,7438,5,0,0:0:0:0:
264,97,7680,1,0,0:0:0:0:
164,170,7922,1,0,0:0:0:0:
258,208,8164,1,0,0:0:0:0:
182,270,8406,2,0,L|263:273,1,67.5000030219556
249,189,9858,1,0,0:0:0:0:
262,198,10704,1,0,0:0:0:0:
341,198,11188,1,0,0:0:0:0:
376,201,11430,1,0,0:0:0:0:
186,100,13003,1,0,0:3:0:0:
261,71,13245,2,0,P|295:76|319:101,1,67.5000030219556
363,163,13729,1,0,0:3:0:0:
297,182,13970,1,0,0:0:0:0:
350,217,14212,2,0,L|385:326,1,101.250004532933
138,72,15180,2,0,L|176:93,1,36.0000002384186
271,86,15664,1,0,0:0:0:0:
344,72,15906,1,0,0:0:0:0:
422,59,16148,1,0,0:0:0:0:
138,62,18083,5,0,0:0:0:0:
229,69,18325,2,0,L|230:174,1,101.250000670552
244,183,19051,1,0,0:0:0:0:
245,279,19414,1,0,0:0:0:0:
245,279,19535,1,0,0:0:0:0:
386,74,20019,5,0,0:0:0:0:
379,165,20261,2,0,L|274:166,1,101.250000670552
265,180,20987,1,0,0:0:0:0:
169,181,21349,1,0,0:0:0:0:
169,181,21470,1,0,0:0:0:0:
374,322,21954,5,0,0:0:0:0:
283,315,22196,2,0,L|282:210,1,101.250000670552
268,201,22922,1,0,0:0:0:0:
267,105,23285,5,0,0:0:0:0:
267,105,23406,1,0,0:0:0:0:
108,78,23769,1,0,0:0:0:0:
121,81,23890,1,0,0:0:0:0:
202,78,24132,1,0,0:0:0:0:
301,82,24374,1,0,0:0:0:0:
411,83,24616,1,0,0:0:0:0:
184,192,24858,1,0,0:0:0:0:
276,195,25099,1,0,0:0:0:0:
276,195,25220,1,0,0:0:0:0:
276,195,25341,1,0,0:0:0:0:
66,192,26067,5,0,0:0:0:0:
71,103,26309,2,0,L|166:103,1,90.0000005960464
234,104,26793,1,0,0:0:0:0:
264,107,27035,1,0,0:0:0:0:
120,91,28487,5,0,0:0:0:0:
301,211,28729,1,0,0:0:0:0:
245,51,28970,1,0,0:0:0:0:
301,211,29212,1,0,0:0:0:0:
377,49,29454,1,0,0:0:0:0:
380,213,29696,2,0,P|381:278|351:324,1,90.0000005960464
81,105,30664,5,0,0:0:0:0:
185,99,30906,1,0,0:0:0:0:
279,89,31148,1,0,0:0:0:0:
285,169,31632,2,0,L|59:221,1,225.000001490116
255,75,32841,1,0,0:0:0:0:
260,170,33083,2,0,P|298:206|222:197,1,180.000001192093
95,81,34777,5,0,0:0:0:0:
102,83,35019,1,0,0:0:0:0:
285,87,35503,2,0,P|330:63|285:119,1,180.000001192093
350,259,36229,1,0,0:0:0:0:
350,259,36470,1,0,0:0:0:0:
111,60,37438,6,0,L|110:167,5,90.0000005960464
166,57,38890,1,0,0:0:0:0:
269,54,39132,1,0,0:0:0:0:
396,67,39374,2,0,P|452:157|406:242,1,180.000001192093
248,187,40099,1,0,0:0:0:0:
250,200,40341,1,0,0:0:0:0:
94,75,40825,2,0,L|232:76,1,135.00000089407
228,75,41309,1,0,0:0:0:0:
196,99,42519,5,0,0:0:0:0:
292,109,42761,1,0,0:0:0:0:
186,205,43245,2,0,P|236:258|319:207,1,180.000001192093
431,129,43970,1,0,0:0:0:0:
431,129,44212,1,0,0:0:0:0:
132,53,45180,5,0,0:0:0:0:
121,295,45422,1,0,0:0:0:0:
219,50,45664,1,0,0:0:0:0:
215,301,45906,1,0,0:0:0:0:
312,54,46148,1,0,0:0:0:0:
303,299,46390,1,0,0:0:0:0:
387,56,46632,1,0,0:0:0:0:
417,297,46874,1,0,0:0:0:0:
191,187,47116,2,0,P|245:143|326:218,1,180.000001192093
133,178,47841,1,0,0:0:0:0:
137,174,48083,1,0,0:0:0:0:
138,99,48567,5,0,0:0:0:0:
168,97,49051,1,0,0:0:0:0:
208,98,49293,1,0,0:0:0:0:
346,101,49535,5,0,0:0:0:0:
342,136,49656,1,0,0:0:0:0:
331,170,49777,1,0,0:0:0:0:
318,203,49898,1,0,0:0:0:0:
300,234,50019,1,0,0:0:0:0:
277,262,50140,1,0,0:0:0:0:
249,284,50261,1,0,0:0:0:0:
217,300,50382,1,0,0:0:0:0:
182,310,50503,1,0,0:0:0:0:
44,183,50745,5,0,0:0:0:0:
122,181,50866,2,0,P|121:254|157:281,1,90.0000005960464
200,185,51229,1,0,0:0:0:0:
43,111,51470,2,0,L|244:111,1,180.000001192093
