osu file format v14

[General]
AudioFilename: audio.mp3
AudioLeadIn: 0
PreviewTime: 151307
Countdown: 0
SampleSet: None
StackLeniency: 0.4
Mode: 0
LetterboxInBreaks: 0
EpilepsyWarning: 1
WidescreenStoryboard: 1

[Editor]
Bookmarks: 171517,171675,171833,171991,230412,260254,265306
DistanceSpacing: 1
BeatDivisor: 4
GridSize: 4
TimelineZoom: 4.099999

[Metadata]
Title:Zen Zen Zense
TitleUnicode:前前前世
Artist:Ajikko
ArtistUnicode:あじっこ
Creator:DivineEnigma
Version:Past
Source:君の名は。
Tags:kimi no wa na your name taki mitsuha utaite happyrocket88
BeatmapID:1204055
BeatmapSetID:568154

[Difficulty]
HPDrainRate:7
CircleSize:4
OverallDifficulty:8
ApproachRate:9.2
SliderMultiplier:1.7
SliderTickRate:1

[Events]
//Background and Video events
0,0,"bg.jpg",0,0
//Break Periods
2,177517,196526
//Storyboard Layer 0 (Background)
//Storyboard Layer 1 (Fail)
//Storyboard Layer 2 (Pass)
//Storyboard Layer 3 (Foreground)
//Storyboard Sound Samples

[TimingPoints]
360,315.789473684211,4,3,1,70,1,0
9202,-100,4,2,0,40,0,0
9307,-100,4,2,0,20,0,0
9412,-100,4,2,0,40,0,0
9517,-100,4,2,0,20,0,0
9623,-100,4,2,0,40,0,0
9728,-100,4,2,0,20,0,0
9833,-100,4,2,0,40,0,0
9938,-100,4,2,0,20,0,0
10044,-100,4,2,0,40,0,0
10149,-100,4,2,0,20,0,0
10254,-100,4,2,0,40,0,0
10360,-100,4,2,0,20,0,0
10465,-100,4,3,1,65,0,0
20570,-133.333333333333,4,3,1,60,0,0
44412,-100,4,3,1,70,0,0
45833,-100,4,3,1,75,0,0
55938,-133.333333333333,4,3,1,65,0,0
63517,-100,4,3,1,70,0,0
68096,-133.333333333333,4,2,1,40,0,0
68570,-90.9090909090909,4,3,1,80,0,1
68807,-90.9090909090909,4,3,1,5,0,1
68886,-90.9090909090909,4,3,1,80,0,1
69123,-90.9090909090909,4,3,1,5,0,1
69202,-90.9090909090909,4,3,1,80,0,1
69438,-90.9090909090909,4,3,1,5,0,1
69517,-90.9090909090909,4,3,1,80,0,1
78912,-90.9090909090909,4,3,1,5,0,1
78991,-90.9090909090909,4,3,1,80,0,1
79228,-90.9090909090909,4,3,1,5,0,1
79307,-90.9090909090909,4,3,1,80,0,1
79544,-90.9090909090909,4,3,1,5,0,1
79623,-90.9090909090909,4,3,1,80,0,1
88781,-100,4,3,1,80,0,1
91307,-200,4,3,1,80,0,1
91623,-200,4,3,1,5,0,1
91938,-200,4,3,1,5,0,1
92254,-200,4,3,1,5,0,1
92412,-100,4,3,1,80,0,1
93833,-100,4,3,1,60,0,0
103938,-133.333333333333,4,3,1,60,0,0
126675,-100,4,3,1,70,0,0
139307,-133.333333333333,4,3,1,65,0,0
146886,-100,4,3,1,70,0,0
151465,-133.333333333333,4,2,1,40,0,0
151938,-90.9090909090909,4,3,1,80,0,1
152175,-90.9090909090909,4,3,1,5,0,1
152254,-90.9090909090909,4,3,1,80,0,1
152491,-90.9090909090909,4,3,1,5,0,1
152570,-90.9090909090909,4,3,1,80,0,1
152807,-90.9090909090909,4,3,1,5,0,1
152886,-90.9090909090909,4,3,1,80,0,1
162281,-90.9090909090909,4,3,1,5,0,1
162360,-90.9090909090909,4,3,1,80,0,1
162596,-90.9090909090909,4,3,1,5,0,1
162675,-90.9090909090909,4,3,1,80,0,1
162912,-90.9090909090909,4,3,1,5,0,1
162991,-90.9090909090909,4,3,1,80,0,1
172149,-100,4,3,1,80,0,1
176570,-100,4,3,1,45,0,1
176886,-100,4,3,1,25,0,1
177149,-100,4,3,1,60,0,0
197096,-133.333333333333,4,3,1,30,0,0
197333,-133.333333333333,4,3,1,5,0,0
197412,-100,4,3,1,50,0,0
226938,-100,4,3,1,65,0,0
227728,-100,4,3,1,75,0,0
231517,-100,4,2,0,40,0,0
231623,-100,4,2,0,20,0,0
231728,-100,4,2,0,40,0,0
231833,-100,4,2,0,20,0,0
231938,-100,4,2,0,40,0,0
232044,-100,4,2,0,20,0,0
232149,-100,4,2,0,40,0,0
232254,-100,4,2,0,20,0,0
232360,-100,4,2,0,40,0,0
232465,-100,4,2,0,20,0,0
232570,-100,4,2,0,40,0,0
232675,-100,4,2,0,20,0,0
233412,315.789473684211,4,3,1,80,1,1
233412,-90.9090909090909,4,3,1,80,0,1
233649,-90.9090909090909,4,3,1,5,0,1
233728,-90.9090909090909,4,3,1,80,0,1
233965,-90.9090909090909,4,3,1,5,0,1
234044,-90.9090909090909,4,3,1,80,0,1
234281,-90.9090909090909,4,3,1,5,0,1
234360,-90.9090909090909,4,3,1,80,0,1
243754,-90.9090909090909,4,3,1,5,0,1
243833,-90.9090909090909,4,3,1,80,0,1
244069,-90.9090909090909,4,3,1,5,0,1
244148,-90.9090909090909,4,3,1,80,0,1
244385,-90.9090909090909,4,3,1,5,0,1
244464,-90.9090909090909,4,3,1,80,0,1
253622,-100,4,3,1,80,0,1
256148,-400,4,3,1,80,0,1
256227,-400,4,3,1,5,0,1
258043,-100,4,3,1,80,0,0
258675,-100,4,3,1,65,0,0
271306,-100,4,3,1,30,0,0
276359,-100,4,3,1,5,0,0

[Colours]
Combo1 : 254,168,73
Combo2 : 187,187,255
Combo3 : 91,91,189
Combo4 : 188,122,173
SliderBorder : 146,159,255

[HitObjects]
140,188,360,6,0,L|168:156,2,42.5,4|0|0,0:0|0:0|0:0,0:0:0:0:
164,304,675,1,0,0:0:0:0:
260,232,833,1,0,0:0:0:0:
248,104,991,2,0,P|180:60|104:92,1,170
164,304,1465,6,0,B|180:236|180:236|164:192|164:192|172:140,1,170,4|0,0:0|0:0,0:0:0:0:
296,72,1938,2,0,L|284:156,1,85,4|0,0:0|0:0,0:0:0:0:
404,108,2254,2,0,L|392:192,1,85,4|0,0:0|0:0,0:0:0:0:
512,152,2570,2,0,L|500:236,1,85,4|0,0:0|0:0,0:0:0:0:
332,336,2886,6,0,L|304:304,2,42.5,4|0|0,0:0|0:0|0:0,0:0:0:0:
216,364,3202,1,0,0:0:0:0:
152,264,3360,1,0,0:0:0:0:
216,164,3517,2,0,P|184:108|124:164,1,170
276,84,3991,6,0,P|212:32|124:36,1,170,4|0,0:0|0:0,0:0:0:0:
40,132,4465,2,0,L|36:216,1,85,4|0,0:0|0:0,0:0:0:0:
168,156,4781,2,0,L|164:240,1,85,4|0,0:0|0:0,0:0:0:0:
296,184,5096,2,0,L|292:268,1,85,4|0,0:0|0:0,0:0:0:0:
128,260,5412,6,0,L|94:285,2,42.5,4|0|0,0:0|0:0|0:0,0:0:0:0:
162,145,5728,1,0,0:0:0:0:
46,161,5886,1,0,0:0:0:0:
14,277,6044,2,0,P|50:353|130:353,1,170
190,157,6517,6,0,B|138:185|138:185|90:285,1,170,4|0,0:0|0:0,0:0:0:0:
228,344,6991,2,0,L|200:256,1,85,4|0,0:0|0:0,0:0:0:0:
316,352,7307,2,0,L|290:271,1,85,4|0,0:0|0:0,0:0:0:0:
412,352,7623,2,0,L|386:271,1,85,4|0,0:0|0:0,0:0:0:0:
428,96,7938,6,0,L|452:60,2,42.5,4|0|0,0:0|0:0|0:0,0:0:0:0:
348,196,8254,2,0,P|288:216|260:216,1,85
120,136,8570,2,0,P|179:157|201:174,1,85,4|0,0:0|0:0,0:0:0:0:
148,316,8886,2,0,P|179:260|200:242,1,85,4|4,0:0|0:0,0:0:0:0:
332,120,9202,6,0,L|288:160,1,56.6666666666667,2|0,0:0|0:0,0:0:0:0:
156,284,9412,2,0,L|197:245,1,56.6666666666667,2|0,0:0|0:0,0:0:0:0:
376,132,9623,6,0,L|332:172,1,56.6666666666667,2|0,0:0|0:0,0:0:0:0:
200,296,9833,2,0,L|241:257,1,56.6666666666667,2|0,0:0|0:0,0:0:0:0:
428,136,10044,6,0,L|384:176,1,56.6666666666667,2|0,0:0|0:0,0:0:0:0:
252,300,10254,2,0,L|293:261,1,56.6666666666667,2|0,0:0|0:0,0:0:0:0:
272,104,10465,6,0,P|216:88|192:96,1,85,12|0,0:0|0:0,0:0:0:0:
213,252,10781,2,0,P|269:268|293:260,1,85,8|0,0:0|0:0,0:0:0:0:
152,184,11096,1,8,0:0:0:0:
196,340,11254,1,0,0:0:0:0:
352,304,11412,2,0,L|392:224,1,85,8|0,0:0|0:0,0:0:0:0:
312,84,11728,6,0,P|292:124|296:164,1,85,12|0,0:0|0:0,0:0:0:0:
408,88,12044,1,12,0:0:0:0:
304,200,12202,1,0,0:0:0:0:
156,168,12360,2,0,P|148:124|156:84,1,85,12|0,0:0|0:0,0:0:0:0:
312,84,12675,1,12,0:0:0:0:
216,216,12833,1,0,0:0:0:0:
320,284,12991,5,12,0:0:0:0:
320,284,13070,1,0,0:0:0:0:
320,284,13149,1,0,0:0:0:0:
348,144,13307,2,0,L|260:136,1,85,8|0,0:0|0:0,0:0:0:0:
144,232,13623,1,8,0:0:0:0:
208,92,13781,1,0,0:0:0:0:
268,232,13938,2,0,L|287:314,1,85,8|0,0:0|0:0,0:0:0:0:
312,144,14254,6,0,P|256:136|224:144,1,85,12|0,0:0|0:0,0:0:0:0:
204,312,14570,2,0,P|245:320|287:313,1,85,12|0,0:0|0:0,0:0:0:0:
168,184,14886,1,12,0:0:0:0:
104,264,15044,1,0,0:0:0:0:
320,188,15202,1,12,0:0:0:0:
228,142,15360,1,0,0:0:0:0:
96,200,15517,5,12,0:0:0:0:
96,200,15596,1,0,0:0:0:0:
96,200,15675,1,0,0:0:0:0:
204,248,15833,2,0,L|287:233,1,85,8|0,0:0|0:0,0:0:0:0:
412,328,16149,2,0,L|360:260,1,85,8|0,0:0|0:0,0:0:0:0:
372,96,16465,2,0,L|352:184,1,85,8|0,0:0|0:0,0:0:0:0:
184,64,16781,6,0,L|164:148,1,85,12|0,0:0|0:0,0:0:0:0:
288,104,17096,1,12,0:0:0:0:
184,64,17254,1,0,0:0:0:0:
44,196,17412,1,12,0:0:0:0:
132,264,17570,1,0,0:0:0:0:
279,188,17728,2,0,L|287:104,1,85,12|0,0:0|0:0,0:0:0:0:
144,52,18044,5,12,0:0:0:0:
144,52,18123,1,0,0:0:0:0:
144,52,18202,1,0,0:0:0:0:
92,180,18360,2,0,L|96:268,1,85,8|0,0:0|0:0,0:0:0:0:
228,288,18675,1,8,0:0:0:0:
172,164,18833,1,0,0:0:0:0:
320,128,18991,2,0,L|304:216,1,85,8|0,0:0|0:0,0:0:0:0:
175,280,19307,6,0,P|123:280|95:264,1,85,12|0,0:0|0:0,0:0:0:0:
300,240,19623,1,12,0:0:0:0:
156,188,19781,1,0,0:0:0:0:
352,132,19938,1,12,0:0:0:0:
192,66,20096,1,8,0:0:0:0:
186,86,20174,1,8,0:0:0:0:
180,106,20253,1,8,0:0:0:0:
174,127,20332,1,8,0:0:0:0:
168,147,20411,1,8,0:0:0:0:
162,168,20490,1,8,0:0:0:0:
156,188,20570,6,0,L|120:310,1,127.500004863739,4|0,0:0|0:0,0:0:0:0:
228,378,21044,1,0,0:0:0:0:
348,330,21202,2,0,L|400:282,1,63.7500024318696
308,192,21517,2,0,L|261:235,1,63.7500024318696
388,188,21833,6,0,P|364:132|300:112,1,127.500004863739
192,132,22307,1,0,0:0:0:0:
96,192,22465,2,0,P|40:216|0:208,2,95.6250036478044,0|0|2,0:0|2:0|0:0,0:0:0:0:
136,152,23017,1,2,0:0:0:0:
136,152,23096,6,0,P|148:216|208:248,1,127.500004863739
276,116,23570,1,0,0:0:0:0:
348,248,23728,2,0,P|352:212|340:180,1,63.7500024318696
252,116,24044,2,0,P|247:147|256:177,1,63.7500024318696
220,40,24360,6,0,L|104:96,1,127.500004863739
64,204,24833,1,0,0:0:0:0:
228,239,24991,2,0,P|197:248|166:241,1,63.7500024318696,0|2,0:0|0:0,0:0:0:0:
196,164,25307,2,0,P|232:156|260:164,1,63.7500024318696,0|2,0:0|2:0,0:0:0:0:
320,228,25544,1,2,2:0:0:0:
320,228,25623,5,4,2:0:0:0:
256,96,25781,1,0,2:0:0:0:
196,210,25938,1,0,2:0:0:0:
315,54,26096,1,0,2:0:0:0:
196,164,26254,1,0,2:0:0:0:
103,54,26412,1,0,2:0:0:0:
196,240,26570,1,0,2:0:0:0:
348,144,26728,1,0,2:0:0:0:
239,34,26886,5,0,2:0:0:0:
139,142,27044,1,0,2:0:0:0:
259,58,27202,1,0,2:0:0:0:
364,116,27360,1,0,2:0:0:0:
219,214,27517,2,0,P|179:222|151:214,1,63.7500024318696,0|0,2:0|2:0,0:0:0:0:
183,75,27833,1,0,2:0:0:0:
295,158,27991,1,0,2:0:0:0:
244,40,28149,6,0,L|112:24,2,127.500004863739,4|0|0,0:0|0:0|0:0,0:0:0:0:
304,140,28938,1,0,0:0:0:0:
280,252,29096,2,0,B|244:260|244:260|208:248,1,63.7500024318696
192,124,29412,2,0,B|228:116|228:116|253:124,1,63.7500024318696
348,200,29728,2,0,L|360:268,1,63.7500024318696,0|0,0:0|2:0,0:0:0:0:
420,160,30044,5,0,2:0:0:0:
408,268,30202,1,0,2:0:0:0:
496,144,30360,5,0,2:0:0:0:
440,292,30517,1,0,2:0:0:0:
348,184,30675,6,0,L|220:168,1,127.500004863739,4|0,0:0|0:0,0:0:0:0:
120,152,31149,1,0,0:0:0:0:
220,304,31307,2,0,L|232:236,1,63.7500024318696
264,40,31623,2,0,L|252:102,1,63.7500024318696
231,241,31938,6,0,P|160:264|112:248,1,127.500004863739
168,140,32412,1,0,0:0:0:0:
276,156,32570,2,0,P|320:136|368:152,2,95.6250036478044,0|0|2,2:0|2:0|0:0,0:0:0:0:
252,204,33123,1,2,0:0:0:0:
252,204,33202,6,0,L|124:220,1,127.500004863739
64,128,33675,1,0,0:0:0:0:
160,80,33833,2,0,L|228:88,1,63.7500024318696
320,136,34149,2,0,L|339:196,1,63.7500024318696
212,248,34465,6,0,L|192:316,1,63.7500024318696,0|2,0:0|0:0,0:0:0:0:
152,348,34702,1,2,0:0:0:0:
152,348,34781,2,0,L|144:280,1,63.7500024318696
180,152,35096,2,0,P|216:144|248:152,1,63.7500024318696,0|2,0:0|0:0,0:0:0:0:
216,228,35333,1,2,0:0:0:0:
216,228,35412,2,0,P|180:236|147:228,1,63.7500024318696
304,108,35728,5,4,2:0:0:0:
268,264,35886,1,0,2:0:0:0:
184,128,36044,1,0,2:0:0:0:
108,268,36202,1,0,2:0:0:0:
96,108,36360,1,0,2:0:0:0:
208,240,36517,1,0,2:0:0:0:
340,128,36675,1,0,2:0:0:0:
284,292,36833,1,0,2:0:0:0:
172,172,36991,6,0,P|188:208|208:224,1,63.7500024318696,0|0,2:0|2:0,0:0:0:0:
312,152,37307,2,0,P|296:116|276:100,1,63.7500024318696,0|0,2:0|2:0,0:0:0:0:
260,256,37623,1,0,2:0:0:0:
384,164,37781,1,0,2:0:0:0:
284,288,37938,2,0,L|288:212,1,63.7500024318696,0|0,2:0|2:0,0:0:0:0:
184,104,38254,6,0,L|192:232,2,127.500004863739,4|0|0,0:0|0:0|0:0,0:0:0:0:
292,128,39044,1,0,0:0:0:0:
360,244,39202,6,0,L|296:240,1,63.7500024318696
292,128,39517,2,0,L|228:144,1,63.7500024318696
272,268,39833,6,0,L|208:264,1,63.7500024318696
204,152,40149,2,0,L|112:180,1,95.6250036478044,0|0,2:0|2:0,0:0:0:0:
88,236,40465,2,0,L|100:304,1,63.7500024318696,0|0,2:0|2:0,0:0:0:0:
240,340,40781,5,4,2:0:0:0:
132,232,40938,1,0,2:0:0:0:
260,300,41096,1,0,2:0:0:0:
396,240,41254,1,0,2:0:0:0:
284,136,41412,1,0,2:0:0:0:
212,248,41570,1,0,2:0:0:0:
360,172,41728,2,0,L|352:72,1,95.6250036478044,0|2,2:0|2:0,0:0:0:0:
316,32,42044,5,4,2:0:0:0:
224,80,42202,1,0,2:0:0:0:
196,240,42360,2,0,P|200:200|192:172,1,63.7500024318696,0|0,2:0|2:0,0:0:0:0:
64,244,42675,2,0,P|60:284|68:312,1,63.7500024318696,0|0,2:0|2:0,0:0:0:0:
188,348,42991,2,0,L|284:328,1,95.6250036478044,0|2,2:0|2:0,0:0:0:0:
332,288,43307,6,0,L|332:224,1,63.7500024318696,4|0,2:0|0:0,0:0:0:0:
236,112,43623,1,0,0:0:0:0:
100,164,43781,1,0,0:0:0:0:
208,260,43938,2,0,L|196:196,1,63.7500024318696
316,112,44254,1,0,0:0:0:0:
400,232,44412,6,0,L|352:304,1,85,12|0,0:0|0:0,0:0:0:0:
164,276,44728,1,0,0:0:0:0:
164,276,44807,1,0,0:0:0:0:
164,276,44886,2,0,L|168:224,1,42.5
268,128,45044,2,0,L|264:170,1,42.5
296,312,45202,6,0,L|300:260,1,42.5
400,164,45360,2,0,L|396:206,1,42.5
379,327,45517,6,0,L|291:311,1,85,12|0,0:0|0:0,0:0:0:0:
208,188,45833,5,12,0:0:0:0:
295,311,45991,1,0,0:0:0:0:
300,156,46149,1,8,0:0:0:0:
224,288,46307,1,0,0:0:0:0:
376,240,46465,2,0,L|380:156,1,85,8|0,0:0|0:0,0:0:0:0:
200,112,46781,1,8,0:0:0:0:
136,248,46938,1,0,0:0:0:0:
302,282,47096,6,0,L|378:238,1,85,8|0,0:0|0:0,0:0:0:0:
212,152,47412,1,8,0:0:0:0:
136,284,47570,1,0,0:0:0:0:
180,136,47728,1,8,0:0:0:0:
282,250,47886,1,0,0:0:0:0:
373,124,48044,2,0,L|354:207,1,85,8|0,0:0|0:0,0:0:0:0:
232,296,48360,6,0,L|220:208,1,85,12|0,0:0|0:0,0:0:0:0:
116,100,48675,2,0,L|88:184,1,85,8|0,0:0|0:0,0:0:0:0:
200,344,48991,2,0,P|204:296|188:260,1,85,8|0,0:0|0:0,0:0:0:0:
36,188,49307,2,0,P|32:236|48:272,1,85,8|0,0:0|0:0,0:0:0:0:
212,308,49623,5,8,0:0:0:0:
248,160,49781,1,0,0:0:0:0:
112,220,49938,1,8,0:0:0:0:
260,260,50096,1,0,0:0:0:0:
380,164,50254,2,0,P|404:216|404:244,1,85,8|0,0:0|0:0,0:0:0:0:
260,260,50570,2,0,L|184:224,1,85,8|0,0:0|0:0,0:0:0:0:
212,72,50886,5,12,0:0:0:0:
183,223,51044,1,0,0:0:0:0:
312,140,51202,1,8,0:0:0:0:
332,292,51360,1,0,0:0:0:0:
183,223,51517,1,8,0:0:0:0:
312,140,51675,1,0,0:0:0:0:
332,292,51833,2,0,L|248:312,1,85,12|0,0:0|0:0,0:0:0:0:
116,252,52149,6,0,L|88:172,1,85,12|0,0:0|0:0,0:0:0:0:
292,220,52465,1,8,0:0:0:0:
176,328,52623,1,0,0:0:0:0:
188,167,52781,2,0,L|192:83,1,85,8|0,0:0|0:0,0:0:0:0:
308,180,53096,2,0,L|284:264,1,85,8|0,0:0|0:0,0:0:0:0:
392,128,53412,5,12,0:0:0:0:
288,284,53570,1,0,0:0:0:0:
276,88,53728,1,8,0:0:0:0:
260,280,53886,1,0,0:0:0:0:
156,116,54044,1,8,0:0:0:0:
244,292,54202,1,0,0:0:0:0:
84,192,54360,2,0,P|68:240|72:276,1,85,8|0,0:0|0:0,0:0:0:0:
196,372,54675,5,0,0:0:0:0:
288,284,54833,1,8,0:0:0:0:
176,212,54991,1,0,0:0:0:0:
164,340,55149,1,8,0:0:0:0:
204,320,55228,1,8,0:0:0:0:
244,304,55307,2,0,L|320:268,1,85,8|2,0:0|0:0,0:0:0:0:
276,168,55623,1,2,0:0:0:0:
192,224,55781,1,2,0:0:0:0:
320,267,55938,6,0,L|340:203,1,63.7500024318696,4|0,0:0|0:0,0:0:0:0:
260,104,56254,2,0,P|224:104|192:112,1,63.7500024318696
212,268,56570,2,0,P|248:268|280:260,1,63.7500024318696,8|0,0:0|0:0,0:0:0:0:
197,110,56886,1,0,0:0:0:0:
132,188,57044,1,0,0:0:0:0:
274,261,57202,5,0,0:0:0:0:
244,176,57360,1,8,0:0:0:0:
136,268,57517,1,0,0:0:0:0:
316,200,57675,1,0,0:0:0:0:
248,100,57833,6,0,P|204:112|168:180,1,127.500004863739,8|0,0:0|0:0,0:0:0:0:
196,272,58307,1,0,0:0:0:0:
292,216,58465,2,0,L|243:174,1,63.7500024318696,0|8,0:0|0:0,0:0:0:0:
396,164,58781,2,0,L|396:232,1,63.7500024318696
336,328,59096,2,0,L|204:332,1,127.500004863739,8|0,0:0|0:0,0:0:0:0:
116,260,59570,1,0,0:0:0:0:
212,140,59728,6,0,L|168:196,1,63.7500024318696,0|8,0:0|0:0,0:0:0:0:
316,164,60044,2,0,L|272:220,1,63.7500024318696
420,188,60360,2,0,L|376:244,2,63.7500024318696,8|0|8,0:0|0:0|0:0,0:0:0:0:
448,300,60833,1,0,0:0:0:0:
448,300,60991,6,0,P|384:312|320:312,1,127.500004863739,4|0,0:0|0:0,0:0:0:0:
208,312,61465,1,0,0:0:0:0:
124,232,61623,2,0,P|116:192|116:168,1,63.7500024318696,8|0,0:0|0:0,0:0:0:0:
274,182,61938,2,0,P|243:190|212:188,1,63.7500024318696
280,96,62254,5,0,0:0:0:0:
360,180,62412,1,8,0:0:0:0:
360,180,62570,2,0,P|368:228|368:248,1,63.7500024318696
260,294,62886,2,0,P|253:263|252:232,1,63.7500024318696,8|0,0:0|0:0,0:0:0:0:
296,152,63202,1,8,0:0:0:0:
168,204,63360,1,8,0:0:0:0:
364,244,63517,6,0,P|408:252|448:244,1,85,4|0,0:0|0:0,0:0:0:0:
372,108,63833,2,0,P|328:100|288:108,1,85,8|0,0:0|0:0,0:0:0:0:
216,248,64149,1,0,0:0:0:0:
288,107,64307,1,0,0:0:0:0:
128,200,64465,1,8,0:0:0:0:
300,296,64623,1,8,0:0:0:0:
288,107,64781,6,0,B|240:92|240:92|204:100,1,85,4|0,0:0|0:0,0:0:0:0:
140,240,65096,2,0,B|144:284|144:284|176:320,1,85,8|0,0:0|0:0,0:0:0:0:
324,284,65412,1,8,0:0:0:0:
326,97,65570,1,0,0:0:0:0:
216,248,65728,1,8,0:0:0:0:
396,248,65886,1,8,0:0:0:0:
326,97,66044,6,0,B|280:96|280:96|236:108,1,85,4|0,0:0|0:0,0:0:0:0:
152,232,66360,1,8,0:0:0:0:
152,232,66517,1,0,0:0:0:0:
300,276,66675,1,8,0:0:0:0:
300,276,66833,1,0,0:0:0:0:
284,124,66991,1,8,0:0:0:0:
284,124,67149,1,0,0:0:0:0:
172,264,67307,5,12,0:0:0:0:
329,262,67465,5,8,0:0:0:0:
334,237,67543,1,8,0:0:0:0:
333,211,67622,1,8,0:0:0:0:
322,188,67701,1,8,0:0:0:0:
305,170,67780,1,8,0:0:0:0:
292,148,67859,1,8,0:0:0:0:
284,124,67938,1,8,0:0:0:0:
172,264,68096,6,0,L|240:228,1,63.7500024318696,2|0,0:0|0:0,0:0:0:0:
104,216,68412,1,2,0:0:0:0:
303,359,68570,6,0,L|231:236,1,140.25000428009,4|0,0:0|0:0,0:0:0:0:
232,152,68886,2,0,L|302:273,1,140.25000428009,12|0,0:0|0:0,0:0:0:0:
316,188,69202,6,0,L|245:66,1,140.25000428009,4|2,0:0|0:0,0:0:0:0:
172,108,69517,1,12,0:0:0:0:
64,244,69675,5,8,0:0:0:0:
188,176,69833,1,4,0:0:0:0:
80,264,69991,1,0,0:0:0:0:
188,352,70149,1,8,0:0:0:0:
320,300,70307,6,0,P|344:248|248:244,1,187.000005706787,4|0,0:0|0:0,0:0:0:0:
248,360,70781,1,8,0:0:0:0:
368,360,70938,1,0,0:0:0:0:
416,240,71096,6,0,P|392:180|368:160,1,93.5000028533936,4|0,0:0|0:0,0:0:0:0:
220,148,71412,1,8,0:0:0:0:
176,292,71570,1,0,0:0:0:0:
124,152,71728,1,4,0:0:0:0:
256,272,71886,1,0,0:0:0:0:
108,172,72044,1,8,0:0:0:0:
240,100,72202,6,0,B|212:144|212:144|344:104,1,187.000005706787,4|0,0:0|0:0,0:0:0:0:
160,52,72675,1,8,0:0:0:0:
148,240,72833,1,0,0:0:0:0:
52,80,72991,1,4,0:0:0:0:
252,184,73149,1,0,0:0:0:0:
76,176,73307,1,8,0:0:0:0:
184,316,73465,1,0,0:0:0:0:
184,176,73623,6,0,P|204:84|280:40,1,187.000005706787,4|8,0:0|0:0,0:0:0:0:
408,116,74096,1,0,0:0:0:0:
331,216,74254,2,0,P|296:187|280:144,1,93.5000028533936,4|0,0:0|0:0,0:0:0:0:
440,240,74570,1,8,0:0:0:0:
316,352,74728,6,0,B|236:352|188:300|188:300|232:296,1,187.000005706787,4|0,0:0|0:0,0:0:0:0:
319,156,75202,2,0,L|331:248,1,93.5000028533936,8|0,0:0|0:0,0:0:0:0:
316,124,75517,1,4,0:0:0:0:
240,280,75675,1,0,0:0:0:0:
168,148,75833,2,0,L|160:248,1,93.5000028533936,8|0,0:0|0:0,0:0:0:0:
304,152,76149,6,0,B|300:200|300:200|384:88,1,187.000005706787,4|8,0:0|0:0,0:0:0:0:
204,172,76623,2,0,L|200:268,1,93.5000028533936,0|4,0:0|0:0,0:0:0:0:
152,116,76938,1,0,0:0:0:0:
200,296,77096,1,8,0:0:0:0:
320,148,77254,6,0,P|404:192|400:276,1,187.000005706787,4|0,0:0|0:0,0:0:0:0:
288,344,77728,1,8,0:0:0:0:
158,306,77886,6,0,B|226:272|226:272|269:266|269:266|328:232,1,187.000005706787,4|0,0:0|0:0,0:0:0:0:
216,104,78360,1,8,0:0:0:0:
52,156,78517,1,8,0:0:0:0:
52,156,78596,1,8,0:0:0:0:
52,156,78675,6,0,P|116:140|104:72,1,140.25000428009,4|0,0:0|0:0,0:0:0:0:
32,52,78991,2,0,L|176:40,1,140.25000428009,12|0,0:0|0:0,0:0:0:0:
180,120,79307,6,0,P|208:68|280:92,1,140.25000428009,4|0,0:0|0:0,0:0:0:0:
324,148,79623,1,12,0:0:0:0:
296,304,79781,5,8,0:0:0:0:
412,200,79938,1,4,0:0:0:0:
256,236,80096,1,0,0:0:0:0:
360,356,80254,1,8,0:0:0:0:
412,200,80412,6,0,P|396:108|316:96,1,187.000005706787,4|0,0:0|0:0,0:0:0:0:
240,236,80886,2,0,P|284:222|318:190,1,93.5000028533936,12|0,0:0|0:0,0:0:0:0:
156,168,81202,6,0,L|104:348,1,187.000005706787,4|8,0:0|0:0,0:0:0:0:
56,184,81675,1,0,0:0:0:0:
200,316,81833,1,4,0:0:0:0:
72,204,81991,1,0,0:0:0:0:
228,336,82149,1,8,0:0:0:0:
320,176,82307,6,0,B|376:288|376:288|324:256,1,187.000005706787,4|0,0:0|0:0,0:0:0:0:
184,128,82781,2,0,L|168:224,1,93.5000028533936,8|0,0:0|0:0,0:0:0:0:
268,80,83096,1,4,0:0:0:0:
320,176,83254,2,0,L|304:272,1,93.5000028533936,0|8,0:0|0:0,0:0:0:0:
276,96,83570,1,0,0:0:0:0:
472,240,83728,6,0,P|408:204|428:104,1,187.000005706787,4|8,0:0|0:0,0:0:0:0:
184,128,84202,1,0,0:0:0:0:
272,272,84360,2,0,P|264:220|240:184,1,93.5000028533936,4|0,0:0|0:0,0:0:0:0:
108,184,84675,1,8,0:0:0:0:
112,370,84833,6,0,L|271:272,1,187.000005706787,4|0,0:0|0:0,0:0:0:0:
292,116,85307,1,8,0:0:0:0:
388,204,85465,1,0,0:0:0:0:
237,184,85623,2,0,L|273:276,1,93.5000028533936,4|0,0:0|0:0,0:0:0:0:
260,116,85938,1,8,0:0:0:0:
168,276,86096,1,0,0:0:0:0:
72,136,86254,6,0,P|92:64|200:40,1,187.000005706787,4|8,0:0|0:0,0:0:0:0:
320,96,86728,1,0,0:0:0:0:
232,192,86886,2,0,P|193:166|168:128,1,93.5000028533936,4|0,0:0|0:0,0:0:0:0:
336,160,87202,1,8,0:0:0:0:
228,288,87360,6,0,B|124:304|72:268|72:268|92:252,1,187.000005706787,4|0,0:0|0:0,0:0:0:0:
208,144,87833,1,8,0:0:0:0:
356,208,87991,1,0,0:0:0:0:
312,76,88149,6,0,P|284:56|270:32,2,62.3333352355958,8|8|8,0:0|0:0|0:0,0:0:0:0:
264,175,88465,2,0,P|248:207|220:227,2,62.3333352355958,8|8|8,0:0|0:0|0:0,0:0:0:0:
96,200,88781,6,0,L|264:176,1,170,4|0,0:0|0:0,0:0:0:0:
340,256,89254,1,0,0:0:0:0:
340,256,89412,6,0,P|376:160|344:104,1,170,12|0,0:0|0:0,0:0:0:0:
126,173,89886,6,0,P|202:206|280:176,1,170,12|0,0:0|0:0,0:0:0:0:
208,96,90360,1,0,0:0:0:0:
126,173,90517,1,0,0:0:0:0:
320,260,90675,1,0,0:0:0:0:
279,176,90833,1,0,0:0:0:0:
208,272,90991,2,0,L|216:356,1,85
348,292,91307,6,0,B|360:220|308:160|308:160|320:100|368:92|368:92|388:120|392:148,1,297.5,4|0,0:0|0:0,0:0:0:0:
248,248,92570,6,0,L|164:252,1,85,8|0,0:0|0:0,0:0:0:0:
92,164,92886,1,0,0:0:0:0:
184,104,93044,1,2,0:0:0:0:
204,104,93123,1,2,0:0:0:0:
224,104,93202,1,2,0:0:0:0:
300,172,93360,1,6,0:0:0:0:
300,172,93438,1,2,0:0:0:0:
300,172,93517,2,0,L|316:256,1,85,2|2,0:0|0:0,0:0:0:0:
276,316,93754,1,2,0:0:0:0:
276,316,93833,6,0,P|234:328|196:314,1,85,12|0,0:0|0:0,0:0:0:0:
136,168,94149,2,0,P|176:155|215:169,1,85,8|0,0:0|0:0,0:0:0:0:
336,248,94465,2,0,L|328:344,1,85,8|0,0:0|0:0,0:0:0:0:
188,364,94781,1,8,0:0:0:0:
100,252,94938,5,6,0:0:0:0:
100,252,95017,1,2,0:0:0:0:
100,252,95096,1,2,0:0:0:0:
208,128,95254,1,0,0:0:0:0:
300,268,95412,1,12,0:0:0:0:
208,80,95570,1,0,0:0:0:0:
128,220,95728,2,0,P|176:204|196:172,1,85,12|0,0:0|0:0,0:0:0:0:
68,128,96044,2,0,P|20:144|0:176,1,85,12|0,0:0|0:0,0:0:0:0:
84,312,96360,5,12,0:0:0:0:
84,312,96438,1,0,0:0:0:0:
84,312,96517,1,0,0:0:0:0:
194,176,96675,2,0,L|110:196,1,85,8|0,0:0|0:0,0:0:0:0:
294,239,96991,2,0,L|376:219,1,85,8|0,0:0|0:0,0:0:0:0:
253,255,97307,1,8,0:0:0:0:
262,114,97465,1,2,0:0:0:0:
262,114,97544,1,2,0:0:0:0:
262,114,97623,5,6,0:0:0:0:
88,64,97781,1,0,0:0:0:0:
255,83,97938,5,12,0:0:0:0:
120,213,98096,1,0,0:0:0:0:
263,92,98254,5,12,0:0:0:0:
270,263,98412,1,0,0:0:0:0:
274,92,98570,5,12,0:0:0:0:
402,202,98728,1,0,0:0:0:0:
208,120,98886,5,12,0:0:0:0:
208,120,98965,1,0,0:0:0:0:
208,120,99044,1,0,0:0:0:0:
248,308,99202,2,0,L|248:224,1,85,8|0,0:0|0:0,0:0:0:0:
388,112,99517,1,8,0:0:0:0:
248,208,99675,1,0,0:0:0:0:
388,308,99833,1,8,0:0:0:0:
372,116,99991,5,6,0:0:0:0:
372,116,100070,1,2,0:0:0:0:
372,116,100149,1,2,0:0:0:0:
236,196,100307,1,0,0:0:0:0:
336,28,100465,1,12,0:0:0:0:
240,168,100623,1,0,0:0:0:0:
100,264,100781,2,0,P|104:216|92:180,1,85,12|0,0:0|0:0,0:0:0:0:
204,284,101096,2,0,L|288:264,1,85,12|0,0:0|0:0,0:0:0:0:
372,136,101412,5,12,0:0:0:0:
372,136,101491,1,0,0:0:0:0:
372,136,101570,1,0,0:0:0:0:
220,120,101728,2,0,L|128:136,1,85,8|0,0:0|0:0,0:0:0:0:
128,288,102044,1,8,0:0:0:0:
247,192,102202,1,0,0:0:0:0:
352,304,102360,2,0,L|336:220,1,85,8|8,0:0|0:0,0:0:0:0:
324,140,102596,1,8,0:0:0:0:
324,140,102675,6,0,P|284:124|200:116,1,127.5,12|0,0:0|0:0,0:0:0:0:
128,172,102991,2,0,L|136:260,1,85,8|0,0:0|0:0,0:0:0:0:
300,324,103307,2,0,L|280:240,1,85,8|8,0:0|0:0,0:0:0:0:
420,156,103623,1,8,0:0:0:0:
276,80,103781,1,8,0:0:0:0:
124,128,103938,6,0,P|120:172|120:260,1,127.500004863739,4|0,0:0|0:0,0:0:0:0:
212,320,104412,1,0,0:0:0:0:
212,320,104570,2,0,P|260:316|276:320,1,63.7500024318696
360,264,104886,1,0,0:0:0:0:
396,164,105044,1,2,0:0:0:0:
396,164,105123,1,2,0:0:0:0:
396,164,105202,6,0,L|264:152,1,127.500004863739
196,232,105675,1,0,0:0:0:0:
88,152,105833,2,0,P|112:100|100:60,2,95.6250036478044,0|0|2,0:0|2:0|0:0,0:0:0:0:
36,212,106386,1,2,0:0:0:0:
36,212,106465,6,0,L|72:336,2,127.500004863739,0|0|2,0:0|0:0|0:0,0:0:0:0:
48,104,107254,1,0,0:0:0:0:
156,84,107412,1,0,0:0:0:0:
240,152,107570,1,2,0:0:0:0:
240,152,107649,1,0,0:0:0:0:
240,152,107728,6,0,L|252:12,2,127.500004863739
188,264,108517,1,0,0:0:0:0:
80,180,108675,2,0,P|120:172|148:180,1,63.7500024318696,4|0,2:0|2:0,0:0:0:0:
184,300,108991,5,4,2:0:0:0:
216,184,109149,1,0,2:0:0:0:
344,184,109307,1,0,2:0:0:0:
216,160,109465,1,0,2:0:0:0:
344,200,109623,1,0,2:0:0:0:
224,144,109781,5,0,0:0:0:0:
220,152,109860,1,2,2:0:0:0:
216,160,109938,1,0,0:0:0:0:
196,272,110096,1,0,2:0:0:0:
324,304,110254,6,0,P|356:284|372:260,2,63.7500024318696,4|0|2,0:0|0:0|0:0,0:0:0:0:
284,196,110728,1,0,0:0:0:0:
212,284,110886,2,0,L|192:356,1,63.7500024318696,2|0,0:0|0:0,0:0:0:0:
120,256,111202,2,0,L|100:328,1,63.7500024318696,4|0,0:0|0:0,0:0:0:0:
52,216,111517,6,0,L|88:92,1,127.500004863739
212,60,111991,1,0,0:0:0:0:
212,60,112149,2,0,L|216:124,1,63.7500024318696
316,144,112465,2,0,L|320:208,1,63.7500024318696,0|2,0:0|0:0,0:0:0:0:
224,292,112781,6,0,P|168:248|112:248,1,127.500004863739
132,352,113254,1,0,0:0:0:0:
224,292,113412,2,0,L|212:224,1,63.7500024318696
308,164,113728,2,0,L|296:96,1,63.7500024318696,0|2,0:0|0:0,0:0:0:0:
232,68,113965,1,2,0:0:0:0:
232,68,114044,6,0,L|160:176,1,127.500004863739,4|0,0:0|0:0,0:0:0:0:
244,288,114517,1,0,0:0:0:0:
244,288,114675,2,0,L|236:224,1,63.7500024318696
348,140,114991,2,0,L|336:208,1,63.7500024318696,0|4,0:0|0:0,0:0:0:0:
244,288,115307,6,0,P|212:344|164:320,1,127.500004863739
156,180,115781,1,0,0:0:0:0:
288,224,115938,2,0,L|248:168,1,63.7500024318696
392,196,116254,2,0,L|354:144,1,63.7500024318696,4|0,0:0|0:0,0:0:0:0:
240,60,116570,6,0,L|176:80,1,63.7500024318696
132,260,116886,1,0,0:0:0:0:
112,160,117044,1,0,0:0:0:0:
256,184,117202,1,0,0:0:0:0:
276,284,117360,1,0,0:0:0:0:
260,300,117438,1,2,2:0:0:0:
244,316,117517,2,0,L|176:328,1,63.7500024318696,2|2,0:0|0:0,0:0:0:0:
112,316,117754,1,0,0:0:0:0:
112,316,117833,6,0,L|104:252,1,63.7500024318696
152,148,118149,2,0,L|224:140,1,63.7500024318696
312,80,118465,1,0,0:0:0:0:
400,156,118623,1,0,0:0:0:0:
424,268,118781,2,0,L|360:260,1,63.7500024318696
288,240,119017,1,2,2:0:0:0:
288,240,119096,5,4,0:0:0:0:
156,164,119254,1,0,2:0:0:0:
80,288,119412,1,0,2:0:0:0:
224,324,119570,1,0,2:0:0:0:
204,180,119728,1,0,2:0:0:0:
340,236,119886,1,0,2:0:0:0:
264,112,120044,2,0,L|196:96,1,63.7500024318696,0|2,2:0|2:0,0:0:0:0:
108,184,120360,6,0,P|106:216|116:252,2,63.7500024318696,0|0|0,2:0|0:0|0:0,0:0:0:0:
216,208,120833,1,0,0:0:0:0:
216,208,120991,2,0,P|223:238|221:270,1,63.7500024318696,0|0,2:0|0:0,0:0:0:0:
312,188,121307,2,0,P|304:157|306:125,1,63.7500024318696,4|0,2:0|0:0,0:0:0:0:
416,144,121623,6,0,L|432:272,2,127.500004863739
316,88,122412,1,0,0:0:0:0:
305,109,122491,1,2,2:0:0:0:
295,131,122570,1,0,0:0:0:0:
208,200,122728,1,2,2:0:0:0:
196,176,122807,1,0,0:0:0:0:
184,156,122886,6,0,L|184:288,1,127.500004863739
312,280,123360,1,0,0:0:0:0:
312,280,123517,2,0,L|316:216,1,63.7500024318696
184,156,123833,2,0,L|180:220,1,63.7500024318696,4|0,0:0|0:0,0:0:0:0:
192,340,124149,6,0,P|223:344|255:339,1,63.7500024318696,4|0,0:0|0:0,0:0:0:0:
376,292,124465,2,0,P|384:256|380:228,1,63.7500024318696
304,128,124781,1,0,0:0:0:0:
200,200,124938,1,0,0:0:0:0:
63,227,125096,2,0,B|60:200|60:200|64:164,1,63.7500024318696,4|0,0:0|0:0,0:0:0:0:
240,132,125412,5,4,0:0:0:0:
156,236,125570,1,0,0:0:0:0:
300,200,125728,2,0,B|308:232|308:232|312:268,1,63.7500024318696
152,156,126044,2,0,B|144:124|144:124|140:88,1,63.7500024318696
208,256,126360,1,4,0:0:0:0:
304,164,126517,1,0,0:0:0:0:
396,268,126675,6,0,P|356:284|316:276,1,85,4|8,0:0|0:0,0:0:0:0:
296,260,126912,1,8,0:0:0:0:
296,260,126991,1,8,0:0:0:0:
224,144,127149,2,0,L|200:108,2,42.5,6|2|2,0:0|0:0|0:0,0:0:0:0:
208,24,127465,1,0,0:0:0:0:
136,176,127623,2,0,L|124:260,1,85,8|0,0:0|0:0,0:0:0:0:
248,320,127938,5,4,0:0:0:0:
248,320,128096,1,8,0:0:0:0:
344,188,128254,1,0,0:0:0:0:
344,188,128412,1,8,0:0:0:0:
160,124,128570,1,8,0:0:0:0:
160,124,128728,1,8,0:0:0:0:
148,268,128886,6,0,L|280:292,1,127.5,12|0,0:0|0:0,0:0:0:0:
328,304,129202,5,12,0:0:0:0:
312,144,129360,1,0,0:0:0:0:
152,224,129517,1,8,0:0:0:0:
273,290,129675,1,0,0:0:0:0:
404,196,129833,2,0,L|400:112,1,85,8|0,0:0|0:0,0:0:0:0:
236,164,130149,2,0,L|240:248,1,85,8|0,0:0|0:0,0:0:0:0:
312,104,130465,5,8,0:0:0:0:
244,276,130623,1,0,0:0:0:0:
120,148,130781,2,0,P|104:192|104:232,1,85,8|0,0:0|0:0,0:0:0:0:
264,136,131096,1,8,0:0:0:0:
160,292,131254,1,0,0:0:0:0:
312,264,131412,2,0,P|352:240|384:216,1,85,8|0,0:0|0:0,0:0:0:0:
200,120,131728,6,0,P|160:143|128:168,1,85,12|0,0:0|0:0,0:0:0:0:
236,344,132044,2,0,P|236:296|228:260,1,85,8|0,0:0|0:0,0:0:0:0:
121,82,132360,2,0,P|121:130|129:166,1,85,8|0,0:0|0:0,0:0:0:0:
328,116,132675,2,0,P|284:112|244:116,1,85,8|0,0:0|0:0,0:0:0:0:
136,252,132991,5,0,0:0:0:0:
288,312,133149,1,8,0:0:0:0:
292,152,133307,1,0,0:0:0:0:
136,200,133465,1,0,0:0:0:0:
288,312,133623,2,0,P|332:312|372:296,1,85,8|0,0:0|0:0,0:0:0:0:
436,180,133938,2,0,P|436:128|420:100,1,85,8|0,0:0|0:0,0:0:0:0:
233,177,134254,6,0,P|275:176|316:164,1,85,12|0,0:0|0:0,0:0:0:0:
256,32,134570,1,8,0:0:0:0:
132,120,134728,1,0,0:0:0:0:
224,252,134886,1,12,0:0:0:0:
164,44,135202,6,0,P|97:48|56:92,1,127.500004863739,12|0,0:0|0:0,0:0:0:0:
72,160,135517,6,0,L|96:244,1,85,8|0,0:0|0:0,0:0:0:0:
224,320,135833,1,8,0:0:0:0:
352,208,135991,1,0,0:0:0:0:
220,132,136149,2,0,L|228:216,1,85,8|0,0:0|0:0,0:0:0:0:
344,344,136465,2,0,L|288:280,1,85,8|0,0:0|0:0,0:0:0:0:
376,96,136781,5,12,0:0:0:0:
228,208,136938,1,0,0:0:0:0:
416,204,137096,1,8,0:0:0:0:
228,188,137254,1,0,0:0:0:0:
308,360,137412,1,8,0:0:0:0:
228,172,137570,1,0,0:0:0:0:
96,340,137728,2,0,P|112:292|140:264,1,85,12|0,0:0|0:0,0:0:0:0:
296,256,138044,6,0,P|284:284|264:304,2,56.6666666666667,2|8|8,0:0|0:0|0:0,0:0:0:0:
190,265,138360,2,0,P|160:271|132:266,2,56.6666666666667,8|8|8,0:0|0:0|0:0,0:0:0:0:
112,188,138675,6,0,P|89:167|77:141,2,56.6666666666667,12|8|8,0:0|0:0|0:0,0:0:0:0:
144,84,138991,2,0,P|142:52|152:26,2,56.6666666666667,0|0|0,2:0|2:0|2:0,0:0:0:0:
231,202,139307,6,0,P|239:171|233:141,1,63.7500024318696,4|0,0:0|0:0,0:0:0:0:
83,142,139623,2,0,P|75:173|82:204,1,63.7500024318696
128,316,139938,2,0,L|260:316,1,127.500004863739,8|0,0:0|0:0,0:0:0:0:
392,272,140412,1,0,0:0:0:0:
344,140,140570,5,0,0:0:0:0:
284,268,140728,1,8,0:0:0:0:
332,136,140886,1,0,0:0:0:0:
200,184,141044,1,0,0:0:0:0:
324,132,141202,2,0,P|264:80|216:80,1,127.500004863739,8|0,0:0|0:0,0:0:0:0:
120,156,141675,1,0,0:0:0:0:
216,259,141833,6,0,L|224:196,1,63.7500024318696,0|8,0:0|0:0,0:0:0:0:
120,292,142149,2,0,L|127:228,1,63.7500024318696
304,308,142465,2,0,L|311:244,2,63.7500024318696,8|0|8,0:0|0:0|0:0,0:0:0:0:
372,196,142938,1,0,0:0:0:0:
372,196,143096,6,0,P|340:172|312:168,1,63.7500024318696,0|8,0:0|0:0,0:0:0:0:
192,248,143412,2,0,P|227:229|243:206,1,63.7500024318696
240,64,143728,2,0,P|237:103|249:129,1,63.7500024318696
379,124,144044,2,0,P|383:92|373:63,1,63.7500024318696,8|0,0:0|0:0,0:0:0:0:
240,64,144360,6,0,L|112:112,1,127.500004863739,4|0,0:0|0:0,0:0:0:0:
124,244,144833,1,0,0:0:0:0:
124,244,144991,2,0,L|144:184,1,63.7500024318696,8|0,0:0|0:0,0:0:0:0:
276,156,145307,2,0,L|256:216,1,63.7500024318696,8|0,0:0|0:0,0:0:0:0:
192,303,145623,5,0,0:0:0:0:
160,200,145781,1,8,0:0:0:0:
276,156,145938,2,0,P|316:156|340:164,1,63.7500024318696,0|2,0:0|0:0,0:0:0:0:
316,268,146254,2,0,P|284:269|253:260,1,63.7500024318696,0|8,0:0|0:0,0:0:0:0:
168,192,146570,1,8,0:0:0:0:
296,96,146728,1,8,0:0:0:0:
356,236,146886,6,0,B|320:260|320:260|276:264,1,85,4|0,0:0|0:0,0:0:0:0:
168,160,147202,2,0,B|204:136|204:136|248:132,1,85,8|0,0:0|0:0,0:0:0:0:
356,236,147517,1,0,0:0:0:0:
168,160,147675,1,0,0:0:0:0:
328,72,147833,1,8,0:0:0:0:
278,263,147991,1,8,0:0:0:0:
204,128,148149,6,0,P|208:80|224:44,1,85,4|0,0:0|0:0,0:0:0:0:
334,174,148465,2,0,P|330:222|314:258,1,85,8|0,0:0|0:0,0:0:0:0:
222,46,148781,1,8,0:0:0:0:
334,174,148938,1,0,0:0:0:0:
188,248,149096,1,8,0:0:0:0:
268,120,149254,1,8,0:0:0:0:
352,296,149412,6,0,B|312:308|312:308|268:308,1,85,4|0,0:0|0:0,0:0:0:0:
116,256,149728,1,8,0:0:0:0:
116,256,149886,1,0,0:0:0:0:
188,112,150044,1,8,0:0:0:0:
188,112,150202,1,0,0:0:0:0:
340,172,150360,1,8,0:0:0:0:
340,172,150518,1,0,0:0:0:0:
256,328,150675,21,12,0:0:0:0:
104,232,150833,5,0,0:0:0:0:
116,209,150911,1,8,0:0:0:0:
132,190,150990,1,8,0:0:0:0:
152,173,151069,1,8,0:0:0:0:
174,161,151148,1,8,0:0:0:0:
198,152,151227,1,8,0:0:0:0:
223,148,151306,1,8,0:0:0:0:
340,284,151465,5,2,0:0:0:0:
232,328,151623,1,0,0:0:0:0:
144,256,151781,1,2,0:0:0:0:
292,136,151938,6,0,P|304:216|272:264,1,140.25000428009,4|0,0:0|0:0,0:0:0:0:
228,192,152254,2,0,P|216:112|248:64,1,140.25000428009,12|0,0:0|0:0,0:0:0:0:
292,136,152570,6,0,B|180:136|180:136|164:132|156:120,1,140.25000428009,4|0,0:0|0:0,0:0:0:0:
172,36,152886,1,12,0:0:0:0:
304,136,153044,5,8,0:0:0:0:
180,252,153202,1,4,0:0:0:0:
228,92,153360,1,0,0:0:0:0:
380,164,153517,1,8,0:0:0:0:
312,308,153675,6,0,P|256:236|288:152,1,187.000005706787,4|0,0:0|0:0,0:0:0:0:
384,256,154149,1,8,0:0:0:0:
276,344,154307,1,0,0:0:0:0:
136,268,154465,6,0,L|128:172,1,93.5000028533936,4|0,0:0|0:0,0:0:0:0:
208,84,154781,1,8,0:0:0:0:
140,292,154938,1,0,0:0:0:0:
292,168,155096,2,0,P|292:216|272:260,1,93.5000028533936,4|0,0:0|0:0,0:0:0:0:
152,152,155412,1,8,0:0:0:0:
276,52,155570,6,0,L|440:160,1,187.000005706787,4|0,0:0|0:0,0:0:0:0:
264,168,156044,1,8,0:0:0:0:
432,192,156202,1,0,0:0:0:0:
404,44,156360,1,4,0:0:0:0:
436,216,156517,1,0,0:0:0:0:
276,264,156675,2,0,P|224:276|184:268,1,93.5000028533936,8|0,0:0|0:0,0:0:0:0:
308,152,156991,6,0,L|320:344,1,187.000005706787,4|8,0:0|0:0,0:0:0:0:
148,292,157465,1,0,0:0:0:0:
40,160,157623,2,0,L|40:256,1,93.5000028533936,4|0,0:0|0:0,0:0:0:0:
100,108,157938,1,8,0:0:0:0:
228,232,158096,6,0,P|228:152|300:188,1,187.000005706787,4|0,0:0|0:0,0:0:0:0:
240,312,158570,1,8,0:0:0:0:
116,200,158728,1,0,0:0:0:0:
272,136,158886,1,4,0:0:0:0:
176,276,159044,1,0,0:0:0:0:
188,80,159202,1,8,0:0:0:0:
364,192,159360,1,0,0:0:0:0:
244,328,159517,6,0,P|161:291|142:203,1,187.000005706787,4|8,0:0|0:0,0:0:0:0:
276,76,159991,1,0,0:0:0:0:
380,192,160149,1,4,0:0:0:0:
236,232,160307,1,0,0:0:0:0:
380,100,160465,1,8,0:0:0:0:
340,296,160623,6,0,P|248:320|164:284,1,187.000005706787,4|0,0:0|0:0,0:0:0:0:
140,128,161096,1,8,0:0:0:0:
264,36,161254,6,0,B|276:84|276:84|260:220,1,187.000005706787,12|0,0:0|0:0,0:0:0:0:
140,128,161728,1,8,0:0:0:0:
264,36,161886,1,8,0:0:0:0:
264,36,161965,1,8,0:0:0:0:
264,36,162044,6,0,B|292:84|292:84|320:168,1,140.25000428009,4|0,0:0|0:0,0:0:0:0:
288,244,162360,2,0,B|276:192|276:192|300:92,1,140.25000428009,12|0,0:0|0:0,0:0:0:0:
356,168,162675,6,0,B|312:188|312:188|216:184,1,140.25000428009,4|0,0:0|0:0,0:0:0:0:
248,104,162991,1,12,0:0:0:0:
332,260,163149,5,8,0:0:0:0:
184,160,163307,1,4,0:0:0:0:
108,320,163465,1,0,0:0:0:0:
284,296,163623,1,8,0:0:0:0:
336,144,163781,6,0,P|272:72|192:100,1,187.000005706787,4|0,0:0|0:0,0:0:0:0:
120,192,164254,1,12,0:0:0:0:
152,308,164412,1,0,0:0:0:0:
272,232,164570,6,0,P|272:180|252:140,1,93.5000028533936,4|0,0:0|0:0,0:0:0:0:
73,223,164886,2,0,P|120:223|164:208,1,93.5000028533936,8|0,0:0|0:0,0:0:0:0:
44,132,165202,1,4,0:0:0:0:
56,300,165360,1,0,0:0:0:0:
212,272,165517,1,8,0:0:0:0:
320,152,165675,6,0,L|320:340,1,187.000005706787,4|0,0:0|0:0,0:0:0:0:
424,232,166149,1,8,0:0:0:0:
320,360,166307,1,0,0:0:0:0:
184,296,166465,2,0,P|180:248|168:200,1,93.5000028533936,4|0,0:0|0:0,0:0:0:0:
248,76,166781,1,8,0:0:0:0:
328,200,166938,1,0,0:0:0:0:
220,304,167096,6,0,P|168:312|124:308,1,93.5000028533936,4|0,0:0|0:0,0:0:0:0:
192,132,167412,1,8,0:0:0:0:
360,192,167570,1,0,0:0:0:0:
172,192,167728,2,0,L|153:100,1,93.5000028533936,4|0,0:0|0:0,0:0:0:0:
300,184,168044,1,8,0:0:0:0:
188,312,168202,6,0,B|144:248|152:176|152:176|128:200|112:208,1,187.000005706787,4|0,0:0|0:0,0:0:0:0:
60,340,168675,1,8,0:0:0:0:
208,336,168833,1,0,0:0:0:0:
328,192,168991,2,0,L|344:288,1,93.5000028533936,4|0,0:0|0:0,0:0:0:0:
216,204,169307,1,8,0:0:0:0:
324,100,169465,1,0,0:0:0:0:
448,184,169623,6,0,B|448:256|440:320|440:320|412:304|400:284,1,187.000005706787,4|8,0:0|0:0,0:0:0:0:
288,204,170096,1,0,0:0:0:0:
168,100,170254,2,0,P|216:88|256:104,1,93.5000028533936,4|0,0:0|0:0,0:0:0:0:
336,204,170570,1,8,0:0:0:0:
216,260,170728,6,0,P|168:272|128:256,1,93.5000028533936,4|0,0:0|0:0,0:0:0:0:
236,152,171044,1,0,0:0:0:0:
368,224,171202,2,0,L|360:320,1,93.5000028533936,8|0,0:0|0:0,0:0:0:0:
156,184,171517,5,12,0:0:0:0:
280,280,171675,1,8,0:0:0:0:
132,152,171833,5,8,0:0:0:0:
312,300,171991,1,8,0:0:0:0:
222,166,172149,6,0,P|178:174|131:168,1,85,4|0,0:0|0:0,0:0:0:0:
264,92,172465,2,0,L|284:268,1,170,0|8,0:0|0:0,0:0:0:0:
283,260,172938,1,0,0:0:0:0:
204,332,173096,1,0,0:0:0:0:
104,203,173254,6,0,P|110:245|126:285,1,85,4|0,0:0|0:0,0:0:0:0:
260,156,173570,1,0,0:0:0:0:
208,296,173728,1,0,0:0:0:0:
104,204,173886,1,2,0:0:0:0:
212,108,174044,2,0,P|256:100|296:108,1,85,8|0,0:0|0:0,0:0:0:0:
380,224,174360,1,2,0:0:0:0:
380,224,174517,6,0,L|296:240,1,85,12|8,0:0|0:0,0:0:0:0:
204,332,174833,1,2,0:0:0:0:
96,248,174991,2,0,P|112:200|104:164,1,85
216,48,175307,2,0,P|200:96|208:131,1,85,8|0,0:0|0:0,0:0:0:0:
292,248,175623,1,2,0:0:0:0:
172,316,175781,1,8,0:0:0:0:
172,316,175860,1,8,0:0:0:0:
172,316,175938,6,0,P|96:332|67:316,1,113.333333333333,8|8,0:0|0:0,0:0:0:0:
108,192,176254,2,0,P|84:220|64:228,2,56.6666666666667,8|8|8,0:0|0:0|0:0,0:0:0:0:
172,100,176570,6,0,P|196:71|216:64,2,56.6666666666667,8|8|8,0:0|0:0|0:0,0:0:0:0:
267,214,176886,1,8,0:0:0:0:
267,214,176991,2,0,P|266:186|256:160,1,56.6666666666667,8|8,0:0|0:0,0:0:0:0:
184,204,177149,5,6,0:0:0:0:
368,120,197096,54,0,L|344:212,1,95.6250036478044,4|0,0:0|0:0,0:0:0:0:
340,244,197412,6,0,P|292:256|256:248,1,85,4|0,0:0|0:0,0:0:0:0:
160,156,197728,1,0,0:0:0:0:
280,92,197886,1,0,0:0:0:0:
372,192,198044,2,0,P|376:236|372:276,1,85,8|0,0:0|0:0,0:0:0:0:
252,324,198360,1,0,0:0:0:0:
128,288,198517,1,0,0:0:0:0:
244,152,198675,6,0,P|244:200|224:240,1,85
188,76,198991,2,0,L|288:64,1,85
372,148,199307,2,0,L|388:232,1,85,8|0,0:0|0:0,0:0:0:0:
292,328,199623,1,0,0:0:0:0:
168,300,199781,1,2,0:0:0:0:
168,300,199860,1,2,0:0:0:0:
168,300,199938,6,0,P|176:216|160:124,1,170,4|0,0:0|0:0,0:0:0:0:
248,48,200412,1,0,0:0:0:0:
344,208,200570,2,0,P|344:152|332:124,1,85,8|0,0:0|0:0,0:0:0:0:
220,184,200886,2,0,P|220:240|232:268,1,85
204,96,201202,6,0,L|56:184,1,170,4|0,0:0|0:0,0:0:0:0:
128,300,201675,1,0,0:0:0:0:
248,216,201833,2,0,L|224:300,1,85,8|0,0:0|0:0,0:0:0:0:
336,204,202149,2,0,L|312:285,1,85,8|0,0:0|0:0,0:0:0:0:
408,176,202465,6,0,P|384:140|332:124,1,85,4|0,0:0|0:0,0:0:0:0:
208,84,202781,1,0,0:0:0:0:
140,208,202938,1,0,0:0:0:0:
240,312,203096,2,0,P|252:264|244:228,1,85,8|0,0:0|0:0,0:0:0:0:
84,267,203412,2,0,P|126:275|168:268,1,85
240,140,203728,6,0,P|198:131|156:139,1,85
292,196,204044,2,0,P|312:156|312:116,1,85
156,139,204360,1,8,0:0:0:0:
172,272,204517,1,2,0:0:0:0:
172,272,204596,1,2,0:0:0:0:
172,272,204675,1,0,0:0:0:0:
308,224,204833,1,2,0:0:0:0:
308,224,204912,1,2,0:0:0:0:
308,224,204991,6,0,P|336:144|288:76,1,170,4|0,0:0|0:0,0:0:0:0:
168,40,205465,1,0,0:0:0:0:
169,155,205623,2,0,P|210:163|252:156,1,85,8|0,0:0|0:0,0:0:0:0:
152,236,205938,2,0,P|158:277|180:314,1,85
64,228,206254,6,0,P|44:156|92:76,1,170,4|0,0:0|0:0,0:0:0:0:
208,128,206728,1,0,0:0:0:0:
256,284,206886,2,0,P|224:252|216:212,1,85,8|0,0:0|0:0,0:0:0:0:
340,180,207202,2,0,P|372:212|380:252,1,85,8|0,0:0|0:0,0:0:0:0:
256,284,207517,6,0,P|168:304|84:300,1,170,4|0,0:0|0:0,0:0:0:0:
48,180,207991,1,0,0:0:0:0:
152,120,208149,2,0,B|200:108|200:108|236:124,1,85,8|0,0:0|0:0,0:0:0:0:
280,256,208465,2,0,B|232:268|232:268|196:252,1,85
312,188,208781,6,0,L|336:356,1,170,4|0,0:0|0:0,0:0:0:0:
199,253,209254,1,0,0:0:0:0:
311,105,209412,2,0,P|319:153|311:189,1,85,8|0,0:0|0:0,0:0:0:0:
160,148,209728,2,0,L|245:148,1,85
336,260,210044,6,0,P|264:308|216:248,1,170,4|0,0:0|0:0,0:0:0:0:
284,148,210517,1,0,0:0:0:0:
400,200,210675,2,0,P|408:152|396:112,1,85,8|0,0:0|0:0,0:0:0:0:
288,36,210991,2,0,P|236:24|204:32,1,85
214,261,211307,6,0,P|256:189|240:108,1,170,4|0,0:0|0:0,0:0:0:0:
132,164,211781,1,0,0:0:0:0:
108,288,211938,2,0,P|128:340|156:356,1,85,8|2,0:0|0:0,0:0:0:0:
232,256,212254,2,0,P|278:287|310:284,1,85,8|0,0:0|0:0,0:0:0:0:
336,140,212570,6,0,B|312:96|312:96|256:68|192:96,1,170,4|0,0:0|0:0,0:0:0:0:
136,236,213044,1,0,0:0:0:0:
268,316,213202,2,0,P|284:272|280:228,1,85,8|0,0:0|0:0,0:0:0:0:
149,154,213517,2,0,P|133:198|137:242,1,85
281,234,213833,6,0,P|297:190|269:70,1,170,4|0,0:0|0:0,0:0:0:0:
108,168,214307,1,2,0:0:0:0:
108,168,214386,1,2,0:0:0:0:
107,167,214465,2,0,L|276:160,1,170,14|0,0:0|0:0,0:0:0:0:
392,244,214938,1,2,0:0:0:0:
392,244,215017,1,2,0:0:0:0:
392,244,215096,6,0,P|380:196|356:172,1,85,6|0,0:0|0:0,0:0:0:0:
240,88,215412,2,0,P|252:135|276:159,1,85
280,324,215728,2,0,P|292:284|284:236,1,85,8|0,0:0|0:0,0:0:0:0:
128,164,216044,2,0,P|116:204|124:252,1,85,8|0,0:0|0:0,0:0:0:0:
344,248,216360,6,0,B|316:212|316:212|192:212,1,170,4|0,0:0|0:0,0:0:0:0:
256,312,216833,1,8,0:0:0:0:
412,192,216991,5,8,0:0:0:0:
264,148,217149,1,8,0:0:0:0:
336,292,217307,5,8,0:0:0:0:
316,92,217465,1,8,0:0:0:0:
304,260,217623,6,0,B|264:272|264:272|220:264,1,85,2|0,0:0|0:0,0:0:0:0:
80,200,217938,2,0,B|136:176|136:176|248:192,1,170,4|0,0:0|0:0,0:0:0:0:
164,304,218412,1,0,0:0:0:0:
80,200,218570,2,0,B|68:144|68:144|68:116,1,85,8|0,0:0|0:0,0:0:0:0:
192,60,218886,5,2,0:0:0:0:
260,188,219044,1,0,0:0:0:0:
160,292,219202,2,0,L|172:200,1,85,2|0,0:0|0:0,0:0:0:0:
156,332,219517,5,8,0:0:0:0:
256,188,219675,1,8,0:0:0:0:
152,352,219833,5,8,0:0:0:0:
144,144,219991,1,8,0:0:0:0:
156,340,220149,6,0,B|108:344|108:344|76:324,1,85,6|0,0:0|0:0,0:0:0:0:
140,176,220465,2,0,B|188:172|188:172|220:192,1,85,8|0,0:0|0:0,0:0:0:0:
76,228,220781,1,0,0:0:0:0:
192,92,220938,1,8,0:0:0:0:
264,224,221096,1,0,0:0:0:0:
88,192,221254,1,8,0:0:0:0:
168,340,221412,6,0,P|112:316|104:296,1,85,6|8,0:0|0:0,0:0:0:0:
248,232,221728,1,2,0:0:0:0:
248,332,221886,1,0,0:0:0:0:
148,176,222044,1,8,0:0:0:0:
336,164,222202,1,8,0:0:0:0:
172,280,222360,1,0,0:0:0:0:
324,176,222517,1,0,0:0:0:0:
180,88,222675,6,0,B|136:68|136:68|260:68,1,170,6|2,0:0|0:0,0:0:0:0:
364,180,223149,1,0,0:0:0:0:
216,240,223307,2,0,P|248:200|280:188,1,85,8|0,0:0|0:0,0:0:0:0:
232,316,223623,2,0,P|184:312|152:284,1,85,0|8,0:0|0:0,0:0:0:0:
84,124,223938,6,0,P|128:68|216:92,1,170,6|2,0:0|0:0,0:0:0:0:
300,172,224412,1,0,0:0:0:0:
156,280,224570,5,8,0:0:0:0:
332,304,224728,1,8,0:0:0:0:
224,164,224886,5,8,0:0:0:0:
200,340,225044,1,8,0:0:0:0:
372,288,225202,6,0,P|408:224|364:144,1,170,6|2,0:0|0:0,0:0:0:0:
176,72,225675,1,0,0:0:0:0:
268,252,225833,1,8,0:0:0:0:
212,56,225991,1,0,0:0:0:0:
168,256,226149,1,8,0:0:0:0:
324,124,226307,1,8,0:0:0:0:
332,304,226465,6,0,L|204:300,1,127.5,6|2,0:0|0:0,0:0:0:0:
168,256,226781,2,0,L|159:167,1,85,8|0,0:0|0:0,0:0:0:0:
216,96,227017,5,0,0:0:0:0:
216,96,227096,2,0,L|284:136,1,42.5
284,244,227254,2,0,L|247:222,1,42.5
376,160,227412,2,0,L|376:204,1,42.5
456,292,227570,2,0,L|456:249,1,42.5
460,160,227728,5,12,0:0:0:0:
324,88,228202,1,12,0:0:0:0:
220,200,228675,5,12,0:0:0:0:
179,210,228753,1,0,0:0:0:0:
143,190,228832,1,0,0:0:0:0:
132,150,228911,1,0,0:0:0:0:
151,113,228990,5,0,0:0:0:0:
191,101,229069,1,0,0:0:0:0:
236,104,229149,1,0,0:0:0:0:
272,124,229227,1,0,0:0:0:0:
292,160,229307,5,0,0:0:0:0:
297,198,229385,1,0,0:0:0:0:
320,236,229465,1,0,0:0:0:0:
354,258,229543,1,0,0:0:0:0:
395,249,229622,1,0,0:0:0:0:
418,215,229701,1,0,0:0:0:0:
404,176,229781,2,0,L|384:132,3,42.5
344,124,230096,2,0,L|327:86,3,42.5
284,80,230412,6,0,L|267:42,3,42.5
224,32,230728,1,0,0:0:0:0:
185,48,230806,1,0,0:0:0:0:
164,84,230885,1,0,0:0:0:0:
167,125,230964,1,0,0:0:0:0:
200,156,231044,1,0,0:0:0:0:
215,194,231122,1,0,0:0:0:0:
206,235,231202,1,4,0:0:0:0:
229,287,231517,6,0,L|206:235,1,56.6666666666667,2|2,0:0|0:0,0:0:0:0:
126,232,231728,2,0,L|115:288,1,56.6666666666667,2|2,0:0|0:0,0:0:0:0:
258,284,231938,6,0,L|235:232,1,56.6666666666667,2|2,0:0|0:0,0:0:0:0:
94,232,232149,2,0,L|83:288,1,56.6666666666667,2|2,0:0|0:0,0:0:0:0:
282,284,232360,6,0,L|259:232,1,56.6666666666667,2|2,0:0|0:0,0:0:0:0:
62,232,232571,2,0,L|51:288,1,56.6666666666667,2|2,0:0|0:0,0:0:0:0:
96,212,233412,6,0,L|180:96,1,140.25000428009,4|0,0:0|0:0,0:0:0:0:
252,140,233728,2,0,L|308:276,1,140.25000428009,12|0,0:0|0:0,0:0:0:0:
244,328,234044,6,0,L|104:304,1,140.25000428009,4|0,0:0|0:0,0:0:0:0:
60,232,234360,1,12,0:0:0:0:
208,116,234517,5,8,0:0:0:0:
52,220,234675,1,4,0:0:0:0:
156,64,234833,1,0,0:0:0:0:
292,192,234991,1,8,0:0:0:0:
160,324,235149,6,0,P|140:216|188:160,1,187.000005706787,4|0,0:0|0:0,0:0:0:0:
332,140,235623,1,8,0:0:0:0:
288,284,235781,1,0,0:0:0:0:
144,240,235938,6,0,P|92:204|76:180,1,93.5000028533936,4|0,0:0|0:0,0:0:0:0:
256,168,236254,2,0,P|308:203|324:228,1,93.5000028533936,8|0,0:0|0:0,0:0:0:0:
227,344,236570,2,0,P|219:244|255:168,1,187.000005706787,4|8,0:0|0:0,0:0:0:0:
402,313,237044,6,0,P|310:353|226:343,1,187.000005706787,4|0,0:0|0:0,0:0:0:0:
100,248,237517,1,8,0:0:0:0:
272,152,237675,5,0,0:0:0:0:
134,235,237833,1,8,0:0:0:0:
322,155,237991,5,0,0:0:0:0:
270,331,238149,1,8,0:0:0:0:
134,235,238306,1,0,0:0:0:0:
322,155,238464,6,0,P|312:244|264:336,1,187.000005706787,4|8,0:0|0:0,0:0:0:0:
100,344,238938,1,0,0:0:0:0:
20,196,239096,2,0,P|8:136|12:104,1,93.5000028533936,4|0,0:0|0:0,0:0:0:0:
172,44,239412,1,8,0:0:0:0:
276,196,239569,6,0,P|364:168|320:120,1,187.000005706787,4|0,0:0|0:0,0:0:0:0:
156,200,240043,1,8,0:0:0:0:
300,320,240201,1,0,0:0:0:0:
326,121,240359,1,4,0:0:0:0:
156,200,240517,1,0,0:0:0:0:
300,320,240675,2,0,L|392:308,1,93.5000028533936,8|0,0:0|0:0,0:0:0:0:
216,244,240990,6,0,B|144:264|64:252|64:252|104:228,1,187.000005706787,4|8,0:0|0:0,0:0:0:0:
196,136,241464,1,0,0:0:0:0:
360,204,241622,2,0,P|368:256|360:296,1,93.5000028533936,4|0,0:0|0:0,0:0:0:0:
160,248,241938,1,8,0:0:0:0:
312,112,242096,6,0,P|320:216|280:292,1,187.000005706787,4|0,0:0|0:0,0:0:0:0:
132,176,242569,1,8,0:0:0:0:
360,116,242727,6,0,P|368:220|328:296,1,187.000005706787,4|0,0:0|0:0,0:0:0:0:
132,176,243201,1,8,0:0:0:0:
282,250,243359,1,8,0:0:0:0:
306,270,243438,1,8,0:0:0:0:
331,291,243517,6,0,P|351:215|327:162,1,140.25000428009,4|0,0:0|0:0,0:0:0:0:
292,84,243833,2,0,L|152:92,1,140.25000428009,12|0,0:0|0:0,0:0:0:0:
186,169,244148,6,0,L|326:161,1,140.25000428009,4|0,0:0|0:0,0:0:0:0:
312,244,244464,1,12,0:0:0:0:
380,88,244622,5,8,0:0:0:0:
444,272,244780,1,4,0:0:0:0:
292,320,244938,1,0,0:0:0:0:
304,148,245096,1,8,0:0:0:0:
412,288,245254,6,0,B|340:284|292:320|292:320|264:288|236:288,1,187.000005706787,4|0,0:0|0:0,0:0:0:0:
271,78,245727,2,0,P|295:118|299:166,1,93.5000028533936,8|0,0:0|0:0,0:0:0:0:
160,318,246043,6,0,P|139:229|188:151,1,187.000005706787,4|8,0:0|0:0,0:0:0:0:
348,76,246517,1,0,0:0:0:0:
376,256,246675,1,4,0:0:0:0:
228,120,246833,1,0,0:0:0:0:
452,184,246990,1,8,0:0:0:0:
339,281,247148,6,0,P|248:312|164:288,1,187.000005706787,4|0,0:0|0:0,0:0:0:0:
120,124,247622,2,0,P|132:172|116:212,1,93.5000028533936,8|0,0:0|0:0,0:0:0:0:
60,48,247938,1,4,0:0:0:0:
228,108,248096,1,0,0:0:0:0:
252,312,248254,2,0,P|240:260|248:216,1,93.5000028533936,8|0,0:0|0:0,0:0:0:0:
460,120,248569,6,0,P|388:176|296:164,1,187.000005706787,4|8,0:0|0:0,0:0:0:0:
360,332,249043,1,0,0:0:0:0:
180,208,249201,1,4,0:0:0:0:
396,176,249359,1,0,0:0:0:0:
276,352,249517,1,8,0:0:0:0:
176,160,249675,6,0,P|248:88|332:92,1,187.000005706787,4|0,0:0|0:0,0:0:0:0:
376,280,250148,1,8,0:0:0:0:
184,240,250306,1,0,0:0:0:0:
384,188,250464,1,4,0:0:0:0:
196,312,250622,1,0,0:0:0:0:
68,172,250780,1,8,0:0:0:0:
260,100,250938,1,0,0:0:0:0:
224,312,251096,6,0,P|176:292|152:256,1,93.5000028533936,4|8,0:0|0:0,0:0:0:0:
96,172,251412,1,0,0:0:0:0:
260,200,251569,1,4,0:0:0:0:
224,344,251727,1,8,0:0:0:0:
168,216,251885,2,0,L|184:172,1,46.7500014266968
240,76,252043,1,4,0:0:0:0:
312,216,252201,2,0,L|296:172,1,46.7500014266968,8|0,0:0|0:0,0:0:0:0:
416,232,252359,6,0,L|419:278,1,46.7500014266968
312,312,252517,1,8,0:0:0:0:
276,320,252596,1,8,0:0:0:0:
240,332,252675,1,8,0:0:0:0:
112,216,252833,1,8,0:0:0:0:
148,227,252912,1,8,0:0:0:0:
182,242,252991,1,8,0:0:0:0:
296,172,253148,5,2,0:0:0:0:
356,264,253306,1,2,0:0:0:0:
252,308,253464,1,2,0:0:0:0:
116,220,253622,6,0,P|152:140|228:156,1,170,4|0,0:0|0:0,0:0:0:0:
216,280,254096,1,0,0:0:0:0:
92,300,254254,6,0,P|32:224|40:156,1,170,12|0,0:0|0:0,0:0:0:0:
148,84,254727,1,8,0:0:0:0:
252,196,254885,5,12,0:0:0:0:
252,196,255201,1,0,0:0:0:0:
368,124,255359,1,0,0:0:0:0:
364,260,255517,1,0,0:0:0:0:
250,193,255675,1,0,0:0:0:0:
386,177,255833,1,0,0:0:0:0:
325,299,255990,1,0,0:0:0:0:
196,328,256148,6,0,P|92:280|156:240,1,244.375,4|0,0:0|0:0,0:0:0:0:
208,248,258043,5,8,0:0:0:0:
332,304,258201,1,12,0:0:0:0:
144,172,258675,6,0,P|156:124|148:88,1,85,12|0,0:0|0:0,0:0:0:0:
28,184,258990,2,0,P|16:232|24:268,1,85,8|0,0:0|0:0,0:0:0:0:
120,364,259306,1,8,0:0:0:0:
248,352,259464,1,0,0:0:0:0:
208,152,259622,1,8,0:0:0:0:
124,248,259780,1,6,0:0:0:0:
124,248,259859,1,2,0:0:0:0:
124,248,259938,5,14,0:0:0:0:
248,352,260096,1,0,0:0:0:0:
128,256,260254,1,12,0:0:0:0:
320,240,260412,1,0,0:0:0:0:
152,248,260569,1,12,0:0:0:0:
248,352,260727,1,0,0:0:0:0:
152,212,260885,1,12,0:0:0:0:
320,264,261043,1,0,0:0:0:0:
184,228,261201,5,12,0:0:0:0:
184,228,261280,1,0,0:0:0:0:
184,228,261359,1,0,0:0:0:0:
284,104,261517,2,0,P|304:148|308:184,1,85,8|0,0:0|0:0,0:0:0:0:
160,288,261833,1,8,0:0:0:0:
300,208,261990,1,0,0:0:0:0:
155,120,262148,2,0,P|144:160|143:203,1,85,8|0,0:0|0:0,0:0:0:0:
228,52,262464,6,0,P|144:20|80:60,1,170,12|12,0:0|0:0,0:0:0:0:
16,188,262938,1,0,0:0:0:0:
112,308,263096,1,12,0:0:0:0:
168,164,263254,1,0,0:0:0:0:
41,250,263412,1,12,0:0:0:0:
178,318,263570,1,0,0:0:0:0:
168,164,263727,5,12,0:0:0:0:
168,164,263806,1,0,0:0:0:0:
168,164,263885,1,0,0:0:0:0:
178,318,264043,2,0,L|270:310,1,85,8|0,0:0|0:0,0:0:0:0:
384,220,264359,2,0,P|384:168|368:136,1,85,8|0,0:0|0:0,0:0:0:0:
216,212,264675,1,8,0:0:0:0:
308,68,264833,1,6,0:0:0:0:
308,68,264912,1,2,0:0:0:0:
308,68,264990,5,14,0:0:0:0:
224,216,265148,1,0,0:0:0:0:
316,92,265306,1,12,0:0:0:0:
252,260,265464,1,0,0:0:0:0:
128,332,265622,2,0,P|84:344|40:332,1,85,12|8,0:0|0:0,0:0:0:0:
120,208,265938,1,12,0:0:0:0:
260,248,266096,2,0,L|308:260,1,42.5
392,284,266254,5,12,0:0:0:0:
392,284,266333,1,0,0:0:0:0:
392,284,266412,1,0,0:0:0:0:
384,148,266569,1,2,0:0:0:0:
260,200,266727,1,8,0:0:0:0:
124,196,266885,2,0,B|112:152|112:152|120:108,1,85,8|8,0:0|0:0,0:0:0:0:
268,152,267201,2,0,B|280:195|280:195|272:240,1,85,8|0,0:0|0:0,0:0:0:0:
200,328,267517,5,12,0:0:0:0:
200,328,267622,2,0,P|200:288|192:268,1,56.6666666666667,8|8,0:0|0:0,0:0:0:0:
112,144,267833,5,8,0:0:0:0:
112,144,267938,2,0,P|112:184|120:204,1,56.6666666666667,8|8,0:0|0:0,0:0:0:0:
276,160,268148,5,8,0:0:0:0:
275,159,268254,2,0,P|247:155|220:161,1,56.6666666666667,8|8,0:0|0:0,0:0:0:0:
368,212,268464,5,8,0:0:0:0:
368,212,268569,2,0,P|376:244|376:268,1,56.6666666666667,8|8,0:0|0:0,0:0:0:0:
256,348,268780,6,0,P|208:344|160:332,1,85,4|0,0:0|0:0,0:0:0:0:
136,176,269096,1,0,0:0:0:0:
92,296,269254,1,0,0:0:0:0:
184,172,269412,2,0,P|184:120|168:88,1,85,8|0,0:0|0:0,0:0:0:0:
180,252,269727,2,0,P|204:252|228:240,1,42.5,4|0,0:0|0:0,0:0:0:0:
332,172,269885,6,0,P|340:228|312:344,1,170,4|8,0:0|0:0,0:0:0:0:
216,348,270359,2,0,P|188:296|180:272,1,85,2|0,0:0|0:0,0:0:0:0:
236,164,270675,1,8,0:0:0:0:
291,313,270833,1,0,0:0:0:0:
131,255,270990,5,4,0:0:0:0:
360,128,271148,1,12,0:0:0:0:
256,192,271227,12,0,276359,0:0:0:0:
