osu file format v14

[General]
AudioFilename: audio.mp3
AudioLeadIn: 0
PreviewTime: 52317
Countdown: 0
SampleSet: Drum
StackLeniency: 0.7
Mode: 2
LetterboxInBreaks: 0
WidescreenStoryboard: 1

[Editor]
Bookmarks: 8824,17499,34848,52317,75174,92523,101198,109872,127337,150194,190193,207336
DistanceSpacing: 0.8
BeatDivisor: 4
GridSize: 16
TimelineZoom: 2.221601

[Metadata]
Title:Flutter Girl
TitleUnicode:フラッターガール
Artist:Aizawa feat. Nakae Mitsuki
ArtistUnicode:あいざわ feat. 中恵光城
Creator:Deif
Version:The sound of the rustling wind
Source:東方風神録 ~ Mountain of Faith.
Tags:Polish Catch Tournament 2K23 2023 Semifinals Double Time DT1 ft. featuring Touhou Project 東方Project Fuujinroku Wind God Chronicles ZUN Team Shanghai Alice 上海アリス幻樂団 HACHIMITSU LEMON Hachimitsu-Lemon はちみつれもん Youkai no Yama 妖怪の山 Mysterious Aya Shameimaru 射命丸文 Hakurei Shrine Reitaisai 7 博麗神社例大祭 Six String 06.Hikari 06.光 Video Game Folk Japanese
BeatmapID:4401661
BeatmapSetID:2098448

[Difficulty]
HPDrainRate:6
CircleSize:4.2
OverallDifficulty:8.8
ApproachRate:8.8
SliderMultiplier:1.92
SliderTickRate:1

[Events]
//Background and Video events
0,0,"BG.jpg",0,0
//Break Periods
2,77542,78882
//Storyboard Layer 0 (Background)
//Storyboard Layer 1 (Fail)
//Storyboard Layer 2 (Pass)
//Storyboard Layer 3 (Foreground)
//Storyboard Layer 4 (Overlay)
//Storyboard Sound Samples

[TimingPoints]
150,361.44578313253,3,3,1,60,1,0
21294,-100,3,2,0,55,0,0
21474,-100,3,3,1,60,0,0
21656,-100,3,2,0,55,0,0
21836,-100,3,3,1,60,0,0
24186,-100,3,3,0,55,0,0
24366,-100,3,3,1,60,0,0
25631,-100,3,2,0,55,0,0
25811,-100,3,3,1,60,0,0
25993,-100,3,2,0,55,0,0
26173,-100,3,3,1,60,0,0
29969,-100,3,2,0,55,0,0
30149,-100,3,3,1,60,0,0
30331,-100,3,2,0,55,0,0
30511,-100,3,3,1,60,0,0
32860,-100,3,3,0,55,0,0
33040,-100,3,3,1,60,0,0
35210,-100,3,3,2,60,0,0
35933,-100,3,3,1,60,0,0
36294,-100,3,3,2,60,0,0
37017,-100,3,3,1,60,0,0
37378,-100,3,3,2,60,0,0
38101,-100,3,3,1,60,0,0
38463,-100,3,3,2,60,0,0
39186,-100,3,3,1,60,0,0
43885,-100,3,3,2,60,0,0
44608,-100,3,3,1,60,0,0
44969,-100,3,3,2,60,0,0
45692,-100,3,3,1,60,0,0
46053,-100,3,3,2,60,0,0
46776,-100,3,3,1,60,0,0
47138,-100,3,3,2,60,0,0
47861,-100,3,3,1,60,0,0
51117,400,3,3,0,60,1,0
51117,-80,3,3,0,60,0,0
51517,-80,3,3,0,50,0,0
51917,-80,3,3,0,40,0,0
52317,357.142857142857,4,3,1,70,1,1
52674,-100,4,3,2,70,0,1
53388,-100,4,3,1,70,0,1
54102,-100,4,3,2,70,0,1
54816,-100,4,3,1,70,0,1
55531,-100,4,3,2,70,0,1
56245,-100,4,3,1,70,0,1
56959,-100,4,3,2,70,0,1
57673,-100,4,3,1,70,0,1
58388,-100,4,3,2,70,0,1
59102,-100,4,3,1,70,0,1
59817,-100,4,3,2,70,0,1
60531,-100,4,3,1,70,0,1
61245,-100,4,3,2,70,0,1
61959,-100,4,3,1,70,0,1
62674,-100,4,3,2,70,0,1
63388,-100,4,3,1,70,0,1
63745,-75.187969924812,4,3,1,60,0,1
64102,-100,4,3,2,70,0,1
64816,-100,4,3,1,70,0,1
65531,-100,4,3,2,70,0,1
66245,-100,4,3,1,70,0,1
66959,-100,4,3,2,70,0,1
67673,-100,4,3,1,70,0,1
68388,-100,4,3,2,70,0,1
69102,-100,4,3,1,70,0,1
69817,-100,4,3,2,70,0,1
70531,-100,4,3,1,70,0,1
71245,-100,4,3,2,70,0,1
71959,-100,4,3,1,70,0,1
72674,-100,4,3,2,70,0,1
73388,-100,4,3,1,70,0,1
74102,-100,4,3,2,70,0,1
74816,-100,4,3,1,70,0,1
75174,361.44578313253,3,3,1,60,1,0
79511,-100,3,3,2,50,0,0
83848,-100,3,3,1,60,0,0
92523,-100,3,3,3,50,0,0
96318,-100,3,2,0,45,0,0
96499,-100,3,3,3,50,0,0
96680,-100,3,2,0,45,0,0
96861,-100,3,3,3,50,0,0
99210,-100,3,3,0,45,0,0
99390,-100,3,3,3,50,0,0
100655,-100,3,2,0,45,0,0
100836,-100,3,3,3,50,0,0
101017,-100,3,2,0,45,0,0
101198,-100,3,3,1,60,0,0
104993,-100,3,2,0,55,0,0
105173,-100,3,3,1,60,0,0
105355,-100,3,2,0,55,0,0
105535,-100,3,3,1,60,0,0
107884,-100,3,3,0,55,0,0
108064,-100,3,3,1,60,0,0
110234,-100,3,3,2,60,0,0
110957,-100,3,3,1,60,0,0
111318,-100,3,3,2,60,0,0
112041,-100,3,3,1,60,0,0
112402,-100,3,3,2,60,0,0
113125,-100,3,3,1,60,0,0
113487,-100,3,3,2,60,0,0
114210,-100,3,3,1,60,0,0
118909,-100,3,3,2,60,0,0
119632,-100,3,3,1,60,0,0
119993,-100,3,3,2,60,0,0
120716,-100,3,3,1,60,0,0
121077,-100,3,3,2,60,0,0
121800,-100,3,3,1,60,0,0
122162,-100,3,3,2,60,0,0
122885,-100,3,3,1,60,0,0
126137,400,3,3,0,60,1,0
126137,-80,3,3,0,60,0,0
126537,-80,3,3,0,50,0,0
126937,-80,3,3,0,40,0,0
127337,357.142857142857,4,3,1,70,1,1
127694,-100,4,3,2,70,0,1
128408,-100,4,3,1,70,0,1
129122,-100,4,3,2,70,0,1
129836,-100,4,3,1,70,0,1
130551,-100,4,3,2,70,0,1
131265,-100,4,3,1,70,0,1
131979,-100,4,3,2,70,0,1
132693,-100,4,3,1,70,0,1
133408,-100,4,3,2,70,0,1
134122,-100,4,3,1,70,0,1
134837,-100,4,3,2,70,0,1
135551,-100,4,3,1,70,0,1
136265,-100,4,3,2,70,0,1
136979,-100,4,3,1,70,0,1
137694,-100,4,3,2,70,0,1
138408,-100,4,3,1,70,0,1
138765,-75.187969924812,4,3,1,60,0,1
139122,-100,4,3,2,70,0,1
139836,-100,4,3,1,70,0,1
140551,-100,4,3,2,70,0,1
141265,-100,4,3,1,70,0,1
141979,-100,4,3,2,70,0,1
142693,-100,4,3,1,70,0,1
143408,-100,4,3,2,70,0,1
144122,-100,4,3,1,70,0,1
144837,-100,4,3,2,70,0,1
145551,-100,4,3,1,70,0,1
146265,-100,4,3,2,70,0,1
146979,-100,4,3,1,70,0,1
147694,-100,4,3,2,70,0,1
148408,-100,4,3,1,70,0,1
149122,-100,4,3,2,70,0,1
149836,-100,4,3,1,70,0,1
150194,-100,4,3,1,60,0,0
153408,-100,4,2,0,55,0,0
153587,-100,4,3,1,60,0,0
154301,-100,4,3,0,55,0,0
154479,-100,4,3,1,60,0,0
154837,-100,4,2,0,55,0,0
155016,-100,4,3,1,60,0,0
156265,-100,4,2,0,55,0,0
156444,-100,4,3,1,60,0,0
156622,-100,4,3,0,55,0,0
156800,-100,4,3,1,60,0,0
157694,-100,4,2,0,55,0,0
157873,-100,4,3,1,60,0,0
158051,-100,4,3,0,55,0,0
158229,-100,4,3,1,60,0,0
159122,-100,4,2,0,55,0,0
159301,-100,4,3,1,60,0,0
159837,-100,4,3,0,55,0,0
160193,-100,4,3,1,60,0,0
160551,-100,4,2,0,55,0,0
160730,-100,4,3,1,60,0,0
161979,-100,4,2,0,55,0,0
162158,-100,4,3,1,60,0,0
162336,-100,4,3,0,55,0,0
162514,-100,4,3,1,60,0,0
163408,-100,4,2,0,55,0,0
163587,-100,4,3,1,60,0,0
163765,-100,4,3,0,55,0,0
163943,-100,4,3,1,60,0,0
164836,-100,4,2,0,55,0,0
165015,-100,4,3,1,60,0,0
165729,-100,4,3,0,55,0,0
165907,-100,4,3,1,60,0,0
166265,-100,4,2,0,55,0,0
166354,-100,4,3,1,60,0,0
166622,-100,4,2,0,55,0,0
166711,-100,4,3,1,60,0,0
167693,-100,4,2,0,55,0,0
167872,-100,4,3,1,60,0,0
168050,-100,4,3,0,55,0,0
168228,-100,4,3,1,60,0,0
169122,-100,4,2,0,55,0,0
169301,-100,4,3,1,60,0,0
169479,-100,4,3,0,55,0,0
169657,-100,4,3,1,60,0,0
170550,-100,4,2,0,55,0,0
170729,-100,4,3,1,60,0,0
171265,-100,4,3,0,55,0,0
171621,-100,4,3,1,60,0,0
171979,-100,4,2,0,55,0,0
172158,-100,4,3,1,60,0,0
173051,357.142857142857,6,3,1,60,1,0
173408,-100,6,2,0,55,0,0
173586,-100,6,3,1,60,0,0
173765,-100,6,2,0,55,0,0
173943,-100,6,3,1,60,0,0
174479,-100,6,2,0,55,0,0
174657,-100,6,3,1,60,0,0
174836,-100,6,2,0,55,0,0
175014,-100,6,3,1,60,0,0
175551,-100,6,2,0,55,0,0
175729,-100,6,3,1,60,0,0
175908,-100,6,2,0,55,0,0
176086,-100,6,3,1,60,0,0
176622,-100,6,2,0,55,0,0
176800,-100,6,3,1,60,0,0
176979,-100,6,2,0,55,0,0
177157,-100,6,3,1,60,0,0
177693,-100,6,2,0,55,0,0
177871,-100,6,3,1,60,0,0
178050,-100,6,2,0,55,0,0
178228,-100,6,3,1,60,0,0
178764,-100,6,2,0,55,0,0
178942,-100,6,3,1,60,0,0
179121,-100,6,2,0,55,0,0
179299,-100,6,3,1,60,0,0
179836,-100,6,2,0,55,0,0
180014,-100,6,3,1,60,0,0
180193,-100,6,2,0,55,0,0
180371,-100,6,3,1,60,0,0
180907,-100,6,2,0,55,0,0
181085,-100,6,3,1,60,0,0
181264,-100,6,2,0,55,0,0
181442,-100,6,3,1,60,0,0
181979,-100,6,2,0,55,0,0
182157,-100,6,3,1,60,0,0
182336,-100,6,2,0,55,0,0
182514,-100,6,3,1,60,0,0
183050,-100,6,2,0,55,0,0
183228,-100,6,3,1,60,0,0
183407,-100,6,2,0,55,0,0
183585,-100,6,3,1,60,0,0
184122,-100,6,2,0,55,0,0
184300,-100,6,3,1,60,0,0
184479,-100,6,2,0,55,0,0
184657,-100,6,3,1,60,0,0
185193,-100,6,2,0,55,0,0
185371,-100,6,3,1,60,0,0
185550,-100,6,2,0,55,0,0
185728,-100,6,3,1,60,0,0
186265,-100,6,3,0,55,0,0
186443,-100,6,3,1,60,0,0
186622,-100,6,3,0,55,0,0
186800,-100,6,3,1,60,0,0
187336,-100,6,3,0,55,0,0
187514,-100,6,3,1,60,0,0
187693,-100,6,3,0,55,0,0
187871,-100,6,3,1,60,0,0
188229,-100,6,2,0,55,0,0
188408,-100,6,3,0,55,0,0
188586,-100,6,2,0,55,0,0
188765,-100,6,3,0,55,0,0
188943,-100,6,3,1,60,0,0
190193,357.142857142857,3,3,2,50,1,0
198764,-100,3,3,1,60,0,0
207335,-100,3,3,4,50,0,0
208050,-100,3,2,0,45,0,0
208229,-100,3,3,4,50,0,0
209121,-100,3,2,0,45,0,0
209300,-100,3,3,4,50,0,0
210193,-100,3,2,0,45,0,0
210372,-100,3,3,4,50,0,0
211264,-100,3,2,0,45,0,0
211443,-100,3,3,4,50,0,0
212335,-100,3,2,0,45,0,0
212514,-100,3,3,4,50,0,0
213407,-100,3,2,0,45,0,0
213586,-100,3,3,4,50,0,0
214478,-100,3,2,0,45,0,0
214657,-100,3,3,4,50,0,0
215550,-100,3,2,0,45,0,0
215729,-100,3,3,4,50,0,0
215907,-100,3,3,1,50,0,0
216085,-100,3,3,4,50,0,0
216621,-100,3,2,0,45,0,0
216800,-100,3,3,4,50,0,0
216978,-100,3,3,1,50,0,0
217156,-100,3,3,4,50,0,0
217693,-100,3,2,0,45,0,0
217872,-100,3,3,4,50,0,0
218050,-100,3,3,1,50,0,0
218228,-100,3,3,4,50,0,0
218764,-100,3,2,0,45,0,0
218943,-100,3,3,4,50,0,0
219121,-100,3,3,1,50,0,0
219299,-100,3,3,4,50,0,0
219835,-100,3,2,0,45,0,0
220014,-100,3,3,4,50,0,0
220193,-100,3,3,1,50,0,0
220371,-100,3,3,4,50,0,0
220907,-100,3,2,0,45,0,0
221086,-100,3,3,4,50,0,0
221264,-100,3,3,1,50,0,0
221442,-100,3,3,4,50,0,0
221978,-100,3,2,0,45,0,0
222157,-100,3,3,4,50,0,0
222335,-100,3,3,1,50,0,0
222513,-100,3,3,4,50,0,0
223050,-100,3,2,0,45,0,0
223229,-100,3,3,4,50,0,0
223408,400,3,3,0,60,1,0
223408,-80,3,3,0,60,0,0
223808,-80,3,3,0,50,0,0
224208,-80,3,3,0,40,0,0
225408,357.142857142857,4,3,1,70,1,1
225765,-100,4,3,2,70,0,1
226479,-100,4,3,1,70,0,1
227193,-100,4,3,2,70,0,1
227907,-100,4,3,1,70,0,1
228622,-100,4,3,2,70,0,1
229336,-100,4,3,1,70,0,1
230050,-100,4,3,2,70,0,1
230764,-100,4,3,1,70,0,1
231479,-100,4,3,2,70,0,1
232193,-100,4,3,1,70,0,1
232907,-100,4,3,2,70,0,1
233621,-100,4,3,1,70,0,1
234336,-100,4,3,2,70,0,1
235050,-100,4,3,1,70,0,1
235764,-100,4,3,2,70,0,1
236478,-100,4,3,1,70,0,1
236836,-75.187969924812,4,3,1,70,0,1
237193,-100,4,3,2,70,0,1
237907,-100,4,3,1,70,0,1
238621,-100,4,3,2,70,0,1
239335,-100,4,3,1,70,0,1
240050,-100,4,3,2,70,0,1
240764,-100,4,3,1,70,0,1
241478,-100,4,3,2,70,0,1
242192,-100,4,3,1,70,0,1
242908,-100,4,3,2,70,0,1
243622,-100,4,3,1,70,0,1
244336,-100,4,3,2,70,0,1
245050,-100,4,3,1,70,0,1
245765,-100,4,3,2,70,0,1
246479,-100,4,3,1,70,0,1
247193,-100,4,3,2,70,0,1
247907,-100,4,3,1,70,0,1
248265,-100,4,3,1,60,0,0

[Colours]
Combo1 : 255,255,0
Combo2 : 243,89,34
Combo3 : 112,196,193
Combo4 : 128,255,0

[HitObjects]
80,192,8824,6,0,L|64:96,1,96,8|0,0:0|0:0,0:0:0:0:
192,96,9186,2,0,L|288:96,1,96,2|0,0:0|0:0,0:0:0:0:
160,192,9547,2,0,L|256:192,1,96,2|0,0:0|0:0,0:0:0:0:
320,192,9818,1,0,0:0:0:0:
160,288,9909,6,0,P|64:288|64:288,1,96,8|0,0:0|0:0,0:0:0:0:
192,192,10270,2,0,L|288:192,1,96,2|0,0:0|0:0,0:0:0:0:
160,288,10631,2,0,L|144:192,1,96,2|0,0:0|0:0,0:0:0:0:
208,192,10903,1,0,0:0:0:0:
368,192,10993,6,0,L|464:192,1,96,8|0,0:0|0:0,0:0:0:0:
336,112,11354,2,0,L|432:112,1,96,2|0,0:0|0:0,0:0:0:0:
304,32,11716,2,0,L|400:32,1,96,2|0,0:0|0:0,0:0:0:0:
464,32,11987,1,0,0:0:0:0:
304,192,12077,6,0,L|208:192,1,96,8|0,0:0|0:0,0:0:0:0:
336,112,12439,2,0,L|240:112,1,96,2|0,0:0|0:0,0:0:0:0:
368,32,12800,2,0,L|272:32,1,96,2|0,0:0|0:0,0:0:0:0:
272,32,13071,1,0,0:0:0:0:
432,192,13162,6,0,L|448:96,1,96,8|0,0:0|0:0,0:0:0:0:
320,96,13523,2,0,L|224:96,1,96,2|0,0:0|0:0,0:0:0:0:
352,192,13884,2,0,L|256:192,1,96,2|0,0:0|0:0,0:0:0:0:
192,192,14156,1,0,0:0:0:0:
352,288,14246,6,0,P|448:288|448:288,1,96,8|0,0:0|0:0,0:0:0:0:
320,192,14607,2,0,L|224:192,1,96,2|0,0:0|0:0,0:0:0:0:
352,288,14969,2,0,L|368:192,1,96,2|0,0:0|0:0,0:0:0:0:
304,192,15240,1,0,0:0:0:0:
144,192,15330,6,0,L|48:192,1,96,8|0,0:0|0:0,0:0:0:0:
176,112,15692,2,0,L|80:112,1,96,2|0,0:0|0:0,0:0:0:0:
208,32,16053,2,0,L|112:32,1,96,2|0,0:0|0:0,0:0:0:0:
176,32,16324,1,0,0:0:0:0:
336,192,16415,6,0,L|432:192,1,96,8|0,0:0|0:0,0:0:0:0:
304,112,16776,2,0,L|208:112,1,96,2|0,0:0|0:0,0:0:0:0:
336,32,17137,2,0,L|432:32,1,96,2|0,0:0|0:0,0:0:0:0:
368,32,17409,1,0,0:0:0:0:
192,192,17499,6,0,P|160:128|192:16,1,192,12|2,0:0|0:0,0:0:0:0:
288,16,18041,1,0,0:0:0:0:
288,112,18222,1,2,0:0:0:0:
144,112,18403,1,0,0:0:0:0:
400,192,18583,6,0,L|208:192,1,192,8|2,0:0|0:0,0:0:0:0:
192,96,19125,1,0,0:0:0:0:
336,192,19306,2,0,L|352:96,1,96,2|0,0:0|0:0,0:0:0:0:
96,96,19668,5,8,0:0:0:0:
48,192,19848,1,0,0:0:0:0:
96,288,20029,1,2,0:0:0:0:
192,288,20210,1,0,0:0:0:0:
48,192,20390,1,2,0:0:0:0:
144,192,20571,1,0,0:0:0:0:
400,192,20752,6,0,L|416:96,1,96,8|0,0:0|0:0,0:0:0:0:
320,96,21113,1,2,0:0:0:0:
464,96,21294,1,2,0:0:0:0:
320,48,21475,1,2,0:0:0:0:
416,48,21656,1,2,0:0:0:0:
160,192,21836,6,0,P|128:128|160:16,1,192,8|2,0:0|0:0,0:0:0:0:
256,16,22378,1,0,0:0:0:0:
160,112,22559,1,2,0:0:0:0:
304,112,22740,1,0,0:0:0:0:
48,192,22921,6,0,L|240:192,1,192,8|2,0:0|0:0,0:0:0:0:
224,112,23463,1,0,0:0:0:0:
80,112,23643,1,2,0:0:0:0:
224,112,23824,1,0,0:0:0:0:
480,192,24005,5,8,0:0:0:0:
224,192,24186,1,8,0:0:0:0:
480,192,24366,2,0,L|496:96,1,96,10|0,0:0|0:0,0:0:0:0:
352,96,24728,2,0,L|448:96,1,96,2|0,0:0|0:0,0:0:0:0:
192,192,25089,6,0,L|176:96,1,96,8|0,0:0|0:0,0:0:0:0:
432,96,25451,1,2,0:0:0:0:
176,96,25631,1,2,0:0:0:0:
320,192,25812,1,2,0:0:0:0:
64,192,25993,1,2,0:0:0:0:
320,192,26174,6,0,P|352:128|320:16,1,192,12|2,0:0|0:0,0:0:0:0:
224,16,26716,1,0,0:0:0:0:
224,112,26896,1,2,0:0:0:0:
368,112,27077,1,0,0:0:0:0:
112,192,27258,6,0,L|304:192,1,192,8|2,0:0|0:0,0:0:0:0:
320,96,27800,1,0,0:0:0:0:
176,192,27981,2,0,L|160:96,1,96,2|0,0:0|0:0,0:0:0:0:
416,96,28342,5,8,0:0:0:0:
464,192,28523,1,0,0:0:0:0:
416,288,28704,1,2,0:0:0:0:
320,288,28884,1,0,0:0:0:0:
464,192,29065,1,2,0:0:0:0:
368,192,29246,1,0,0:0:0:0:
112,192,29427,6,0,L|96:96,1,96,8|0,0:0|0:0,0:0:0:0:
192,96,29788,1,2,0:0:0:0:
48,96,29969,1,2,0:0:0:0:
192,48,30149,1,2,0:0:0:0:
96,48,30330,1,2,0:0:0:0:
352,192,30511,6,0,P|384:128|352:16,1,192,8|2,0:0|0:0,0:0:0:0:
256,16,31053,1,0,0:0:0:0:
352,112,31234,1,2,0:0:0:0:
208,112,31415,1,0,0:0:0:0:
464,192,31595,6,0,L|272:192,1,192,8|2,0:0|0:0,0:0:0:0:
288,112,32137,1,0,0:0:0:0:
432,112,32318,1,2,0:0:0:0:
288,112,32499,1,0,0:0:0:0:
32,192,32680,5,8,0:0:0:0:
288,192,32860,1,8,0:0:0:0:
32,192,33041,2,0,L|16:96,1,96,10|0,0:0|0:0,0:0:0:0:
160,96,33403,2,0,L|64:96,1,96,2|0,0:0|0:0,0:0:0:0:
320,192,33764,6,0,L|336:96,1,96,8|0,0:0|0:0,0:0:0:0:
80,96,34125,2,0,L|176:96,1,96,2|0,0:0|0:0,0:0:0:0:
432,96,34487,2,0,L|336:96,1,96,2|0,0:0|0:0,0:0:0:0:
80,192,34848,6,0,P|48:128|80:16,1,192,12|2,0:0|0:0,0:0:0:0:
224,16,35390,1,0,0:0:0:0:
128,16,35571,1,2,0:0:0:0:
32,16,35752,1,0,0:0:0:0:
288,192,35933,6,0,L|192:192,1,96,8|0,0:0|0:0,0:0:0:0:
336,96,36294,1,2,0:0:0:0:
192,96,36475,1,0,0:0:0:0:
336,96,36656,2,0,L|352:192,1,96,2|0,0:0|0:0,0:0:0:0:
96,96,37017,6,0,L|80:192,1,96,8|0,0:0|0:0,0:0:0:0:
224,96,37378,2,0,L|128:96,1,96,2|0,0:0|0:0,0:0:0:0:
272,96,37740,2,0,L|368:96,1,96,2|0,0:0|0:0,0:0:0:0:
112,288,38101,6,0,L|96:192,1,96,8|0,0:0|0:0,0:0:0:0:
240,288,38463,2,0,L|144:288,1,96,2|0,0:0|0:0,0:0:0:0:
192,240,38704,1,0,0:0:0:0:
240,240,38764,1,0,0:0:0:0:
288,240,38824,2,0,L|304:144,1,96,2|0,0:0|0:0,0:0:0:0:
48,96,39186,6,0,L|240:96,1,192,8|2,0:0|0:0,0:0:0:0:
384,192,39728,1,0,0:0:0:0:
288,192,39909,1,2,0:0:0:0:
192,192,40089,1,0,0:0:0:0:
448,288,40270,6,0,L|352:288,1,96,8|0,0:0|0:0,0:0:0:0:
208,288,40631,1,2,0:0:0:0:
352,288,40812,1,0,0:0:0:0:
208,288,40993,2,0,L|192:192,1,96,2|0,0:0|0:0,0:0:0:0:
448,288,41354,6,0,L|464:192,1,96,8|0,0:0|0:0,0:0:0:0:
320,192,41716,2,0,L|224:192,1,96,2|0,0:0|0:0,0:0:0:0:
368,192,42077,2,0,L|464:192,1,96,2|0,0:0|0:0,0:0:0:0:
208,80,42439,6,0,L|112:80,1,96,8|0,0:0|0:0,0:0:0:0:
256,80,42800,1,2,0:0:0:0:
112,80,42981,1,0,0:0:0:0:
160,80,43041,1,0,0:0:0:0:
208,80,43101,1,0,0:0:0:0:
256,192,43162,2,0,L|160:192,1,96,2|0,0:0|0:0,0:0:0:0:
416,192,43523,6,0,P|448:128|416:16,1,192,12|2,0:0|0:0,0:0:0:0:
272,16,44065,1,0,0:0:0:0:
368,16,44246,1,2,0:0:0:0:
464,16,44427,1,0,0:0:0:0:
208,192,44607,6,0,L|304:192,1,96,8|0,0:0|0:0,0:0:0:0:
160,96,44969,1,2,0:0:0:0:
304,96,45149,1,0,0:0:0:0:
160,96,45330,2,0,L|144:192,1,96,2|0,0:0|0:0,0:0:0:0:
400,96,45692,6,0,L|416:192,1,96,8|0,0:0|0:0,0:0:0:0:
272,96,46053,2,0,L|368:96,1,96,2|0,0:0|0:0,0:0:0:0:
224,96,46415,2,0,L|128:96,1,96,2|0,0:0|0:0,0:0:0:0:
384,288,46776,6,0,L|400:192,1,96,8|0,0:0|0:0,0:0:0:0:
256,288,47137,2,0,L|352:288,1,96,2|0,0:0|0:0,0:0:0:0:
304,240,47378,1,0,0:0:0:0:
256,240,47439,1,0,0:0:0:0:
208,240,47499,2,0,L|192:144,1,96,2|0,0:0|0:0,0:0:0:0:
448,96,47860,6,0,L|256:96,1,192,8|2,0:0|0:0,0:0:0:0:
112,192,48403,1,0,0:0:0:0:
208,192,48583,1,2,0:0:0:0:
304,192,48764,1,0,0:0:0:0:
48,288,48945,6,0,L|144:288,1,96,8|0,0:0|0:0,0:0:0:0:
288,288,49306,1,2,0:0:0:0:
144,288,49487,1,0,0:0:0:0:
288,288,49668,2,0,L|304:192,1,96,2|0,0:0|0:0,0:0:0:0:
48,192,50029,6,0,L|32:96,1,96,8|0,0:0|0:0,0:0:0:0:
176,192,50390,2,0,L|176:96,1,96,2|0,0:0|0:0,0:0:0:0:
320,192,50752,2,0,L|336:96,1,96,2|0,0:0|0:0,0:0:0:0:
80,96,51117,6,0,L|272:96,1,180,8|0,0:0|0:0,0:0:0:0:
288,96,51517,2,0,L|152:216,1,180,8|0,0:0|0:0,0:0:0:0:
128,240,51917,2,0,P|112:152|128:64,1,180,8|0,0:0|0:0,0:0:0:0:
336,48,52317,6,0,P|368:112|336:224,1,192,12|2,0:0|0:0,0:0:0:0:
240,224,52852,1,0,0:0:0:0:
96,48,53031,2,0,L|240:48,1,144,8|0,0:0|0:0,0:0:0:0:
144,112,53388,2,0,L|240:112,1,96,2|0,0:0|0:0,0:0:0:0:
496,192,53745,6,0,L|304:192,1,192,8|2,0:0|0:0,0:0:0:0:
400,192,54281,1,0,0:0:0:0:
144,64,54459,1,8,0:0:0:0:
400,64,54638,1,0,0:0:0:0:
144,64,54817,2,0,L|144:112,1,48,2|0,0:0|0:0,0:0:0:0:
208,128,54995,1,0,0:0:0:0:
464,192,55174,6,0,L|368:192,1,96,8|0,0:0|0:0,0:0:0:0:
368,128,55442,1,0,0:0:0:0:
464,128,55531,1,2,0:0:0:0:
208,128,55709,1,0,0:0:0:0:
464,128,55888,2,0,P|480:160|464:264,1,144,8|0,0:0|0:0,0:0:0:0:
368,256,56245,2,0,L|368:160,1,96,2|0,0:0|0:0,0:0:0:0:
432,128,56513,1,0,0:0:0:0:
272,336,56602,6,0,P|240:272|272:160,1,192,8|2,0:0|0:0,0:0:0:0:
416,160,57138,1,0,0:0:0:0:
160,160,57317,2,0,L|256:160,1,96,8|0,0:0|0:0,0:0:0:0:
304,160,57555,1,0,0:0:0:0:
256,112,57614,1,0,0:0:0:0:
304,112,57674,2,0,L|208:112,1,96,2|0,0:0|0:0,0:0:0:0:
464,48,58031,6,0,P|496:112|464:224,1,192,8|2,0:0|0:0,0:0:0:0:
368,224,58567,1,0,0:0:0:0:
224,48,58745,2,0,L|368:48,1,144,8|0,0:0|0:0,0:0:0:0:
272,112,59102,2,0,L|272:160,1,48,2|0,0:0|0:0,0:0:0:0:
336,160,59281,1,0,0:0:0:0:
80,192,59459,6,0,L|224:192,1,144,8|0,0:0|0:0,0:0:0:0:
128,256,59817,2,0,L|112:160,1,96,2|0,0:0|0:0,0:0:0:0:
256,128,60174,2,0,P|272:160|256:264,1,144,8|0,0:0|0:0,0:0:0:0:
160,272,60531,2,0,L|160:224,1,48,2|0,0:0|0:0,0:0:0:0:
224,224,60709,1,0,0:0:0:0:
480,128,60888,6,0,P|496:160|480:264,1,144,8|0,0:0|0:0,0:0:0:0:
384,256,61245,2,0,L|480:256,1,96,2|0,0:0|0:0,0:0:0:0:
336,128,61602,2,0,P|336:224|384:304,1,192,8|2,0:0|0:0,0:0:0:0:
416,240,62049,1,0,0:0:0:0:
384,192,62138,1,0,0:0:0:0:
320,192,62227,1,0,0:0:0:0:
160,192,62317,6,0,L|144:96,1,96,8|0,0:0|0:0,0:0:0:0:
208,80,62584,1,0,0:0:0:0:
368,80,62674,2,0,L|464:80,1,96,2|0,0:0|0:0,0:0:0:0:
208,160,63031,2,0,P|192:192|208:296,1,144,8|0,0:0|0:0,0:0:0:0:
368,352,63388,2,0,L|368:304,1,48,2|0,0:0|0:0,0:0:0:0:
208,192,63566,1,0,0:0:0:0:
144,192,63656,1,0,0:0:0:0:
320,192,63745,6,0,B|448:192|448:192|320:192,1,255.359989479493,12|2,0:0|0:0,0:0:0:0:
176,192,64281,1,0,0:0:0:0:
432,96,64459,2,0,L|288:96,1,144,8|0,0:0|0:0,0:0:0:0:
384,96,64816,2,0,L|384:144,1,48,2|0,0:0|0:0,0:0:0:0:
320,176,64995,1,0,0:0:0:0:
64,192,65174,6,0,L|256:192,1,192,8|2,0:0|0:0,0:0:0:0:
112,144,65709,2,0,L|160:144,1,48,0|0,0:0|0:0,0:0:0:0:
320,64,65888,1,8,0:0:0:0:
64,64,66067,1,0,0:0:0:0:
320,64,66245,1,2,0:0:0:0:
384,64,66334,1,0,0:0:0:0:
320,64,66424,1,0,0:0:0:0:
64,192,66602,6,0,L|160:192,1,96,8|0,0:0|0:0,0:0:0:0:
160,128,66870,1,0,0:0:0:0:
64,128,66959,1,2,0:0:0:0:
320,128,67138,1,0,0:0:0:0:
64,128,67317,2,0,P|48:160|64:264,1,144,8|0,0:0|0:0,0:0:0:0:
160,256,67674,2,0,L|160:160,1,96,2|0,0:0|0:0,0:0:0:0:
96,128,67942,1,0,0:0:0:0:
256,336,68031,6,0,P|288:272|256:160,1,192,8|2,0:0|0:0,0:0:0:0:
112,160,68567,1,0,0:0:0:0:
368,160,68745,2,0,L|272:160,1,96,8|0,0:0|0:0,0:0:0:0:
224,160,68983,1,0,0:0:0:0:
272,112,69043,1,0,0:0:0:0:
224,112,69102,2,0,L|320:112,1,96,2|0,0:0|0:0,0:0:0:0:
64,48,69459,6,0,P|32:112|64:224,1,192,8|2,0:0|0:0,0:0:0:0:
160,224,69995,1,0,0:0:0:0:
304,48,70174,2,0,L|160:48,1,144,8|0,0:0|0:0,0:0:0:0:
256,112,70531,2,0,L|256:160,1,48,2|0,0:0|0:0,0:0:0:0:
192,160,70709,1,0,0:0:0:0:
448,192,70888,6,0,L|304:192,1,144,8|0,0:0|0:0,0:0:0:0:
400,256,71245,2,0,L|416:160,1,96,2|0,0:0|0:0,0:0:0:0:
272,128,71602,2,0,P|256:160|272:264,1,144,8|0,0:0|0:0,0:0:0:0:
368,272,71959,2,0,L|368:224,1,48,2|0,0:0|0:0,0:0:0:0:
304,224,72138,1,0,0:0:0:0:
48,128,72317,6,0,P|32:160|48:264,1,144,8|0,0:0|0:0,0:0:0:0:
144,256,72674,2,0,L|48:256,1,96,2|0,0:0|0:0,0:0:0:0:
192,128,73031,1,8,0:0:0:0:
256,160,73120,1,0,0:0:0:0:
288,216,73209,1,0,0:0:0:0:
288,272,73299,1,0,0:0:0:0:
192,288,73388,1,2,0:0:0:0:
160,240,73477,1,0,0:0:0:0:
192,192,73566,1,0,0:0:0:0:
256,192,73656,1,0,0:0:0:0:
416,192,73745,6,0,L|432:96,1,96,8|0,0:0|0:0,0:0:0:0:
368,80,74013,1,0,0:0:0:0:
208,80,74102,2,0,L|112:80,1,96,2|0,0:0|0:0,0:0:0:0:
368,160,74459,2,0,P|384:192|368:296,1,144,8|0,0:0|0:0,0:0:0:0:
208,304,74816,1,2,0:0:0:0:
144,304,74906,1,0,0:0:0:0:
304,192,74995,1,0,0:0:0:0:
368,192,75084,1,0,0:0:0:0:
192,192,75174,5,12,0:0:0:0:
256,192,75354,12,0,77342,0:0:0:0:
144,288,79511,6,0,L|128:192,1,96,8|0,0:0|0:0,0:0:0:0:
256,192,79872,1,2,0:0:0:0:
128,192,80053,1,0,0:0:0:0:
256,192,80234,1,2,0:0:0:0:
128,192,80414,1,0,0:0:0:0:
192,192,80505,1,0,0:0:0:0:
256,192,80595,5,8,0:0:0:0:
384,192,80776,1,0,0:0:0:0:
256,192,80957,2,0,L|240:288,1,96,2|0,0:0|0:0,0:0:0:0:
368,192,81318,2,0,L|384:288,1,96,2|0,0:0|0:0,0:0:0:0:
320,304,81589,1,0,0:0:0:0:
384,192,81680,5,8,0:0:0:0:
256,192,81860,1,0,0:0:0:0:
384,192,82041,2,0,L|400:288,1,96,2|0,0:0|0:0,0:0:0:0:
272,192,82402,2,0,L|256:288,1,96,2|0,0:0|0:0,0:0:0:0:
320,288,82674,1,0,0:0:0:0:
256,192,82764,5,8,0:0:0:0:
128,192,82945,1,0,0:0:0:0:
256,192,83125,1,2,0:0:0:0:
384,192,83306,1,0,0:0:0:0:
256,192,83487,2,0,L|240:96,1,96,2|0,0:0|0:0,0:0:0:0:
256,96,83758,1,0,0:0:0:0:
432,192,83848,6,0,L|448:96,1,96,8|0,0:0|0:0,0:0:0:0:
320,96,84210,2,0,L|224:96,1,96,2|0,0:0|0:0,0:0:0:0:
352,192,84571,2,0,L|256:192,1,96,2|0,0:0|0:0,0:0:0:0:
192,192,84842,1,0,0:0:0:0:
352,288,84933,6,0,P|448:288|448:288,1,96,8|0,0:0|0:0,0:0:0:0:
320,192,85294,2,0,L|224:192,1,96,2|0,0:0|0:0,0:0:0:0:
352,288,85655,2,0,L|368:192,1,96,2|0,0:0|0:0,0:0:0:0:
304,192,85927,1,0,0:0:0:0:
144,192,86017,6,0,L|48:192,1,96,8|0,0:0|0:0,0:0:0:0:
176,112,86378,2,0,L|80:112,1,96,2|0,0:0|0:0,0:0:0:0:
208,32,86740,2,0,L|112:32,1,96,2|0,0:0|0:0,0:0:0:0:
48,32,87011,1,0,0:0:0:0:
208,192,87101,6,0,L|304:192,1,96,8|0,0:0|0:0,0:0:0:0:
176,112,87463,2,0,L|272:112,1,96,2|0,0:0|0:0,0:0:0:0:
144,32,87824,2,0,L|240:32,1,96,2|0,0:0|0:0,0:0:0:0:
240,32,88095,1,0,0:0:0:0:
80,192,88186,6,0,L|64:96,1,96,8|0,0:0|0:0,0:0:0:0:
192,96,88547,2,0,L|288:96,1,96,2|0,0:0|0:0,0:0:0:0:
160,192,88908,2,0,L|256:192,1,96,2|0,0:0|0:0,0:0:0:0:
320,192,89180,1,0,0:0:0:0:
160,288,89270,6,0,P|64:288|64:288,1,96,8|0,0:0|0:0,0:0:0:0:
192,192,89631,2,0,L|288:192,1,96,2|0,0:0|0:0,0:0:0:0:
160,288,89993,2,0,L|144:192,1,96,2|0,0:0|0:0,0:0:0:0:
208,192,90264,1,0,0:0:0:0:
368,192,90354,6,0,L|464:192,1,96,8|0,0:0|0:0,0:0:0:0:
336,112,90716,2,0,L|432:112,1,96,2|0,0:0|0:0,0:0:0:0:
304,32,91077,2,0,L|400:32,1,96,2|0,0:0|0:0,0:0:0:0:
336,32,91348,1,0,0:0:0:0:
176,192,91439,6,0,L|80:192,1,96,8|0,0:0|0:0,0:0:0:0:
208,112,91800,2,0,L|304:112,1,96,2|0,0:0|0:0,0:0:0:0:
176,32,92161,2,0,L|80:32,1,96,2|0,0:0|0:0,0:0:0:0:
80,32,92433,1,0,0:0:0:0:
256,192,92523,6,0,P|288:128|256:16,1,192,12|2,0:0|0:0,0:0:0:0:
192,16,93065,1,0,0:0:0:0:
256,16,93246,1,2,0:0:0:0:
352,16,93427,1,0,0:0:0:0:
208,16,93607,6,0,P|176:80|208:192,1,192,8|2,0:0|0:0,0:0:0:0:
272,192,94149,1,0,0:0:0:0:
176,256,94330,1,2,0:0:0:0:
240,256,94511,1,0,0:0:0:0:
384,256,94692,5,8,0:0:0:0:
416,192,94872,1,0,0:0:0:0:
320,80,95053,1,2,0:0:0:0:
384,80,95234,1,0,0:0:0:0:
288,80,95414,1,2,0:0:0:0:
224,80,95595,1,0,0:0:0:0:
368,80,95776,5,8,0:0:0:0:
432,192,95957,1,0,0:0:0:0:
368,304,96137,1,2,0:0:0:0:
224,304,96318,1,2,0:0:0:0:
320,304,96499,1,2,0:0:0:0:
224,304,96680,1,2,0:0:0:0:
80,256,96860,5,8,0:0:0:0:
48,192,97041,1,0,0:0:0:0:
144,80,97222,1,2,0:0:0:0:
80,80,97402,1,0,0:0:0:0:
176,80,97583,1,2,0:0:0:0:
80,80,97764,1,0,0:0:0:0:
224,16,97945,6,0,P|256:80|224:192,1,192,8|2,0:0|0:0,0:0:0:0:
160,192,98487,1,0,0:0:0:0:
256,256,98667,1,2,0:0:0:0:
160,256,98848,1,0,0:0:0:0:
304,192,99029,5,8,0:0:0:0:
448,192,99210,1,8,0:0:0:0:
304,192,99390,2,0,L|496:192,1,192,10|2,0:0|0:0,0:0:0:0:
496,192,99933,1,0,0:0:0:0:
352,368,100113,6,0,P|320:304|352:192,1,192,8|2,0:0|0:0,0:0:0:0:
496,192,100655,1,2,0:0:0:0:
304,192,100836,1,2,0:0:0:0:
448,192,101017,1,2,0:0:0:0:
192,192,101198,6,0,P|160:256|192:368,1,192,12|2,0:0|0:0,0:0:0:0:
288,368,101740,1,0,0:0:0:0:
288,272,101920,1,2,0:0:0:0:
144,272,102101,1,0,0:0:0:0:
400,192,102282,6,0,L|208:192,1,192,8|2,0:0|0:0,0:0:0:0:
192,288,102824,1,0,0:0:0:0:
336,192,103005,2,0,L|352:288,1,96,2|0,0:0|0:0,0:0:0:0:
96,288,103366,5,8,0:0:0:0:
48,192,103547,1,0,0:0:0:0:
96,96,103728,1,2,0:0:0:0:
192,96,103908,1,0,0:0:0:0:
48,192,104089,1,2,0:0:0:0:
144,192,104270,1,0,0:0:0:0:
400,192,104451,6,0,L|416:288,1,96,8|0,0:0|0:0,0:0:0:0:
320,288,104812,1,2,0:0:0:0:
464,288,104993,1,2,0:0:0:0:
320,336,105173,1,2,0:0:0:0:
416,336,105354,1,2,0:0:0:0:
160,192,105535,6,0,P|128:256|160:368,1,192,8|2,0:0|0:0,0:0:0:0:
256,368,106077,1,0,0:0:0:0:
160,272,106258,1,2,0:0:0:0:
304,272,106439,1,0,0:0:0:0:
48,192,106619,6,0,L|240:192,1,192,8|2,0:0|0:0,0:0:0:0:
224,272,107161,1,0,0:0:0:0:
80,272,107342,1,2,0:0:0:0:
224,272,107523,1,0,0:0:0:0:
480,192,107704,5,8,0:0:0:0:
224,192,107884,1,8,0:0:0:0:
480,192,108065,2,0,L|496:288,1,96,10|0,0:0|0:0,0:0:0:0:
352,288,108427,2,0,L|448:288,1,96,2|0,0:0|0:0,0:0:0:0:
192,192,108788,6,0,L|176:288,1,96,8|0,0:0|0:0,0:0:0:0:
432,288,109149,2,0,L|336:288,1,96,2|0,0:0|0:0,0:0:0:0:
80,288,109511,2,0,L|176:288,1,96,2|0,0:0|0:0,0:0:0:0:
432,192,109872,6,0,P|464:256|432:368,1,192,12|2,0:0|0:0,0:0:0:0:
288,368,110414,1,0,0:0:0:0:
384,368,110595,1,2,0:0:0:0:
480,368,110776,1,0,0:0:0:0:
224,192,110957,6,0,L|320:192,1,96,8|0,0:0|0:0,0:0:0:0:
176,288,111318,1,2,0:0:0:0:
320,288,111499,1,0,0:0:0:0:
176,288,111680,2,0,L|160:192,1,96,2|0,0:0|0:0,0:0:0:0:
416,288,112041,6,0,L|432:192,1,96,8|0,0:0|0:0,0:0:0:0:
288,288,112402,2,0,L|384:288,1,96,2|0,0:0|0:0,0:0:0:0:
240,288,112764,2,0,L|144:288,1,96,2|0,0:0|0:0,0:0:0:0:
400,96,113125,6,0,L|416:192,1,96,8|0,0:0|0:0,0:0:0:0:
272,96,113487,2,0,L|368:96,1,96,2|0,0:0|0:0,0:0:0:0:
320,144,113728,1,0,0:0:0:0:
272,144,113788,1,0,0:0:0:0:
224,144,113848,2,0,L|208:240,1,96,2|0,0:0|0:0,0:0:0:0:
464,288,114210,6,0,L|272:288,1,192,8|2,0:0|0:0,0:0:0:0:
128,192,114752,1,0,0:0:0:0:
224,192,114933,1,2,0:0:0:0:
320,192,115113,1,0,0:0:0:0:
64,96,115294,6,0,L|160:96,1,96,8|0,0:0|0:0,0:0:0:0:
304,96,115655,1,2,0:0:0:0:
160,96,115836,1,0,0:0:0:0:
304,96,116017,2,0,L|320:192,1,96,2|0,0:0|0:0,0:0:0:0:
64,96,116378,6,0,L|48:192,1,96,8|0,0:0|0:0,0:0:0:0:
192,192,116740,2,0,L|288:192,1,96,2|0,0:0|0:0,0:0:0:0:
144,192,117101,2,0,L|48:192,1,96,2|0,0:0|0:0,0:0:0:0:
304,304,117463,6,0,L|400:304,1,96,8|0,0:0|0:0,0:0:0:0:
256,304,117824,1,2,0:0:0:0:
400,304,118005,1,0,0:0:0:0:
352,304,118065,1,0,0:0:0:0:
304,304,118125,1,0,0:0:0:0:
256,192,118186,2,0,L|352:192,1,96,2|0,0:0|0:0,0:0:0:0:
96,192,118547,6,0,P|64:256|96:368,1,192,12|2,0:0|0:0,0:0:0:0:
240,368,119089,1,0,0:0:0:0:
144,368,119270,1,2,0:0:0:0:
48,368,119451,1,0,0:0:0:0:
304,192,119631,6,0,L|208:192,1,96,8|0,0:0|0:0,0:0:0:0:
352,288,119993,1,2,0:0:0:0:
208,288,120173,1,0,0:0:0:0:
352,288,120354,2,0,L|368:192,1,96,2|0,0:0|0:0,0:0:0:0:
112,288,120716,6,0,L|96:192,1,96,8|0,0:0|0:0,0:0:0:0:
240,288,121077,2,0,L|144:288,1,96,2|0,0:0|0:0,0:0:0:0:
288,288,121439,2,0,L|384:288,1,96,2|0,0:0|0:0,0:0:0:0:
128,96,121800,6,0,L|112:192,1,96,8|0,0:0|0:0,0:0:0:0:
256,96,122161,2,0,L|160:96,1,96,2|0,0:0|0:0,0:0:0:0:
208,144,122402,1,0,0:0:0:0:
256,144,122463,1,0,0:0:0:0:
304,144,122523,2,0,L|320:240,1,96,2|0,0:0|0:0,0:0:0:0:
64,288,122884,6,0,L|256:288,1,192,8|2,0:0|0:0,0:0:0:0:
400,192,123427,1,0,0:0:0:0:
304,192,123607,1,2,0:0:0:0:
208,192,123788,1,0,0:0:0:0:
464,96,123969,6,0,L|368:96,1,96,8|0,0:0|0:0,0:0:0:0:
224,96,124330,1,2,0:0:0:0:
368,96,124511,1,0,0:0:0:0:
224,96,124692,2,0,L|208:192,1,96,2|0,0:0|0:0,0:0:0:0:
464,192,125053,6,0,L|480:288,1,96,8|0,0:0|0:0,0:0:0:0:
336,192,125414,2,0,L|336:288,1,96,2|0,0:0|0:0,0:0:0:0:
192,192,125776,2,0,L|176:288,1,96,2|0,0:0|0:0,0:0:0:0:
432,288,126137,6,0,L|240:288,1,180,8|0,0:0|0:0,0:0:0:0:
224,288,126537,2,0,L|360:168,1,180,8|0,0:0|0:0,0:0:0:0:
384,144,126937,2,0,P|400:232|384:320,1,180,8|0,0:0|0:0,0:0:0:0:
176,336,127337,6,0,P|144:272|176:160,1,192,12|2,0:0|0:0,0:0:0:0:
272,160,127872,1,0,0:0:0:0:
416,336,128051,2,0,L|272:336,1,144,8|0,0:0|0:0,0:0:0:0:
368,272,128408,2,0,L|272:272,1,96,2|0,0:0|0:0,0:0:0:0:
16,192,128765,6,0,L|208:192,1,192,8|2,0:0|0:0,0:0:0:0:
112,192,129301,1,0,0:0:0:0:
368,320,129479,1,8,0:0:0:0:
112,320,129658,1,0,0:0:0:0:
368,320,129837,2,0,L|368:272,1,48,2|0,0:0|0:0,0:0:0:0:
304,256,130015,1,0,0:0:0:0:
48,192,130194,6,0,L|144:192,1,96,8|0,0:0|0:0,0:0:0:0:
144,256,130462,1,0,0:0:0:0:
48,256,130551,1,2,0:0:0:0:
304,256,130729,1,0,0:0:0:0:
48,256,130908,2,0,P|32:224|48:120,1,144,8|0,0:0|0:0,0:0:0:0:
144,128,131265,2,0,L|144:224,1,96,2|0,0:0|0:0,0:0:0:0:
80,256,131533,1,0,0:0:0:0:
240,48,131622,6,0,P|272:112|240:224,1,192,8|2,0:0|0:0,0:0:0:0:
96,224,132158,1,0,0:0:0:0:
352,224,132337,2,0,L|256:224,1,96,8|0,0:0|0:0,0:0:0:0:
208,224,132575,1,0,0:0:0:0:
256,272,132634,1,0,0:0:0:0:
208,272,132694,2,0,L|304:272,1,96,2|0,0:0|0:0,0:0:0:0:
48,336,133051,6,0,P|16:272|48:160,1,192,8|2,0:0|0:0,0:0:0:0:
144,160,133587,1,0,0:0:0:0:
288,336,133765,2,0,L|144:336,1,144,8|0,0:0|0:0,0:0:0:0:
240,272,134122,2,0,L|240:224,1,48,2|0,0:0|0:0,0:0:0:0:
176,224,134301,1,0,0:0:0:0:
432,192,134479,6,0,L|288:192,1,144,8|0,0:0|0:0,0:0:0:0:
384,128,134837,2,0,L|400:224,1,96,2|0,0:0|0:0,0:0:0:0:
256,256,135194,2,0,P|240:224|256:120,1,144,8|0,0:0|0:0,0:0:0:0:
352,112,135551,2,0,L|400:112,2,48,2|0|0,0:0|0:0|0:0,0:0:0:0:
96,256,135908,6,0,P|80:224|96:120,1,144,8|0,0:0|0:0,0:0:0:0:
192,128,136265,2,0,L|96:128,1,96,2|0,0:0|0:0,0:0:0:0:
240,256,136622,2,0,L|240:160,1,96,8|0,0:0|0:0,0:0:0:0:
96,80,136979,1,2,0:0:0:0:
96,144,137069,1,0,0:0:0:0:
128,192,137158,1,0,0:0:0:0:
192,192,137247,1,0,0:0:0:0:
352,192,137337,6,0,L|368:288,1,96,8|0,0:0|0:0,0:0:0:0:
304,304,137604,1,0,0:0:0:0:
144,304,137694,2,0,L|48:304,1,96,2|0,0:0|0:0,0:0:0:0:
304,224,138051,2,0,P|320:192|304:88,1,144,8|0,0:0|0:0,0:0:0:0:
144,32,138408,2,0,L|144:80,1,48,2|0,0:0|0:0,0:0:0:0:
304,192,138587,1,0,0:0:0:0:
368,192,138676,1,0,0:0:0:0:
192,192,138765,6,0,B|64:192|64:192|192:192,1,255.359989479493,12|0,0:0|0:0,0:0:0:0:
336,192,139301,1,0,0:0:0:0:
80,288,139479,2,0,L|224:288,1,144,8|0,0:0|0:0,0:0:0:0:
128,288,139837,2,0,L|128:240,1,48,2|0,0:0|0:0,0:0:0:0:
192,208,140015,1,0,0:0:0:0:
448,192,140194,6,0,L|256:192,1,192,8|2,0:0|0:0,0:0:0:0:
400,240,140729,2,0,L|352:240,1,48,0|0,0:0|0:0,0:0:0:0:
192,320,140908,1,8,0:0:0:0:
448,320,141087,1,0,0:0:0:0:
192,320,141265,1,2,0:0:0:0:
128,320,141354,1,0,0:0:0:0:
192,320,141444,1,0,0:0:0:0:
448,192,141622,6,0,L|352:192,1,96,8|0,0:0|0:0,0:0:0:0:
352,256,141890,1,0,0:0:0:0:
448,256,141979,1,2,0:0:0:0:
192,256,142158,1,0,0:0:0:0:
448,256,142337,2,0,P|464:224|448:120,1,144,8|0,0:0|0:0,0:0:0:0:
352,128,142694,2,0,L|352:224,1,96,2|0,0:0|0:0,0:0:0:0:
416,256,142962,1,0,0:0:0:0:
256,48,143051,6,0,P|224:112|256:224,1,192,8|2,0:0|0:0,0:0:0:0:
400,224,143587,1,0,0:0:0:0:
144,224,143765,2,0,L|240:224,1,96,8|0,0:0|0:0,0:0:0:0:
288,224,144003,1,0,0:0:0:0:
240,272,144063,1,0,0:0:0:0:
288,272,144122,2,0,L|192:272,1,96,2|0,0:0|0:0,0:0:0:0:
448,336,144479,6,0,P|480:272|448:160,1,192,8|2,0:0|0:0,0:0:0:0:
352,160,145015,1,0,0:0:0:0:
208,336,145194,2,0,L|352:336,1,144,8|0,0:0|0:0,0:0:0:0:
256,272,145551,2,0,L|256:224,1,48,2|0,0:0|0:0,0:0:0:0:
320,224,145729,1,0,0:0:0:0:
64,192,145908,6,0,L|208:192,1,144,8|0,0:0|0:0,0:0:0:0:
112,128,146265,2,0,L|96:224,1,96,2|0,0:0|0:0,0:0:0:0:
240,256,146622,2,0,P|256:224|240:120,1,144,8|0,0:0|0:0,0:0:0:0:
144,112,146979,2,0,L|144:160,1,48,2|0,0:0|0:0,0:0:0:0:
208,160,147158,1,0,0:0:0:0:
464,256,147337,6,0,P|480:224|464:120,1,144,8|0,0:0|0:0,0:0:0:0:
368,128,147694,2,0,L|464:128,1,96,2|0,0:0|0:0,0:0:0:0:
320,256,148051,1,8,0:0:0:0:
256,224,148140,1,0,0:0:0:0:
224,168,148229,1,0,0:0:0:0:
224,112,148319,1,0,0:0:0:0:
320,81,148408,1,2,0:0:0:0:
352,144,148497,1,0,0:0:0:0:
320,192,148587,1,0,0:0:0:0:
256,192,148676,1,0,0:0:0:0:
96,192,148765,6,0,L|80:288,1,96,8|0,0:0|0:0,0:0:0:0:
144,304,149033,1,0,0:0:0:0:
304,304,149122,2,0,L|400:304,1,96,2|0,0:0|0:0,0:0:0:0:
144,224,149479,2,0,P|128:192|144:88,1,144,8|0,0:0|0:0,0:0:0:0:
304,80,149837,1,2,0:0:0:0:
368,80,149926,1,0,0:0:0:0:
208,192,150015,1,0,0:0:0:0:
144,192,150104,1,0,0:0:0:0:
320,192,150194,5,12,0:0:0:0:
256,192,150372,12,0,152694,0:0:0:0:
160,192,153051,6,0,L|144:96,1,96,8|0,0:0|0:0,0:0:0:0:
240,96,153408,1,2,0:0:0:0:
96,96,153587,2,0,P|64:160|96:272,1,192,2|0,0:0|0:0,0:0:0:0:
192,272,154122,1,2,0:0:0:0:
48,96,154301,2,0,L|48:144,1,48,8|0,0:0|0:0,0:0:0:0:
208,336,154479,6,0,P|240:272|208:160,1,192,8|2,0:0|0:0,0:0:0:0:
64,160,155015,2,0,L|256:160,1,192,2|0,0:0|0:0,0:0:0:0:
208,96,155432,1,0,0:0:0:0:
160,96,155491,1,0,0:0:0:0:
112,96,155551,2,0,L|96:192,1,96,2|0,0:0|0:0,0:0:0:0:
352,336,155908,6,0,P|384:272|352:160,1,192,8|2,0:0|0:0,0:0:0:0:
256,160,156444,1,0,0:0:0:0:
400,80,156622,2,0,L|208:80,1,192,8|2,0:0|0:0,0:0:0:0:
352,80,157158,1,0,0:0:0:0:
96,192,157337,6,0,L|288:192,1,192,8|2,0:0|0:0,0:0:0:0:
192,192,157872,1,0,0:0:0:0:
336,336,158051,2,0,P|368:272|336:160,1,192,8|2,0:0|0:0,0:0:0:0:
192,160,158587,1,0,0:0:0:0:
448,192,158765,6,0,L|464:96,1,96,8|0,0:0|0:0,0:0:0:0:
320,192,159122,2,0,L|320:96,1,96,2|0,0:0|0:0,0:0:0:0:
176,192,159479,2,0,L|160:96,1,96,2|0,0:0|0:0,0:0:0:0:
304,192,159837,2,0,L|304:240,1,48,8|0,0:0|0:0,0:0:0:0:
240,192,160015,2,0,L|240:240,1,48,8|0,0:0|0:0,0:0:0:0:
400,336,160194,6,0,P|432:272|400:160,1,192,8|2,0:0|0:0,0:0:0:0:
256,48,160729,2,0,P|224:112|256:224,1,192,2|0,0:0|0:0,0:0:0:0:
304,224,161146,1,0,0:0:0:0:
352,224,161206,1,0,0:0:0:0:
400,224,161265,2,0,L|416:128,1,96,2|0,0:0|0:0,0:0:0:0:
160,336,161622,6,0,P|128:272|160:160,1,192,12|2,0:0|0:0,0:0:0:0:
256,160,162158,1,0,0:0:0:0:
112,80,162337,2,0,L|304:80,1,192,8|2,0:0|0:0,0:0:0:0:
160,80,162872,1,0,0:0:0:0:
416,192,163051,6,0,L|224:192,1,192,8|2,0:0|0:0,0:0:0:0:
320,192,163587,1,0,0:0:0:0:
176,336,163765,2,0,P|144:272|176:160,1,192,8|2,0:0|0:0,0:0:0:0:
320,160,164301,1,0,0:0:0:0:
64,192,164479,6,0,L|48:96,1,96,8|0,0:0|0:0,0:0:0:0:
144,96,164837,1,2,0:0:0:0:
288,96,165015,2,0,L|304:192,2,96,2|0|0,0:0|0:0|0:0,0:0:0:0:
192,96,165551,1,2,0:0:0:0:
336,272,165729,2,0,L|336:224,1,48,8|0,0:0|0:0,0:0:0:0:
176,336,165908,6,0,P|144:272|176:160,1,192,8|2,0:0|0:0,0:0:0:0:
240,160,166354,1,0,0:0:0:0:
176,160,166444,1,2,0:0:0:0:
320,192,166622,2,0,L|368:192,2,48,2|0|0,0:0|0:0|0:0,0:0:0:0:
464,224,166979,2,0,L|480:272,2,48,2|0|0,0:0|0:0|0:0,0:0:0:0:
208,336,167337,6,0,P|176:272|208:160,1,192,8|2,0:0|0:0,0:0:0:0:
304,160,167872,1,0,0:0:0:0:
160,80,168051,2,0,L|352:80,1,192,8|2,0:0|0:0,0:0:0:0:
208,80,168586,1,0,0:0:0:0:
464,192,168765,6,0,L|272:192,1,192,8|2,0:0|0:0,0:0:0:0:
368,192,169301,1,0,0:0:0:0:
224,336,169479,2,0,P|192:272|224:160,1,192,8|2,0:0|0:0,0:0:0:0:
368,160,170015,1,0,0:0:0:0:
112,192,170194,6,0,L|16:192,1,96,8|0,0:0|0:0,0:0:0:0:
160,96,170551,2,0,L|256:96,1,96,2|0,0:0|0:0,0:0:0:0:
112,96,170908,1,2,0:0:0:0:
256,96,171086,1,0,0:0:0:0:
400,96,171265,1,8,0:0:0:0:
256,272,171444,2,0,L|256:224,1,48,8|0,0:0|0:0,0:0:0:0:
416,272,171622,6,0,L|432:176,1,96,8|0,0:0|0:0,0:0:0:0:
288,272,171979,2,0,L|272:176,1,96,2|0,0:0|0:0,0:0:0:0:
416,128,172336,1,2,0:0:0:0:
272,128,172515,1,0,0:0:0:0:
368,128,172694,1,2,0:0:0:0:
272,128,172872,1,0,0:0:0:0:
16,192,173051,6,0,L|16:96,1,96,12|0,0:0|0:0,0:0:0:0:
144,192,173408,2,0,L|144:96,1,96,2|0,0:0|0:0,0:0:0:0:
272,192,173765,2,0,L|272:96,1,96,2|0,0:0|0:0,0:0:0:0:
144,192,174122,6,0,L|144:96,1,96,8|0,0:0|0:0,0:0:0:0:
272,192,174479,1,2,0:0:0:0:
144,192,174658,1,0,0:0:0:0:
272,192,174836,1,2,0:0:0:0:
400,192,175015,1,0,0:0:0:0:
144,192,175193,6,0,L|128:96,1,96,8|0,0:0|0:0,0:0:0:0:
256,192,175551,2,0,L|240:96,1,96,2|0,0:0|0:0,0:0:0:0:
368,192,175908,2,0,L|352:96,1,96,2|0,0:0|0:0,0:0:0:0:
224,192,176265,6,0,L|208:96,1,96,8|0,0:0|0:0,0:0:0:0:
336,96,176622,1,2,0:0:0:0:
464,192,176801,1,0,0:0:0:0:
416,192,176860,1,0,0:0:0:0:
368,192,176920,1,0,0:0:0:0:
320,192,176979,1,2,0:0:0:0:
448,96,177158,1,0,0:0:0:0:
192,192,177336,6,0,L|192:96,1,96,8|0,0:0|0:0,0:0:0:0:
320,192,177693,2,0,L|320:96,1,96,2|0,0:0|0:0,0:0:0:0:
448,192,178051,2,0,L|448:96,1,96,2|0,0:0|0:0,0:0:0:0:
320,192,178408,6,0,L|320:96,1,96,8|0,0:0|0:0,0:0:0:0:
192,192,178765,1,2,0:0:0:0:
320,192,178943,1,0,0:0:0:0:
192,192,179122,1,2,0:0:0:0:
64,192,179301,1,0,0:0:0:0:
320,192,179479,6,0,L|336:96,1,96,8|0,0:0|0:0,0:0:0:0:
208,192,179836,2,0,L|224:96,1,96,2|0,0:0|0:0,0:0:0:0:
96,192,180193,2,0,L|112:96,1,96,2|0,0:0|0:0,0:0:0:0:
240,192,180551,6,0,L|224:96,1,96,8|0,0:0|0:0,0:0:0:0:
352,96,180908,1,2,0:0:0:0:
224,192,181086,1,0,0:0:0:0:
272,192,181146,1,0,0:0:0:0:
320,192,181205,1,0,0:0:0:0:
368,192,181265,1,2,0:0:0:0:
240,96,181443,1,0,0:0:0:0:
496,192,181622,6,0,L|496:96,1,96,8|0,0:0|0:0,0:0:0:0:
368,192,181979,2,0,L|368:96,1,96,2|0,0:0|0:0,0:0:0:0:
240,192,182336,2,0,L|240:96,1,96,2|0,0:0|0:0,0:0:0:0:
368,192,182693,6,0,L|368:96,1,96,8|0,0:0|0:0,0:0:0:0:
240,192,183051,1,2,0:0:0:0:
368,192,183229,1,0,0:0:0:0:
240,192,183408,1,2,0:0:0:0:
112,192,183586,1,0,0:0:0:0:
368,192,183765,6,0,L|384:96,1,96,8|0,0:0|0:0,0:0:0:0:
256,192,184122,2,0,L|272:96,1,96,2|0,0:0|0:0,0:0:0:0:
144,192,184479,2,0,L|160:96,1,96,2|0,0:0|0:0,0:0:0:0:
288,192,184836,6,0,L|304:96,1,96,8|0,0:0|0:0,0:0:0:0:
176,96,185193,1,2,0:0:0:0:
48,192,185372,1,0,0:0:0:0:
96,192,185431,1,0,0:0:0:0:
144,192,185491,1,0,0:0:0:0:
192,192,185551,1,2,0:0:0:0:
64,96,185729,1,0,0:0:0:0:
320,96,185908,6,0,L|336:192,1,96,8|0,0:0|0:0,0:0:0:0:
208,96,186265,2,0,L|192:192,1,96,8|0,0:0|0:0,0:0:0:0:
64,96,186622,2,0,L|80:192,1,96,8|0,0:0|0:0,0:0:0:0:
208,96,186979,5,8,0:0:0:0:
80,192,187158,1,0,0:0:0:0:
208,96,187336,2,0,L|192:192,1,96,8|0,0:0|0:0,0:0:0:0:
320,96,187693,2,0,L|336:192,1,96,8|0,0:0|0:0,0:0:0:0:
320,240,187961,1,0,0:0:0:0:
160,240,188051,5,8,0:0:0:0:
32,192,188229,1,2,0:0:0:0:
192,144,188408,1,8,0:0:0:0:
64,96,188586,1,2,0:0:0:0:
224,48,188765,1,8,0:0:0:0:
96,0,188943,1,0,0:0:0:0:
160,0,189033,1,0,0:0:0:0:
320,0,189122,6,0,P|440:168|320:384,1,480,0|0,0:0|0:0,0:0:0:0:
64,336,190193,6,0,L|48:240,1,96,12|0,0:0|0:0,0:0:0:0:
176,336,190550,2,0,L|192:240,1,96,2|0,0:0|0:0,0:0:0:0:
64,224,190907,1,2,0:0:0:0:
192,224,191085,1,0,0:0:0:0:
320,288,191264,6,0,P|364:224|336:120,1,192,8|2,0:0|0:0,0:0:0:0:
208,128,191800,1,0,0:0:0:0:
336,128,191978,2,0,L|352:32,1,96,2|0,0:0|0:0,0:0:0:0:
480,336,192335,6,0,L|496:240,1,96,8|0,0:0|0:0,0:0:0:0:
368,336,192693,2,0,L|352:240,1,96,2|0,0:0|0:0,0:0:0:0:
480,224,193050,1,2,0:0:0:0:
352,224,193228,1,0,0:0:0:0:
224,192,193407,5,8,0:0:0:0:
352,192,193585,1,0,0:0:0:0:
224,112,193764,1,2,0:0:0:0:
352,112,193943,1,0,0:0:0:0:
224,112,194121,2,0,L|240:208,1,96,2|0,0:0|0:0,0:0:0:0:
368,288,194478,6,0,L|384:192,1,96,8|0,0:0|0:0,0:0:0:0:
256,192,194835,1,2,0:0:0:0:
384,192,195014,1,0,0:0:0:0:
256,192,195193,1,2,0:0:0:0:
384,192,195371,1,0,0:0:0:0:
320,192,195460,1,0,0:0:0:0:
256,192,195550,5,8,0:0:0:0:
128,192,195728,1,0,0:0:0:0:
256,192,195907,2,0,L|272:288,1,96,2|0,0:0|0:0,0:0:0:0:
144,192,196264,2,0,L|128:288,1,96,2|0,0:0|0:0,0:0:0:0:
192,304,196532,1,0,0:0:0:0:
128,192,196621,5,8,0:0:0:0:
256,192,196800,1,0,0:0:0:0:
128,192,196978,2,0,L|112:288,1,96,2|0,0:0|0:0,0:0:0:0:
240,192,197335,2,0,L|256:288,1,96,2|0,0:0|0:0,0:0:0:0:
192,288,197603,1,0,0:0:0:0:
256,192,197693,5,8,0:0:0:0:
384,192,197871,1,0,0:0:0:0:
256,192,198050,1,2,0:0:0:0:
128,192,198228,1,0,0:0:0:0:
256,192,198407,2,0,L|272:96,1,96,2|0,0:0|0:0,0:0:0:0:
256,96,198675,1,0,0:0:0:0:
80,192,198764,6,0,L|64:96,1,96,12|0,0:0|0:0,0:0:0:0:
192,48,199121,2,0,L|96:48,1,96,2|0,0:0|0:0,0:0:0:0:
224,48,199478,2,0,L|320:48,1,96,2|0,0:0|0:0,0:0:0:0:
384,48,199746,1,0,0:0:0:0:
224,192,199835,6,0,L|128:192,1,96,8|0,0:0|0:0,0:0:0:0:
256,112,200193,2,0,L|160:112,1,96,2|0,0:0|0:0,0:0:0:0:
288,192,200550,2,0,L|304:96,1,96,2|0,0:0|0:0,0:0:0:0:
240,80,200818,1,0,0:0:0:0:
400,192,200907,6,0,L|496:192,1,96,8|0,0:0|0:0,0:0:0:0:
368,112,201264,2,0,L|464:112,1,96,2|0,0:0|0:0,0:0:0:0:
336,32,201621,2,0,L|432:32,1,96,2|0,0:0|0:0,0:0:0:0:
368,32,201889,1,0,0:0:0:0:
208,192,201978,6,0,L|112:192,1,96,8|0,0:0|0:0,0:0:0:0:
240,112,202335,2,0,L|144:112,1,96,2|0,0:0|0:0,0:0:0:0:
272,32,202693,2,0,L|176:32,1,96,2|0,0:0|0:0,0:0:0:0:
176,32,202960,1,0,0:0:0:0:
336,192,203050,6,0,L|352:96,1,96,8|0,0:0|0:0,0:0:0:0:
224,48,203407,2,0,L|320:48,1,96,2|0,0:0|0:0,0:0:0:0:
192,48,203764,2,0,L|96:48,1,96,2|0,0:0|0:0,0:0:0:0:
160,48,204032,1,0,0:0:0:0:
320,192,204121,6,0,L|416:192,1,96,8|0,0:0|0:0,0:0:0:0:
288,112,204478,2,0,L|384:112,1,96,2|0,0:0|0:0,0:0:0:0:
256,192,204835,2,0,L|240:96,1,96,2|0,0:0|0:0,0:0:0:0:
304,80,205103,1,0,0:0:0:0:
144,192,205193,6,0,L|48:192,1,96,8|0,0:0|0:0,0:0:0:0:
176,112,205550,2,0,L|80:112,1,96,2|0,0:0|0:0,0:0:0:0:
208,32,205907,2,0,L|112:32,1,96,2|0,0:0|0:0,0:0:0:0:
176,32,206175,1,0,0:0:0:0:
336,192,206264,6,0,L|432:192,1,96,8|0,0:0|0:0,0:0:0:0:
304,112,206621,2,0,L|208:112,1,96,2|0,0:0|0:0,0:0:0:0:
336,32,206978,2,0,L|432:32,1,96,2|0,0:0|0:0,0:0:0:0:
432,32,207246,1,0,0:0:0:0:
272,32,207335,6,0,L|256:128,1,96,12|0,0:0|0:0,0:0:0:0:
400,80,207693,2,0,P|448:152|400:336,1,288,2|0,0:0|0:0,0:0:0:0:
256,336,208407,6,0,L|240:240,1,96,8|0,0:0|0:0,0:0:0:0:
384,192,208764,1,2,0:0:0:0:
240,192,208943,1,0,0:0:0:0:
384,336,209121,2,0,L|400:240,1,96,2|0,0:0|0:0,0:0:0:0:
255,32,209478,6,0,L|239:128,1,96,8|0,0:0|0:0,0:0:0:0:
383,80,209835,2,0,P|431:152|383:336,1,288,2|0,0:0|0:0,0:0:0:0:
240,336,210550,6,0,L|224:240,1,96,8|0,0:0|0:0,0:0:0:0:
368,192,210907,2,0,L|464:192,1,96,2|0,0:0|0:0,0:0:0:0:
416,128,211145,1,0,0:0:0:0:
368,128,211204,1,0,0:0:0:0:
320,64,211264,2,0,L|416:64,1,96,2|0,0:0|0:0,0:0:0:0:
272,32,211621,6,0,L|256:128,1,96,8|0,0:0|0:0,0:0:0:0:
112,80,211978,2,0,P|64:152|112:336,1,288,2|0,0:0|0:0,0:0:0:0:
256,336,212693,6,0,L|272:240,1,96,8|0,0:0|0:0,0:0:0:0:
128,192,213050,1,2,0:0:0:0:
272,192,213228,1,0,0:0:0:0:
128,336,213407,2,0,L|112:240,1,96,2|0,0:0|0:0,0:0:0:0:
257,32,213764,6,0,L|273:128,1,96,8|0,0:0|0:0,0:0:0:0:
129,80,214121,2,0,L|112:176,1,96,2|0,0:0|0:0,0:0:0:0:
256,192,214478,2,0,L|160:192,1,96,2|0,0:0|0:0,0:0:0:0:
304,272,214835,6,0,L|400:272,1,96,0|0,0:0|0:0,0:0:0:0:
256,192,215193,2,0,L|160:192,1,96,0|0,0:0|0:0,0:0:0:0:
208,128,215431,1,0,0:0:0:0:
256,128,215490,1,0,0:0:0:0:
304,64,215550,2,0,L|208:64,1,96,2|0,0:0|0:0,0:0:0:0:
464,64,215907,6,0,L|480:160,1,96,12|0,0:0|0:0,0:0:0:0:
336,64,216264,2,0,P|208:96|144:228,1,288,2|0,0:0|0:0,0:0:0:0:
288,336,216978,6,0,L|304:240,1,96,8|0,0:0|0:0,0:0:0:0:
160,192,217335,1,2,0:0:0:0:
304,192,217514,1,0,0:0:0:0:
160,336,217693,2,0,L|144:240,1,96,2|0,0:0|0:0,0:0:0:0:
289,32,218050,6,0,L|305:128,1,96,8|0,0:0|0:0,0:0:0:0:
160,336,218407,2,0,P|80:192|144:108,1,288,2|0,0:0|0:0,0:0:0:0:
288,336,219121,6,0,L|304:240,1,96,8|0,0:0|0:0,0:0:0:0:
160,192,219478,2,0,L|64:192,1,96,2|0,0:0|0:0,0:0:0:0:
112,128,219716,1,0,0:0:0:0:
160,128,219776,1,0,0:0:0:0:
208,64,219835,2,0,L|112:64,1,96,2|0,0:0|0:0,0:0:0:0:
256,64,220193,6,0,L|272:160,1,96,8|0,0:0|0:0,0:0:0:0:
416,64,220550,2,0,P|288:96|224:228,1,288,2|0,0:0|0:0,0:0:0:0:
368,336,221264,6,0,L|384:240,1,96,8|0,0:0|0:0,0:0:0:0:
240,192,221621,1,2,0:0:0:0:
384,192,221800,1,0,0:0:0:0:
240,336,221978,2,0,L|224:240,1,96,2|0,0:0|0:0,0:0:0:0:
369,32,222335,6,0,L|385:128,1,96,8|0,0:0|0:0,0:0:0:0:
240,32,222693,2,0,L|240:128,1,96,2|0,0:0|0:0,0:0:0:0:
96,32,223050,2,0,L|80:128,1,96,2|0,0:0|0:0,0:0:0:0:
336,96,223408,6,0,L|144:96,1,180,8|0,0:0|0:0,0:0:0:0:
128,96,223808,2,0,L|264:216,1,180,8|0,0:0|0:0,0:0:0:0:
288,240,224208,2,0,P|304:176|288:64,1,180,8|0,0:0|0:0,0:0:0:0:
336,336,225408,6,0,P|368:272|336:160,1,192,12|2,0:0|0:0,0:0:0:0:
240,160,225943,1,0,0:0:0:0:
96,336,226122,2,0,L|240:336,1,144,8|0,0:0|0:0,0:0:0:0:
336,272,226479,2,0,L|240:272,1,96,2|0,0:0|0:0,0:0:0:0:
496,192,226836,6,0,L|304:192,1,192,8|2,0:0|0:0,0:0:0:0:
400,192,227372,1,0,0:0:0:0:
144,320,227550,1,8,0:0:0:0:
400,320,227729,1,0,0:0:0:0:
144,320,227908,2,0,L|144:272,1,48,2|0,0:0|0:0,0:0:0:0:
208,256,228086,1,0,0:0:0:0:
464,192,228265,6,0,L|368:192,1,96,8|0,0:0|0:0,0:0:0:0:
304,256,228533,1,0,0:0:0:0:
400,256,228622,1,2,0:0:0:0:
144,256,228800,1,0,0:0:0:0:
400,256,228979,2,0,P|416:224|400:120,1,144,8|0,0:0|0:0,0:0:0:0:
304,128,229336,2,0,L|304:224,1,96,2|0,0:0|0:0,0:0:0:0:
368,256,229604,1,0,0:0:0:0:
208,48,229693,6,0,P|176:112|208:224,1,192,8|2,0:0|0:0,0:0:0:0:
352,224,230229,1,0,0:0:0:0:
96,224,230408,2,0,L|192:224,1,96,8|0,0:0|0:0,0:0:0:0:
240,224,230646,1,0,0:0:0:0:
192,272,230705,1,0,0:0:0:0:
240,272,230765,2,0,L|144:272,1,96,2|0,0:0|0:0,0:0:0:0:
400,336,231122,6,0,P|432:272|400:160,1,192,8|2,0:0|0:0,0:0:0:0:
304,160,231658,1,0,0:0:0:0:
448,336,231836,2,0,L|304:336,1,144,8|0,0:0|0:0,0:0:0:0:
400,272,232193,2,0,L|400:224,1,48,2|0,0:0|0:0,0:0:0:0:
336,224,232372,1,0,0:0:0:0:
80,192,232550,6,0,L|224:192,1,144,8|0,0:0|0:0,0:0:0:0:
128,128,232908,2,0,L|112:224,1,96,2|0,0:0|0:0,0:0:0:0:
256,256,233265,2,0,P|272:224|256:120,1,144,8|0,0:0|0:0,0:0:0:0:
160,112,233622,2,0,L|112:112,2,48,2|0|0,0:0|0:0|0:0,0:0:0:0:
416,256,233979,6,0,P|432:224|416:120,1,144,8|0,0:0|0:0,0:0:0:0:
320,128,234336,2,0,L|416:128,1,96,2|0,0:0|0:0,0:0:0:0:
272,256,234693,2,0,L|272:160,1,96,8|0,0:0|0:0,0:0:0:0:
416,80,235050,1,2,0:0:0:0:
448,136,235140,1,0,0:0:0:0:
416,192,235229,1,0,0:0:0:0:
352,192,235318,1,0,0:0:0:0:
192,192,235408,6,0,L|176:288,1,96,8|0,0:0|0:0,0:0:0:0:
240,304,235675,1,0,0:0:0:0:
400,304,235765,2,0,L|304:304,1,96,2|0,0:0|0:0,0:0:0:0:
48,224,236122,2,0,P|32:192|48:88,1,144,8|0,0:0|0:0,0:0:0:0:
208,32,236479,2,0,L|208:80,1,48,2|0,0:0|0:0,0:0:0:0:
48,192,236658,1,0,0:0:0:0:
112,192,236747,1,0,0:0:0:0:
288,192,236836,6,0,B|416:192|416:192|288:192,1,255.359989479493,12|0,0:0|0:0,0:0:0:0:
144,192,237372,1,0,0:0:0:0:
400,288,237550,2,0,L|256:288,1,144,8|0,0:0|0:0,0:0:0:0:
160,288,237908,2,0,L|160:240,1,48,2|0,0:0|0:0,0:0:0:0:
224,208,238086,1,0,0:0:0:0:
480,192,238265,6,0,L|288:192,1,192,8|2,0:0|0:0,0:0:0:0:
432,240,238800,2,0,L|384:240,1,48,0|0,0:0|0:0,0:0:0:0:
224,320,238979,1,8,0:0:0:0:
480,320,239158,1,0,0:0:0:0:
224,320,239336,1,2,0:0:0:0:
160,320,239425,1,0,0:0:0:0:
224,320,239515,1,0,0:0:0:0:
480,192,239693,6,0,L|384:192,1,96,8|0,0:0|0:0,0:0:0:0:
320,256,239961,1,0,0:0:0:0:
416,256,240050,1,2,0:0:0:0:
160,256,240229,1,0,0:0:0:0:
416,256,240408,2,0,P|432:224|416:120,1,144,8|0,0:0|0:0,0:0:0:0:
320,128,240765,2,0,L|320:224,1,96,2|0,0:0|0:0,0:0:0:0:
384,256,241033,1,0,0:0:0:0:
224,48,241122,6,0,P|192:112|224:224,1,192,8|2,0:0|0:0,0:0:0:0:
368,224,241658,1,0,0:0:0:0:
112,224,241836,2,0,L|208:224,1,96,8|0,0:0|0:0,0:0:0:0:
256,224,242074,1,0,0:0:0:0:
208,272,242134,1,0,0:0:0:0:
256,272,242193,2,0,L|160:272,1,96,2|0,0:0|0:0,0:0:0:0:
416,336,242550,6,0,P|448:272|416:160,1,192,8|2,0:0|0:0,0:0:0:0:
320,160,243086,1,0,0:0:0:0:
176,336,243265,2,0,L|320:336,1,144,8|0,0:0|0:0,0:0:0:0:
224,272,243622,2,0,L|224:224,1,48,2|0,0:0|0:0,0:0:0:0:
288,224,243800,1,0,0:0:0:0:
32,192,243979,6,0,L|176:192,1,144,8|0,0:0|0:0,0:0:0:0:
80,128,244336,2,0,L|64:224,1,96,2|0,0:0|0:0,0:0:0:0:
208,256,244693,2,0,P|224:224|208:120,1,144,8|0,0:0|0:0,0:0:0:0:
112,112,245050,2,0,L|64:112,2,48,2|0|0,0:0|0:0|0:0,0:0:0:0:
368,256,245408,6,0,P|384:224|368:120,1,144,8|0,0:0|0:0,0:0:0:0:
272,128,245765,2,0,L|368:128,1,96,2|0,0:0|0:0,0:0:0:0:
224,256,246122,1,8,0:0:0:0:
160,224,246211,1,0,0:0:0:0:
128,168,246300,1,0,0:0:0:0:
128,112,246390,1,0,0:0:0:0:
224,81,246479,1,2,0:0:0:0:
256,144,246568,1,0,0:0:0:0:
224,192,246658,1,0,0:0:0:0:
160,192,246747,1,0,0:0:0:0:
320,192,246836,6,0,L|336:288,1,96,8|0,0:0|0:0,0:0:0:0:
272,304,247104,1,0,0:0:0:0:
112,304,247193,2,0,L|208:304,1,96,2|0,0:0|0:0,0:0:0:0:
464,224,247550,2,0,P|480:192|464:88,1,144,8|0,0:0|0:0,0:0:0:0:
304,80,247908,1,2,0:0:0:0:
240,80,247997,1,0,0:0:0:0:
400,192,248086,1,0,0:0:0:0:
336,192,248175,1,0,0:0:0:0:
160,192,248265,5,12,0:0:0:0:
256,192,248443,12,0,251122,0:0:0:0:
