osu file format v14

[General]
AudioFilename: audio.mp3
AudioLeadIn: 0
PreviewTime: 50504
Countdown: 0
SampleSet: Soft
StackLeniency: 0.7
Mode: 3
LetterboxInBreaks: 0
SpecialStyle: 0
WidescreenStoryboard: 0

[Editor]
Bookmarks: 7924,20311,32698,51278,63665,76053,79149
DistanceSpacing: 1.4
BeatDivisor: 4
GridSize: 16
TimelineZoom: 1.4

[Metadata]
Title:Akane-gumi Katsudou Nisshi ~U-han~ (TV Size)
TitleUnicode:あかね組活動日誌 ~卯班~ (TV Size)
Artist:Aizawa Saya, Yukimura Eri, Ito Ayasa
ArtistUnicode:会沢紗弥, 幸村恵理, 伊藤彩沙
Creator:Drum-Hitnormal
Version:Hard
Source:くノ一ツバキの胸の内
Tags:in the heart of kunoichi tsubaki no mune no uchi カゲツ Kagetsu ホトトギス Hototogisu ムクゲ Mukuge Team Rabbit anime japanese pop jpop j-pop dudehacker ending ed 11 ML-ysg ninja CloverWorks 株式会社 ANXX-01113
BeatmapID:3672873
BeatmapSetID:1792303

[Difficulty]
HPDrainRate:7.5
CircleSize:4
OverallDifficulty:7.5
ApproachRate:5
SliderMultiplier:1.4
SliderTickRate:1

[Events]
//Background and Video events
0,0,"img_ep11-4.jpg",0,0
Video,0,"ninja.mp4"
//Break Periods
//Storyboard Layer 0 (Background)
//Storyboard Layer 1 (Fail)
//Storyboard Layer 2 (Pass)
//Storyboard Layer 3 (Foreground)
//Storyboard Layer 4 (Overlay)
//Storyboard Sound Samples
Sample,21278,0,"Hat Close.wav",30
Sample,50891,0,"Hat Open.wav",60
Sample,52827,0,"Snare.wav",35
Sample,53601,0,"Snare.wav",35
Sample,53601,0,"Hat Close.wav",50
Sample,53988,0,"Snare.wav",35
Sample,55149,0,"Snare.wav",35
Sample,55923,0,"Snare.wav",35
Sample,56698,0,"Snare.wav",35
Sample,58246,0,"Snare.wav",35
Sample,58633,0,"Snare.wav",35
Sample,59020,0,"Snare.wav",35
Sample,59794,0,"Snare.wav",35
Sample,60182,0,"Snare.wav",20
Sample,60569,0,"Snare.wav",35
Sample,61343,0,"Snare.wav",35
Sample,62117,0,"Tom2.wav",50

[TimingPoints]
7924,387.096774193548,4,2,1,50,1,0
51278,-100,4,2,1,50,0,1
63665,-100,4,2,1,50,0,0

[HitObjects]
64,192,7923,5,0,0:0:0:0:
448,192,7923,1,0,0:0:0:0:
192,192,8117,1,0,0:0:0:0:
320,192,8311,128,0,8698:0:0:0:0:
64,192,8698,128,0,9085:0:0:0:0:
192,192,9085,1,0,0:0:0:0:
320,192,9085,1,0,0:0:0:0:
448,192,9278,1,0,0:0:0:0:
64,192,9472,1,0,0:0:0:0:
192,192,9472,1,0,0:0:0:0:
320,192,9665,1,0,0:0:0:0:
64,192,9859,1,0,0:0:0:0:
192,192,10053,128,0,10440:0:0:0:0:
448,192,10053,1,0,0:0:0:0:
320,192,10440,1,0,0:0:0:0:
192,192,10633,1,0,0:0:0:0:
448,192,10633,1,0,0:0:0:0:
64,192,10827,1,0,0:0:0:0:
192,192,11020,1,0,0:0:0:0:
320,192,11020,1,0,0:0:0:0:
448,192,11214,1,0,0:0:0:0:
320,192,11407,1,0,0:0:0:0:
64,192,11601,1,0,0:0:0:0:
192,192,11601,128,0,11988:0:0:0:0:
448,192,11988,128,0,12375:0:0:0:0:
64,192,12182,1,0,0:0:0:0:
192,192,12375,1,0,0:0:0:0:
64,192,12569,128,0,12956:0:0:0:0:
320,192,12569,1,0,0:0:0:0:
192,192,12762,1,0,0:0:0:0:
448,192,12956,1,0,0:0:0:0:
192,192,13149,1,0,0:0:0:0:
64,192,13343,1,0,0:0:0:0:
320,192,13343,128,0,13730:0:0:0:0:
448,192,13536,1,0,0:0:0:0:
64,192,13730,1,0,0:0:0:0:
192,192,13730,1,0,0:0:0:0:
320,192,13923,1,0,0:0:0:0:
64,192,14117,1,0,0:0:0:0:
448,192,14117,1,0,0:0:0:0:
192,192,14311,1,0,0:0:0:0:
320,192,14504,1,0,0:0:0:0:
64,192,14698,1,0,0:0:0:0:
192,192,14698,1,0,0:0:0:0:
448,192,14891,128,0,15278:0:0:0:0:
64,192,15085,1,0,0:0:0:0:
320,192,15278,128,0,15665:0:0:0:0:
192,192,15472,1,0,0:0:0:0:
64,192,15665,128,0,16053:0:0:0:0:
448,192,15665,1,0,0:0:0:0:
192,192,16053,1,0,0:0:0:0:
320,192,16246,1,0,0:0:0:0:
448,192,16246,128,0,16633:0:0:0:0:
192,192,16633,1,0,0:0:0:0:
64,192,16827,1,0,0:0:0:0:
320,192,16827,1,0,0:0:0:0:
192,192,17020,1,0,0:0:0:0:
64,192,17214,128,0,17601:0:0:0:0:
448,192,17214,1,0,0:0:0:0:
320,192,17601,1,0,0:0:0:0:
192,192,17794,128,0,18182:0:0:0:0:
448,192,17794,1,0,0:0:0:0:
320,192,18182,128,0,18569:0:0:0:0:
448,192,18569,128,0,18762:0:0:0:0:
64,192,18762,128,2,19149:0:0:0:0:
192,192,18762,1,4,0:0:0:0:
320,192,19149,1,8,0:0:0:0:
448,192,19149,1,0,0:0:0:0:
64,192,19343,1,2,0:0:0:0:
192,192,19343,128,0,19730:0:0:0:60:Hat Open.wav
64,192,19730,1,2,0:0:0:0:
448,192,19730,1,0,0:0:0:0:
192,192,19923,1,8,0:0:0:0:
320,192,19923,1,0,0:0:0:50:Tom3.wav
320,192,20117,1,0,0:0:0:25:Tom3.wav
64,192,20311,1,4,0:0:0:0:
192,192,20311,1,2,0:0:0:0:
448,192,20311,1,0,0:0:0:0:
192,192,20698,1,8,0:0:0:0:
320,192,20698,128,0,21085:0:0:0:50:Hat Close.wav
448,192,20891,1,0,0:0:0:30:Hat Close.wav
64,192,21085,128,0,21472:0:0:0:50:Hat Close.wav
192,192,21278,1,2,0:0:0:0:
320,192,21472,1,8,0:0:0:0:
448,192,21472,1,0,0:0:0:50:Hat Close.wav
192,192,21665,1,0,0:0:0:30:Hat Close.wav
64,192,21859,1,2,0:0:0:0:
448,192,21859,1,0,0:0:0:50:Hat Close.wav
320,192,22053,1,0,0:0:0:30:Hat Close.wav
64,192,22246,1,8,0:0:0:0:
192,192,22246,1,0,0:0:0:50:Hat Close.wav
320,192,22440,1,2,0:0:0:0:
448,192,22440,128,0,22827:0:0:0:30:Hat Close.wav
64,192,22827,1,2,0:0:0:0:
192,192,22827,1,0,0:0:0:30:Hat Close.wav
320,192,23020,1,8,0:0:0:0:
448,192,23020,1,0,0:0:0:50:Hat Close.wav
64,192,23214,1,2,0:0:0:0:
192,192,23214,1,0,0:0:0:30:Hat Close.wav
64,192,23407,1,2,0:0:0:0:
448,192,23407,1,0,0:0:0:50:Hat Close.wav
192,192,23601,1,0,0:0:0:30:Hat Close.wav
320,192,23794,1,8,0:0:0:0:
448,192,23794,1,0,0:0:0:50:Hat Close.wav
64,192,23988,128,2,24375:0:0:0:0:
192,192,23988,1,0,0:0:0:0:
320,192,24375,1,2,0:0:0:0:
448,192,24375,1,0,0:0:0:0:
64,192,24569,1,8,0:0:0:0:
192,192,24569,1,0,0:0:0:50:Hat Close.wav
448,192,24762,1,0,0:0:0:30:Hat Close.wav
64,192,24956,1,2,0:0:0:0:
320,192,24956,128,0,25343:0:0:0:50:Hat Close.wav
64,192,25343,1,8,0:0:0:0:
448,192,25343,1,0,0:0:0:50:Hat Close.wav
192,192,25536,1,2,0:0:0:0:
320,192,25536,1,0,0:0:0:0:
192,192,25730,128,2,26117:0:0:0:0:
448,192,25730,1,0,0:0:0:50:Hat Close.wav
64,192,26117,1,8,0:0:0:0:
448,192,26117,1,0,0:0:0:50:Hat Close.wav
320,192,26311,1,0,0:0:0:30:Hat Close.wav
64,192,26504,1,2,0:0:0:0:
192,192,26504,1,0,0:0:0:50:Hat Close.wav
448,192,26698,1,0,0:0:0:30:Hat Close.wav
64,192,26891,1,8,0:0:0:0:
192,192,26891,1,0,0:0:0:50:Hat Close.wav
320,192,27085,1,2,0:0:0:0:
448,192,27085,1,0,0:0:0:0:
192,192,27278,1,0,0:0:0:50:Hat Close.wav
320,192,27472,1,0,0:0:0:0:
64,192,27665,1,8,0:0:0:0:
448,192,27665,1,0,0:0:0:50:Hat Close.wav
192,192,27859,1,2,0:0:0:0:
320,192,27859,1,0,0:0:0:30:Hat Close.wav
192,192,28053,1,2,0:0:0:0:
448,192,28053,128,0,28440:0:0:0:50:Hat Close.wav
64,192,28440,1,8,0:0:0:0:
320,192,28440,1,0,0:0:0:50:Hat Close.wav
64,192,28633,128,2,29020:0:0:0:0:
192,192,28633,1,0,0:0:0:30:Hat Close.wav
320,192,29020,1,0,0:0:0:30:Hat Close.wav
192,192,29214,1,8,0:0:0:0:
448,192,29214,1,0,0:0:0:50:Hat Close.wav
64,192,29407,1,2,0:0:0:0:
320,192,29407,1,0,0:0:0:0:
192,192,29601,1,2,0:0:0:0:
320,192,29601,128,0,29988:0:0:0:50:Hat Close.wav
64,192,29988,1,8,0:0:0:0:
448,192,29988,1,0,0:0:0:50:Hat Close.wav
192,192,30182,128,2,30569:0:0:0:0:
320,192,30182,1,0,0:0:0:0:
320,192,30569,1,2,0:0:0:0:
448,192,30569,1,0,0:0:0:0:
64,192,30762,1,8,0:0:0:0:
192,192,30762,1,0,0:0:0:50:Hat Close.wav
320,192,30956,1,2,0:0:0:0:
448,192,30956,1,0,0:0:0:0:
64,192,31149,1,2,0:0:0:0:
192,192,31149,1,4,0:0:0:0:
448,192,31149,128,0,31343:0:0:0:0:
192,192,31343,1,2,0:0:0:0:
320,192,31343,128,0,31536:0:0:0:0:
64,192,31536,128,8,31730:0:0:0:0:
448,192,31536,1,0,0:0:0:50:Hat Close.wav
192,192,31730,128,2,31923:0:0:0:0:
320,192,31730,1,4,0:0:0:0:
64,192,32117,128,2,32698:0:0:0:0:
448,192,32117,128,0,32698:0:0:0:50:Hat Close.wav
320,192,32311,1,12,0:0:0:0:
192,192,32698,128,4,32891:0:0:0:0:
320,192,32698,128,2,32891:0:0:0:0:
448,192,32891,128,0,33085:0:0:0:0:
64,192,33085,128,8,33278:0:0:0:0:
192,192,33085,128,0,33278:0:0:0:35:Hat Open2.wav
448,192,33278,128,0,33472:0:0:0:0:
64,192,33472,128,8,33665:0:0:0:0:
320,192,33472,128,0,33665:0:0:0:35:Hat Open2.wav
192,192,33665,1,2,0:0:0:0:
192,192,33859,128,8,34053:0:0:0:0:
448,192,33859,128,0,34053:0:0:0:35:Hat Open2.wav
64,192,34053,128,2,34246:0:0:0:0:
320,192,34246,128,10,34440:0:0:0:0:
448,192,34246,128,0,34440:0:0:0:35:Hat Open2.wav
64,192,34440,128,0,34633:0:0:0:0:
192,192,34633,128,8,34827:0:0:0:0:
320,192,34633,128,0,34827:0:0:0:35:Hat Open2.wav
448,192,34827,1,0,0:0:0:0:
64,192,35020,128,8,35407:0:0:0:0:
320,192,35020,128,0,35214:0:0:0:35:Hat Open2.wav
192,192,35214,128,2,35407:0:0:0:0:
320,192,35407,128,8,35794:0:0:0:0:
448,192,35407,128,0,35601:0:0:0:35:Hat Open2.wav
192,192,35601,1,2,0:0:0:0:
64,192,35794,128,10,35988:0:0:0:0:
192,192,35794,128,0,36182:0:0:0:35:Hat Open2.wav
64,192,36182,128,8,36375:0:0:0:0:
448,192,36182,128,0,36375:0:0:0:35:Hat Open2.wav
320,192,36375,128,0,36762:0:0:0:0:
192,192,36569,1,8,0:0:0:0:
448,192,36569,128,0,36762:0:0:0:35:Hat Open2.wav
64,192,36762,128,2,37149:0:0:0:0:
192,192,36956,1,8,0:0:0:0:
320,192,36956,128,0,37149:0:0:0:35:Hat Open2.wav
448,192,37149,128,2,37343:0:0:0:0:
192,192,37343,128,8,37730:0:0:0:0:
320,192,37343,128,0,37536:0:0:0:35:Hat Open2.wav
64,192,37730,128,8,37923:0:0:0:0:
448,192,37730,128,0,37923:0:0:0:35:Hat Open2.wav
192,192,37923,128,0,38117:0:0:0:0:
320,192,37923,128,0,38311:0:0:0:0:
64,192,38117,1,8,0:0:0:0:
448,192,38117,128,0,38311:0:0:0:35:Hat Open2.wav
192,192,38311,128,2,38504:0:0:0:0:
64,192,38504,128,8,38698:0:0:0:0:
320,192,38504,128,0,38698:0:0:0:35:Hat Open2.wav
448,192,38698,128,2,39085:0:0:0:0:
64,192,38891,128,4,39085:0:0:0:0:
192,192,38891,128,8,39085:0:0:0:0:
320,192,39085,128,0,39278:0:0:0:0:
192,192,39278,128,8,39472:0:0:0:0:
448,192,39278,128,0,39472:0:0:0:35:Hat Open2.wav
320,192,39472,128,0,39665:0:0:0:0:
64,192,39665,128,8,39859:0:0:0:0:
448,192,39665,128,0,39859:0:0:0:35:Hat Open2.wav
192,192,39859,1,2,0:0:0:0:
64,192,40053,128,8,40246:0:0:0:0:
320,192,40053,128,0,40246:0:0:0:35:Hat Open2.wav
192,192,40246,128,2,40440:0:0:0:0:
320,192,40440,128,10,40633:0:0:0:0:
448,192,40440,128,0,40633:0:0:0:35:Hat Open2.wav
192,192,40633,128,0,40827:0:0:0:0:
64,192,40827,128,8,41020:0:0:0:0:
448,192,40827,128,0,41020:0:0:0:35:Hat Open2.wav
320,192,41020,1,0,0:0:0:0:
192,192,41214,128,8,41601:0:0:0:0:
320,192,41214,128,0,41407:0:0:0:35:Hat Open2.wav
64,192,41407,128,2,41601:0:0:0:0:
320,192,41601,128,8,41794:0:0:0:0:
448,192,41601,128,0,41988:0:0:0:35:Hat Open2.wav
192,192,41794,1,2,0:0:0:0:
64,192,41988,128,10,42182:0:0:0:0:
192,192,41988,128,0,42182:0:0:0:35:Hat Open2.wav
320,192,42375,128,8,42569:0:0:0:0:
448,192,42375,128,0,42569:0:0:0:35:Hat Open2.wav
192,192,42569,128,0,42762:0:0:0:0:
64,192,42762,128,10,42956:0:0:0:0:
448,192,42762,128,0,42956:0:0:0:35:Hat Open2.wav
320,192,42956,128,0,43149:0:0:0:0:
64,192,43149,128,8,43343:0:0:0:0:
192,192,43149,128,0,43343:0:0:0:35:Hat Open2.wav
448,192,43343,128,0,43536:0:0:0:0:
192,192,43536,128,8,43730:0:0:0:0:
320,192,43536,128,0,43923:0:0:0:35:Hat Open2.wav
64,192,43730,1,2,0:0:0:0:
64,192,43923,128,8,44311:0:0:0:0:
448,192,43923,128,0,44117:0:0:0:35:Hat Open2.wav
192,192,44117,128,2,44311:0:0:0:0:
320,192,44311,128,8,44504:0:0:0:0:
448,192,44311,128,0,44698:0:0:0:35:Hat Open2.wav
64,192,44504,1,8,0:0:0:25:soft-hitclap.wav
192,192,44601,1,8,0:0:0:25:soft-hitclap.wav
64,192,44698,1,8,0:0:0:0:
320,192,44698,1,0,0:0:0:0:
192,192,44891,1,2,0:0:0:0:
320,192,44891,1,0,0:0:0:35:Hat Open2.wav
64,192,45085,128,2,45472:0:0:0:0:
192,192,45085,1,4,0:0:0:0:
448,192,45085,128,0,45278:0:0:0:0:
192,192,45472,128,0,45859:0:0:0:0:
448,192,45472,128,0,45665:0:0:0:0:
320,192,45859,128,2,46246:0:0:0:0:
448,192,45859,128,0,46053:0:0:0:35:Snare.wav
64,192,46246,128,0,46440:0:0:0:0:
192,192,46246,128,0,46633:0:0:0:0:
64,192,46633,128,2,46827:0:0:0:0:
320,192,46633,128,0,47020:0:0:0:35:Snare.wav
64,192,47020,128,0,47214:0:0:0:0:
448,192,47020,128,0,47311:0:0:0:0:
192,192,47311,1,0,0:0:0:35:Snare.wav
64,192,47407,1,2,0:0:0:0:
320,192,47407,1,0,0:0:0:35:Snare.wav
448,192,47407,1,0,0:0:0:0:
64,192,47601,1,8,0:0:0:0:
192,192,47601,1,0,0:0:0:0:
320,192,47601,1,0,0:0:0:0:
192,192,47794,1,8,0:0:0:0:
320,192,47794,1,4,0:0:0:0:
448,192,47794,1,0,0:0:0:0:
64,192,47988,1,0,0:0:0:0:
64,192,48182,1,4,0:0:0:0:
192,192,48182,1,2,0:0:0:0:
448,192,48182,128,0,48569:0:0:0:0:
64,192,48569,1,2,0:0:0:0:
320,192,48569,128,4,48956:0:0:0:0:
64,192,48762,1,0,0:0:0:50:Snare.wav
192,192,48956,128,2,49343:0:0:0:0:
448,192,48956,1,4,0:0:0:0:
320,192,49149,1,0,0:0:0:50:Snare.wav
64,192,49343,128,2,49730:0:0:0:0:
448,192,49343,1,4,0:0:0:0:
192,192,49536,1,0,0:0:0:50:Snare.wav
320,192,49633,1,0,0:0:0:50:Snare.wav
192,192,49730,1,6,0:0:0:0:
448,192,49730,128,0,50504:0:0:0:50:Snare.wav
64,192,49923,1,0,0:0:0:35:Snare.wav
192,192,50020,1,0,0:0:0:35:Snare.wav
320,192,50117,1,0,0:0:0:35:Snare.wav
192,192,50311,1,0,0:0:0:50:Tom2.wav
64,192,50504,1,2,0:0:0:0:
320,192,50601,1,0,0:0:0:35:Snare.wav
192,192,50698,1,0,0:0:0:35:Snare.wav
320,192,50891,1,2,0:0:0:0:
64,192,51085,1,0,0:0:0:50:Tom3.wav
448,192,51085,1,0,0:0:0:0:
64,192,51278,128,2,51859:0:0:0:0:
192,192,51278,1,4,0:0:0:0:
448,192,51278,128,0,51859:0:0:0:0:
192,192,51859,1,0,0:0:0:0:
320,192,51859,128,0,52440:0:0:0:0:
192,192,52053,128,2,52440:0:0:0:0:
448,192,52053,1,0,0:0:0:50:Hat Close.wav
64,192,52440,1,0,0:0:0:50:Hat Close.wav
192,192,52536,1,0,0:0:0:0:
320,192,52633,1,0,0:0:0:0:
448,192,52633,128,0,53214:0:0:0:0:
64,192,52827,128,2,53407:0:0:0:0:
192,192,52827,1,0,0:0:0:50:Hat Close.wav
320,192,53214,1,0,0:0:0:50:Hat Close.wav
192,192,53407,128,0,54182:0:0:0:0:
448,192,53407,128,0,53601:0:0:0:0:
320,192,53601,128,2,53794:0:0:0:0:
64,192,53794,128,0,53988:0:0:0:0:
448,192,53988,128,0,54182:0:0:0:50:Hat Close.wav
320,192,54182,128,0,54375:0:0:0:35:Snare.wav
64,192,54375,128,2,54762:0:0:0:0:
192,192,54375,1,0,0:0:0:50:Hat Close.wav
448,192,54375,128,0,54569:0:0:0:35:Snare.wav
192,192,54762,128,0,54956:0:0:0:50:Hat Close.wav
448,192,54762,128,0,55149:0:0:0:0:
192,192,55149,128,2,55536:0:0:0:0:
320,192,55149,128,0,55343:0:0:0:50:Hat Close.wav
64,192,55536,128,0,55730:0:0:0:50:Hat Close.wav
320,192,55536,128,0,55923:0:0:0:0:
64,192,55923,128,2,56311:0:0:0:0:
448,192,55923,128,0,56311:0:0:0:50:Hat Close.wav
320,192,56311,128,0,56440:0:0:0:50:Hat Close.wav
192,192,56440,128,0,56569:0:0:0:0:
320,192,56569,128,0,56698:0:0:0:0:
64,192,56698,128,2,57472:0:0:0:0:
448,192,56698,128,0,56891:0:0:0:50:Hat Close.wav
192,192,56891,128,0,57085:0:0:0:0:
320,192,57085,128,0,57278:0:0:0:50:Hat Close.wav
448,192,57278,128,0,57472:0:0:0:0:
192,192,57472,128,6,58053:0:0:0:0:
320,192,57472,128,0,58053:0:0:0:35:Snare.wav
448,192,58053,128,0,58827:0:0:0:0:
64,192,58246,1,2,0:0:0:0:
320,192,58246,128,0,58827:0:0:0:50:Hat Close.wav
192,192,58633,1,0,0:0:0:50:Hat Close.wav
64,192,58827,128,0,59407:0:0:0:0:
192,192,59020,128,2,59407:0:0:0:0:
448,192,59020,1,0,0:0:0:50:Hat Close.wav
320,192,59407,1,0,0:0:0:50:Hat Close.wav
448,192,59601,1,0,0:0:0:0:
320,192,59698,1,0,0:0:0:35:Snare.wav
64,192,59794,128,2,59988:0:0:0:0:
192,192,59794,1,0,0:0:0:50:Hat Close.wav
448,192,59988,128,0,60182:0:0:0:0:
192,192,60182,128,0,60375:0:0:0:50:Hat Close.wav
64,192,60375,1,0,0:0:0:20:Snare.wav
192,192,60472,1,0,0:0:0:20:Snare.wav
320,192,60569,1,2,0:0:0:0:
448,192,60569,128,0,61343:0:0:0:50:Hat Close.wav
64,192,60762,128,0,60956:0:0:0:0:
320,192,60956,128,0,61343:0:0:0:50:Hat Close.wav
64,192,61343,1,2,0:0:0:0:
192,192,61343,128,0,62117:0:0:0:50:Hat Close.wav
448,192,61730,128,0,61923:0:0:0:50:Hat Close.wav
64,192,61923,128,0,62117:0:0:0:0:
320,192,62117,128,2,62891:0:0:0:0:
448,192,62117,128,0,62504:0:0:0:50:Hat Close.wav
192,192,62504,128,0,62601:0:0:0:50:Hat Close.wav
192,192,62698,128,0,62891:0:0:0:0:
64,192,62891,128,2,63085:0:0:0:0:
448,192,62891,128,0,63665:0:0:0:50:Tom2.wav
192,192,63085,128,0,63278:0:0:0:35:Snare.wav
320,192,63278,128,8,63472:0:0:0:0:
192,192,63472,128,0,63665:0:0:0:50:Tom2.wav
64,192,63665,128,4,64246:0:0:0:0:
320,192,63665,1,2,0:0:0:0:
192,192,64053,1,10,0:0:0:0:
320,192,64053,1,0,0:0:0:60:Hat Open.wav
448,192,64246,128,0,64440:0:0:0:0:
64,192,64440,128,2,65020:0:0:0:0:
320,192,64440,1,0,0:0:0:60:Hat Open.wav
448,192,64633,1,0,0:0:0:0:
192,192,64827,1,10,0:0:0:0:
320,192,64827,1,0,0:0:0:60:Hat Open.wav
448,192,65020,128,0,65214:0:0:0:0:
64,192,65214,1,2,0:0:0:0:
320,192,65214,128,0,65601:0:0:0:60:Hat Open.wav
192,192,65407,1,0,0:0:0:0:
64,192,65601,1,10,0:0:0:0:
448,192,65601,1,0,0:0:0:60:Hat Open.wav
448,192,65794,1,0,0:0:0:0:
64,192,65988,1,2,0:0:0:0:
192,192,65988,128,0,66182:0:0:0:60:Hat Open.wav
448,192,66182,128,0,66375:0:0:0:0:
64,192,66375,128,10,66569:0:0:0:0:
192,192,66375,1,0,0:0:0:60:Hat Open.wav
320,192,66569,128,0,66762:0:0:0:0:
64,192,66762,1,2,0:0:0:0:
448,192,66762,128,0,67343:0:0:0:60:Hat Open.wav
192,192,67149,1,10,0:0:0:0:
320,192,67149,1,0,0:0:0:60:Hat Open.wav
64,192,67343,128,0,67536:0:0:0:0:
192,192,67536,1,2,0:0:0:0:
448,192,67536,128,0,68117:0:0:0:60:Hat Open.wav
64,192,67730,1,0,0:0:0:0:
192,192,67923,1,10,0:0:0:0:
320,192,67923,1,0,0:0:0:60:Hat Open.wav
64,192,68117,128,0,68311:0:0:0:0:
192,192,68311,128,2,68698:0:0:0:0:
448,192,68311,1,0,0:0:0:60:Hat Open.wav
320,192,68504,1,0,0:0:0:0:
64,192,68698,1,10,0:0:0:0:
448,192,68698,1,0,0:0:0:60:Hat Open.wav
64,192,68891,1,0,0:0:0:0:
320,192,69085,128,2,69278:0:0:0:0:
448,192,69085,1,4,0:0:0:0:
64,192,69278,128,0,69472:0:0:0:40:Snare.wav
320,192,69472,1,2,0:0:0:0:
448,192,69472,128,4,69665:0:0:0:0:
192,192,69665,128,0,70053:0:0:0:40:Snare.wav
64,192,69859,1,2,0:0:0:0:
448,192,69859,1,4,0:0:0:0:
320,192,70053,1,0,0:0:0:0:
64,192,70246,1,10,0:0:0:0:
320,192,70246,128,0,70633:0:0:0:60:Hat Open.wav
192,192,70633,1,2,0:0:0:0:
448,192,70633,128,0,71020:0:0:0:60:Hat Open.wav
320,192,70827,1,0,0:0:0:0:
64,192,71020,1,10,0:0:0:0:
192,192,71020,1,0,0:0:0:60:Hat Open.wav
64,192,71214,128,0,71601:0:0:0:0:
192,192,71407,1,2,0:0:0:0:
448,192,71407,1,0,0:0:0:60:Hat Open.wav
320,192,71601,128,0,71794:0:0:0:0:
64,192,71794,1,10,0:0:0:0:
192,192,71794,128,0,71988:0:0:0:60:Hat Open.wav
448,192,71988,128,0,72182:0:0:0:0:
64,192,72182,128,2,72375:0:0:0:0:
320,192,72182,1,0,0:0:0:60:Hat Open.wav
192,192,72375,128,0,72569:0:0:0:0:
320,192,72569,128,10,72762:0:0:0:0:
448,192,72569,1,0,0:0:0:60:Hat Open.wav
64,192,72762,1,2,0:0:0:0:
192,192,72762,1,4,0:0:0:0:
448,192,72762,128,0,74504:0:0:0:0:
64,192,73149,1,2,0:0:0:0:
192,192,73149,1,0,0:0:0:0:
64,192,73343,1,8,0:0:0:0:
320,192,73343,1,0,0:0:0:60:Hat Open.wav
192,192,73536,128,4,74117:0:0:0:0:
320,192,73536,1,2,0:0:0:0:
64,192,74117,1,8,0:0:0:0:
320,192,74117,1,0,0:0:0:60:Hat Open.wav
320,192,74311,128,0,74504:0:0:0:0:
64,192,74504,128,2,74891:0:0:0:0:
192,192,74504,1,4,0:0:0:0:
320,192,74698,1,8,0:0:0:0:
192,192,74891,1,8,0:0:0:0:
448,192,74891,1,2,0:0:0:0:
320,192,75085,1,8,0:0:0:0:
64,192,75278,1,4,0:0:0:0:
320,192,75278,1,2,0:0:0:0:
448,192,75278,1,0,0:0:0:0:
192,192,75472,1,8,0:0:0:0:
64,192,75665,1,8,0:0:0:0:
448,192,75665,1,2,0:0:0:0:
320,192,75859,1,0,0:0:0:0:
64,192,76053,1,2,0:0:0:0:
192,192,76053,1,4,0:0:0:0:
448,192,76053,128,0,76246:0:0:0:0:
192,192,76440,1,0,0:0:0:0:
448,192,76440,128,0,76633:0:0:0:0:
64,192,76633,1,0,0:0:0:40:Snare.wav
192,192,76730,1,0,0:0:0:40:Snare.wav
320,192,76827,1,2,0:0:0:0:
448,192,76827,128,0,77407:0:0:0:40:Snare.wav
64,192,77020,1,0,0:0:0:0:
320,192,77214,1,0,0:0:0:40:Snare.wav
192,192,77407,1,0,0:0:0:0:
320,192,77504,1,0,0:0:0:40:Snare.wav
64,192,77601,128,2,77794:0:0:0:0:
448,192,77601,1,0,0:0:0:40:Snare.wav
192,192,77794,1,0,0:0:0:0:
64,192,77988,128,0,78182:0:0:0:0:
320,192,77988,1,0,0:0:0:0:
448,192,78278,1,0,0:0:0:40:Snare.wav
64,192,78375,1,2,0:0:0:0:
192,192,78375,128,0,79149:0:0:0:40:Snare.wav
448,192,78569,1,0,0:0:0:0:
320,192,78762,1,0,0:0:0:40:Snare.wav
64,192,78956,1,0,0:0:0:0:
320,192,79149,1,2,0:0:0:0:
448,192,79149,128,4,79730:0:0:0:0:
64,192,79536,1,0,0:0:0:40:Snare.wav
64,192,79730,128,4,80311:0:0:0:0:
192,192,79730,1,2,0:0:0:0:
320,192,80311,1,0,0:0:0:0:
64,192,80504,1,4,0:0:0:0:
320,192,80504,128,2,81278:0:0:0:0:
448,192,80891,1,0,0:0:0:0:
192,192,81085,1,0,0:0:0:0:
64,192,81278,1,2,0:0:0:0:
192,192,81278,1,4,0:0:0:0:
448,192,81278,1,0,0:0:0:0:
320,192,81665,128,0,81859:0:0:0:0:
192,192,81859,128,0,82053:0:0:0:0:
64,192,82053,128,0,83988:0:0:0:0:
448,192,82827,128,4,83214:0:0:0:0:
320,192,83214,128,0,83601:0:0:0:0:
192,192,83601,128,0,83988:0:0:0:0:
320,192,83988,128,0,85343:0:0:0:0:
448,192,83988,128,0,85149:0:0:0:0:
64,192,85343,1,0,0:0:0:0:
320,192,85536,128,0,87278:0:0:0:0:
192,192,85730,128,0,87423:0:0:0:0:
64,192,87423,1,0,0:0:0:0:
320,192,87472,1,0,0:0:0:0:
448,192,87520,1,0,0:0:0:0:
