osu file format v14

[General]
AudioFilename: audio.mp3
AudioLeadIn: 0
PreviewTime: 50504
Countdown: 0
SampleSet: Soft
StackLeniency: 0.7
Mode: 3
LetterboxInBreaks: 0
SpecialStyle: 0
WidescreenStoryboard: 1

[Editor]
Bookmarks: 7924,20311,32698,51278,63665,76053,79149
DistanceSpacing: 1.4
BeatDivisor: 2
GridSize: 16
TimelineZoom: 0.8999999

[Metadata]
Title:Akane-gumi Katsudou Nisshi ~U-han~ (TV Size)
TitleUnicode:あかね組活動日誌 ~卯班~ (TV Size)
Artist:Aizawa Saya, Yukimura Eri, Ito Ayasa
ArtistUnicode:会沢紗弥, 幸村恵理, 伊藤彩沙
Creator:Drum-Hitnormal
Version:Easy
Source:くノ一ツバキの胸の内
Tags:in the heart of kunoichi tsubaki no mune no uchi カゲツ Kagetsu ホトトギス Hototogisu ムクゲ Mukuge Team Rabbit anime japanese pop jpop j-pop dudehacker ending ed 11 ML-ysg ninja CloverWorks 株式会社 ANXX-01113
BeatmapID:3679403
BeatmapSetID:1792303

[Difficulty]
HPDrainRate:6.5
CircleSize:4
OverallDifficulty:6.5
ApproachRate:5
SliderMultiplier:1.4
SliderTickRate:1

[Events]
//Background and Video events
0,0,"img_ep11-4.jpg",0,0
Video,0,"ninja.mp4"
//Break Periods
//Storyboard Layer 0 (Background)
//Storyboard Layer 1 (Fail)
//Storyboard Layer 2 (Pass)
//Storyboard Layer 3 (Foreground)
//Storyboard Layer 4 (Overlay)
//Storyboard Sound Samples
Sample,19343,0,"Hat Open.wav",60
Sample,20698,0,"Hat Close.wav",50
Sample,21278,0,"Hat Close.wav",30
Sample,21472,0,"Hat Close.wav",50
Sample,21859,0,"Hat Close.wav",50
Sample,22246,0,"Hat Close.wav",50
Sample,22440,0,"Hat Close.wav",30
Sample,22827,0,"Hat Close.wav",30
Sample,23020,0,"Hat Close.wav",50
Sample,23407,0,"Hat Close.wav",50
Sample,23794,0,"Hat Close.wav",50
Sample,24569,0,"Hat Close.wav",50
Sample,24956,0,"Hat Close.wav",50
Sample,25343,0,"Hat Close.wav",50
Sample,25730,0,"Hat Close.wav",50
Sample,26117,0,"Hat Close.wav",50
Sample,26504,0,"Hat Close.wav",50
Sample,26891,0,"Hat Close.wav",50
Sample,27665,0,"Hat Close.wav",50
Sample,27859,0,"Hat Close.wav",30
Sample,28053,0,"Hat Close.wav",50
Sample,28440,0,"Hat Close.wav",50
Sample,28633,0,"Hat Close.wav",30
Sample,29214,0,"Hat Close.wav",50
Sample,29601,0,"Hat Close.wav",50
Sample,29988,0,"Hat Close.wav",50
Sample,32117,0,"Hat Close.wav",50
Sample,33085,0,"Hat Open2.wav",35
Sample,33472,0,"Hat Open2.wav",35
Sample,33859,0,"Hat Open2.wav",35
Sample,34246,0,"Hat Open2.wav",35
Sample,34633,0,"Hat Open2.wav",35
Sample,35020,0,"Hat Open2.wav",35
Sample,35407,0,"Hat Open2.wav",35
Sample,35794,0,"Hat Open2.wav",35
Sample,36182,0,"Hat Open2.wav",35
Sample,36569,0,"Hat Open2.wav",35
Sample,36956,0,"Hat Open2.wav",35
Sample,37343,0,"Hat Open2.wav",35
Sample,37730,0,"Hat Open2.wav",35
Sample,38117,0,"Hat Open2.wav",35
Sample,38504,0,"Hat Open2.wav",35
Sample,39278,0,"Hat Open2.wav",35
Sample,39665,0,"Hat Open2.wav",35
Sample,40053,0,"Hat Open2.wav",35
Sample,40440,0,"Hat Open2.wav",35
Sample,40827,0,"Hat Open2.wav",35
Sample,41214,0,"Hat Open2.wav",35
Sample,41601,0,"Hat Open2.wav",35
Sample,41988,0,"Hat Open2.wav",35
Sample,42375,0,"Hat Open2.wav",35
Sample,42762,0,"Hat Open2.wav",35
Sample,43149,0,"Hat Open2.wav",35
Sample,43536,0,"Hat Open2.wav",35
Sample,43923,0,"Hat Open2.wav",35
Sample,44311,0,"Hat Open2.wav",35
Sample,44891,0,"Hat Open2.wav",35
Sample,45859,0,"Snare.wav",35
Sample,46633,0,"Snare.wav",35
Sample,47407,0,"Snare.wav",35
Sample,49730,0,"Snare.wav",50
Sample,50891,0,"Hat Open.wav",60
Sample,52053,0,"Hat Close.wav",50
Sample,52827,0,"Hat Close.wav",50
Sample,52827,0,"Snare.wav",35
Sample,53601,0,"Hat Close.wav",50
Sample,53601,0,"Snare.wav",35
Sample,53988,0,"Snare.wav",35
Sample,54375,0,"Hat Close.wav",50
Sample,54375,0,"Snare.wav",35
Sample,55149,0,"Hat Close.wav",50
Sample,55149,0,"Snare.wav",35
Sample,55923,0,"Hat Close.wav",50
Sample,55923,0,"Snare.wav",35
Sample,56698,0,"Hat Close.wav",50
Sample,56698,0,"Snare.wav",35
Sample,58246,0,"Hat Close.wav",50
Sample,58246,0,"Snare.wav",35
Sample,59020,0,"Hat Close.wav",50
Sample,59020,0,"Snare.wav",35
Sample,59794,0,"Hat Close.wav",50
Sample,59794,0,"Snare.wav",35
Sample,60182,0,"Snare.wav",20
Sample,60569,0,"Hat Close.wav",50
Sample,60569,0,"Snare.wav",35
Sample,61343,0,"Hat Close.wav",50
Sample,61343,0,"Snare.wav",35
Sample,62117,0,"Hat Close.wav",50
Sample,62117,0,"Tom2.wav",50
Sample,62891,0,"Tom2.wav",50
Sample,64053,0,"Hat Open.wav",60
Sample,64440,0,"Hat Open.wav",60
Sample,64827,0,"Hat Open.wav",60
Sample,65214,0,"Hat Open.wav",60
Sample,65601,0,"Hat Open.wav",60
Sample,65988,0,"Hat Open.wav",60
Sample,66375,0,"Hat Open.wav",60
Sample,66762,0,"Hat Open.wav",60
Sample,67149,0,"Hat Open.wav",60
Sample,67536,0,"Hat Open.wav",60
Sample,67923,0,"Hat Open.wav",60
Sample,68311,0,"Hat Open.wav",60
Sample,68698,0,"Hat Open.wav",60
Sample,70246,0,"Hat Open.wav",60
Sample,70633,0,"Hat Open.wav",60
Sample,71020,0,"Hat Open.wav",60
Sample,71407,0,"Hat Open.wav",60
Sample,71794,0,"Hat Open.wav",60
Sample,72182,0,"Hat Open.wav",60
Sample,72569,0,"Hat Open.wav",60
Sample,73343,0,"Hat Open.wav",60
Sample,74117,0,"Hat Open.wav",60
Sample,76827,0,"Snare.wav",40
Sample,77601,0,"Snare.wav",40
Sample,78375,0,"Snare.wav",40

[TimingPoints]
7924,387.096774193548,4,2,1,50,1,0
51278,-100.0,4,2,1,50,0,1
63665,-100.0,4,2,1,50,0,0

[HitObjects]
64,192,7923,1,0,0:0:0:0:
448,192,8311,128,0,8698:0:0:0:0:
192,192,8698,128,0,9085:0:0:0:0:
320,192,9085,1,0,0:0:0:0:
64,192,9472,128,0,10053:0:0:0:0:
448,192,10053,128,0,10633:0:0:0:0:
192,192,10633,1,0,0:0:0:0:
320,192,11020,128,0,11601:0:0:0:0:
64,192,11601,128,0,12569:0:0:0:0:
448,192,12569,128,0,12956:0:0:0:0:
320,192,12956,128,0,13343:0:0:0:0:
192,192,13343,128,0,13730:0:0:0:0:
64,192,13730,128,0,14117:0:0:0:0:
448,192,14117,128,0,14698:0:0:0:0:
64,192,14698,128,0,15278:0:0:0:0:
320,192,15278,1,0,0:0:0:0:
192,192,15665,128,0,16246:0:0:0:0:
448,192,16246,128,0,16827:0:0:0:0:
64,192,16827,1,0,0:0:0:0:
320,192,17214,128,0,17794:0:0:0:0:
192,192,17794,128,0,18762:0:0:0:0:
320,192,18762,1,2,0:0:0:0:
448,192,18762,1,4,0:0:0:0:
64,192,19149,1,8,0:0:0:0:
448,192,19343,1,2,0:0:0:0:
320,192,19730,128,2,20311:0:0:0:0:
64,192,20311,1,4,0:0:0:0:
448,192,20311,1,2,0:0:0:0:
192,192,20698,1,8,0:0:0:0:
320,192,21085,1,0,0:0:0:50:Hat Close.wav
192,192,21278,1,2,0:0:0:0:
448,192,21472,1,8,0:0:0:0:
64,192,21859,1,2,0:0:0:0:
320,192,22246,1,8,0:0:0:0:
192,192,22440,1,2,0:0:0:0:
192,192,22827,1,2,0:0:0:0:
448,192,23020,1,8,0:0:0:0:
64,192,23407,1,2,0:0:0:0:
320,192,23794,1,8,0:0:0:0:
192,192,23988,1,2,0:0:0:0:
192,192,24375,1,2,0:0:0:0:
448,192,24569,1,8,0:0:0:0:
64,192,24956,1,2,0:0:0:0:
320,192,25343,1,8,0:0:0:0:
192,192,25536,1,2,0:0:0:0:
448,192,25730,1,2,0:0:0:0:
64,192,26117,1,8,0:0:0:0:
320,192,26504,1,2,0:0:0:0:
192,192,26891,1,8,0:0:0:0:
448,192,27085,1,2,0:0:0:0:
320,192,27665,1,8,0:0:0:0:
64,192,27859,1,2,0:0:0:0:
448,192,28053,1,2,0:0:0:0:
192,192,28440,1,8,0:0:0:0:
320,192,28633,1,2,0:0:0:0:
64,192,29214,1,8,0:0:0:0:
192,192,29407,1,2,0:0:0:0:
448,192,29601,1,2,0:0:0:0:
320,192,29988,1,8,0:0:0:0:
192,192,30182,1,2,0:0:0:0:
320,192,30569,1,2,0:0:0:0:
448,192,30956,1,2,0:0:0:0:
64,192,31149,128,2,31730:0:0:0:0:
192,192,31149,1,4,0:0:0:0:
448,192,31730,1,6,0:0:0:0:
192,192,32117,128,2,32698:0:0:0:0:
320,192,32698,1,4,0:0:0:0:
448,192,32698,1,2,0:0:0:0:
320,192,33085,1,8,0:0:0:0:
64,192,33472,1,8,0:0:0:0:
64,192,33859,1,8,0:0:0:0:
448,192,34246,1,10,0:0:0:0:
448,192,34633,1,8,0:0:0:0:
192,192,35020,1,8,0:0:0:0:
192,192,35407,1,8,0:0:0:0:
320,192,35794,1,10,0:0:0:0:
320,192,36182,1,8,0:0:0:0:
448,192,36569,1,8,0:0:0:0:
448,192,36956,1,8,0:0:0:0:
64,192,37343,1,8,0:0:0:0:
64,192,37730,1,8,0:0:0:0:
192,192,38117,1,8,0:0:0:0:
192,192,38504,1,8,0:0:0:0:
320,192,38891,1,12,0:0:0:0:
320,192,39278,1,8,0:0:0:0:
64,192,39665,1,8,0:0:0:0:
64,192,40053,1,8,0:0:0:0:
448,192,40440,1,10,0:0:0:0:
448,192,40827,1,8,0:0:0:0:
192,192,41214,1,8,0:0:0:0:
192,192,41601,1,8,0:0:0:0:
64,192,41988,1,10,0:0:0:0:
64,192,42375,1,8,0:0:0:0:
320,192,42762,1,10,0:0:0:0:
320,192,43149,1,8,0:0:0:0:
192,192,43536,1,8,0:0:0:0:
192,192,43923,1,8,0:0:0:0:
64,192,44311,1,8,0:0:0:0:
192,192,44504,1,8,0:0:0:25:soft-hitclap.wav
448,192,44698,1,8,0:0:0:0:
320,192,44891,1,2,0:0:0:0:
64,192,45085,1,2,0:0:0:0:
192,192,45085,128,4,45472:0:0:0:0:
320,192,45472,128,0,45859:0:0:0:0:
448,192,45859,128,2,46246:0:0:0:0:
64,192,46246,128,0,46633:0:0:0:0:
192,192,46633,128,2,47020:0:0:0:0:
320,192,47020,128,0,47407:0:0:0:0:
64,192,47407,1,2,0:0:0:0:
448,192,47601,1,8,0:0:0:0:
192,192,47794,128,12,48182:0:0:0:0:
448,192,48182,1,6,0:0:0:0:
320,192,48569,1,6,0:0:0:0:
192,192,48956,1,6,0:0:0:0:
64,192,49343,1,6,0:0:0:0:
448,192,49730,128,6,50504:0:0:0:0:
192,192,50504,128,2,50891:0:0:0:0:
320,192,50891,128,2,51278:0:0:0:0:
64,192,51278,1,2,0:0:0:0:
448,192,51278,128,4,51859:0:0:0:0:
320,192,51859,1,0,0:0:0:0:
64,192,52053,128,2,52633:0:0:0:0:
192,192,52633,1,0,0:0:0:0:
448,192,52827,128,2,53407:0:0:0:0:
64,192,53407,1,0,0:0:0:0:
192,192,53601,128,2,53988:0:0:0:0:
320,192,53988,128,0,54375:0:0:0:50:Hat Close.wav
64,192,54375,128,2,54762:0:0:0:0:
192,192,54762,128,0,55149:0:0:0:50:Hat Close.wav
448,192,55149,128,2,55536:0:0:0:0:
320,192,55536,128,0,55923:0:0:0:50:Hat Close.wav
192,192,55923,128,2,56311:0:0:0:0:
64,192,56698,128,2,57085:0:0:0:0:
320,192,57085,128,0,57472:0:0:0:50:Hat Close.wav
64,192,57472,1,6,0:0:0:0:
192,192,57472,128,0,58053:0:0:0:35:Snare.wav
448,192,58053,1,0,0:0:0:0:
64,192,58246,128,2,58827:0:0:0:0:
192,192,58827,1,0,0:0:0:0:
448,192,59020,128,2,59601:0:0:0:0:
64,192,59601,1,0,0:0:0:0:
192,192,59794,128,2,60182:0:0:0:0:
320,192,60182,128,0,60569:0:0:0:50:Hat Close.wav
64,192,60569,128,2,61343:0:0:0:0:
192,192,61343,128,2,62117:0:0:0:0:
320,192,62117,128,2,62891:0:0:0:0:
448,192,62891,128,2,63665:0:0:0:0:
64,192,63665,128,4,64053:0:0:0:0:
192,192,63665,1,2,0:0:0:0:
320,192,64053,1,10,0:0:0:0:
64,192,64440,128,2,64827:0:0:0:0:
320,192,64827,1,10,0:0:0:0:
64,192,65214,128,2,65601:0:0:0:0:
320,192,65601,1,10,0:0:0:0:
192,192,65988,128,2,66375:0:0:0:0:
320,192,66375,128,10,66762:0:0:0:0:
448,192,66762,128,2,67149:0:0:0:0:
64,192,67149,1,10,0:0:0:0:
448,192,67536,128,2,67923:0:0:0:0:
64,192,67923,1,10,0:0:0:0:
448,192,68311,128,2,68698:0:0:0:0:
64,192,68698,1,10,0:0:0:0:
192,192,69085,128,6,69472:0:0:0:0:
320,192,69472,128,6,69859:0:0:0:0:
64,192,69859,1,6,0:0:0:0:
192,192,70246,1,10,0:0:0:0:
320,192,70633,1,2,0:0:0:0:
64,192,71020,1,10,0:0:0:0:
448,192,71407,1,2,0:0:0:0:
320,192,71794,1,10,0:0:0:0:
192,192,72182,1,2,0:0:0:0:
320,192,72569,1,10,0:0:0:0:
64,192,72762,1,2,0:0:0:0:
192,192,72762,1,4,0:0:0:0:
64,192,73149,1,2,0:0:0:0:
448,192,73343,1,8,0:0:0:0:
192,192,73536,128,6,74117:0:0:0:0:
320,192,74117,1,8,0:0:0:0:
64,192,74311,1,0,0:0:0:0:
448,192,74504,128,6,74891:0:0:0:0:
192,192,74891,1,10,0:0:0:0:
64,192,75085,1,8,0:0:0:0:
320,192,75278,128,6,75665:0:0:0:0:
192,192,75665,128,10,76053:0:0:0:0:
320,192,76053,1,6,0:0:0:0:
320,192,76440,1,0,0:0:0:0:
448,192,76827,128,2,77601:0:0:0:0:
192,192,77601,1,2,0:0:0:0:
192,192,77988,1,0,0:0:0:0:
320,192,78375,128,2,79149:0:0:0:0:
448,192,79149,128,6,79730:0:0:0:0:
64,192,79730,128,6,80504:0:0:0:0:
192,192,80504,128,6,81278:0:0:0:0:
320,192,81278,1,2,0:0:0:0:
448,192,81278,1,4,0:0:0:0:
64,192,82827,1,4,0:0:0:0:
320,192,83214,1,0,0:0:0:0:
192,192,83601,1,0,0:0:0:0:
448,192,83988,128,0,85343:0:0:0:0:
64,192,85343,1,0,0:0:0:0:
192,192,85536,128,0,87472:0:0:0:0:
