osu file format v14

[General]
AudioFilename: Aiyru_-_Station.ogg
AudioLeadIn: 0
PreviewTime: 90279
Countdown: 0
SampleSet: Soft
StackLeniency: 0.7
Mode: 3
LetterboxInBreaks: 0
SpecialStyle: 0
WidescreenStoryboard: 1

[Editor]
Bookmarks: 2736,13770,24804,35839,46873,57908,68942,79977,91011,102046,113080,124115
DistanceSpacing: 1.5
BeatDivisor: 4
GridSize: 4
TimelineZoom: 2.05

[Metadata]
Title:Station
TitleUnicode:Station
Artist:Aiyru
ArtistUnicode:Aiyru
Creator:FAMoss
Version:Hard
Source:
Tags:electronic dance music edm instrumental drum and bass dnb
BeatmapID:3676944
BeatmapSetID:1794071

[Difficulty]
HPDrainRate:8
CircleSize:4
OverallDifficulty:8
ApproachRate:5
SliderMultiplier:1.4
SliderTickRate:1

[Events]
//Background and Video events
0,0,"Background.jpg",0,0
//Break Periods
//Storyboard Layer 0 (Background)
//Storyboard Layer 1 (Fail)
//Storyboard Layer 2 (Pass)
//Storyboard Layer 3 (Foreground)
//Storyboard Layer 4 (Overlay)
//Storyboard Sound Samples
Sample,23986,0,"snare17.wav",70
Sample,24072,0,"snare17.wav",70
Sample,85149,0,"clap07.wav",70

[TimingPoints]
2736,344.827586206897,4,2,1,60,1,0
91011,-100,4,2,1,60,0,1
100667,-100,4,2,1,60,0,0
102046,-100,4,2,1,60,0,1
113080,-100,4,2,1,50,0,0
118598,-100,4,2,1,40,0,0

[HitObjects]
64,192,2736,5,2,0:0:0:0:
192,192,2736,1,4,0:0:0:0:
448,192,2736,1,0,0:0:0:0:
320,192,2908,1,0,0:0:0:0:
192,192,2994,1,0,0:0:0:0:
64,192,3080,1,2,0:0:0:0:
448,192,3080,1,8,0:0:0:0:
320,192,3167,1,0,0:0:0:0:
192,192,3253,1,0,0:0:0:0:
64,192,3339,1,0,0:0:0:0:
320,192,3425,1,2,0:0:0:0:
448,192,3425,1,0,0:0:0:0:
192,192,3511,1,0,0:0:0:0:
64,192,3598,1,0,0:0:0:0:
320,192,3684,1,0,0:0:0:0:
64,192,3770,1,2,0:0:0:0:
448,192,3770,1,8,0:0:0:0:
192,192,3856,1,0,0:0:0:0:
320,192,3942,1,0,0:0:0:0:
448,192,4029,1,0,0:0:0:0:
64,192,4115,1,2,0:0:0:0:
192,192,4115,1,0,0:0:0:0:
320,192,4287,1,0,0:0:0:0:
192,192,4373,1,0,0:0:0:0:
64,192,4460,1,2,0:0:0:0:
448,192,4460,1,8,0:0:0:0:
320,192,4546,1,0,0:0:0:0:
64,192,4632,1,0,0:0:0:0:
192,192,4718,1,0,0:0:0:0:
320,192,4804,1,2,0:0:0:0:
448,192,4804,1,0,0:0:0:0:
192,192,4891,1,0,0:0:0:0:
64,192,4977,1,0,0:0:0:0:
320,192,5063,1,0,0:0:0:0:
64,192,5149,1,2,0:0:0:0:
448,192,5149,1,8,0:0:0:0:
192,192,5236,1,0,0:0:0:0:
320,192,5322,1,0,0:0:0:0:
192,192,5408,1,0,0:0:0:0:
320,192,5494,1,2,0:0:0:0:
448,192,5494,1,0,0:0:0:0:
192,192,5667,1,0,0:0:0:0:
320,192,5753,1,0,0:0:0:0:
64,192,5839,1,8,0:0:0:0:
448,192,5839,1,2,0:0:0:0:
192,192,5925,1,0,0:0:0:0:
320,192,6011,1,0,0:0:0:0:
448,192,6098,1,0,0:0:0:0:
64,192,6184,1,2,0:0:0:0:
192,192,6184,1,0,0:0:0:0:
320,192,6270,1,0,0:0:0:0:
448,192,6356,1,0,0:0:0:0:
192,192,6442,1,0,0:0:0:0:
64,192,6529,1,8,0:0:0:0:
448,192,6529,1,2,0:0:0:0:
320,192,6615,1,0,0:0:0:0:
192,192,6701,1,0,0:0:0:0:
64,192,6787,1,0,0:0:0:0:
320,192,6873,1,2,0:0:0:0:
448,192,6873,1,0,0:0:0:0:
192,192,7046,1,0,0:0:0:0:
320,192,7132,1,0,0:0:0:0:
64,192,7218,1,2,0:0:0:0:
448,192,7218,1,8,0:0:0:0:
192,192,7304,1,0,0:0:0:0:
448,192,7391,1,0,0:0:0:0:
320,192,7477,1,0,0:0:0:0:
64,192,7563,1,2,0:0:0:0:
192,192,7563,1,0,0:0:0:0:
320,192,7649,1,0,0:0:0:0:
448,192,7736,1,0,0:0:0:0:
192,192,7822,1,0,0:0:0:0:
64,192,7908,1,2,0:0:0:0:
448,192,7908,1,8,0:0:0:0:
320,192,7994,1,0,0:0:0:0:
192,192,8080,1,0,0:0:0:0:
320,192,8167,1,0,0:0:0:0:
64,192,8253,1,2,0:0:0:0:
192,192,8253,1,0,0:0:0:0:
320,192,8425,1,0,0:0:0:0:
192,192,8511,1,0,0:0:0:0:
64,192,8598,1,8,0:0:0:0:
448,192,8598,1,2,0:0:0:0:
320,192,8684,1,0,0:0:0:0:
192,192,8770,1,0,0:0:0:0:
64,192,8856,1,0,0:0:0:0:
320,192,8942,1,2,0:0:0:0:
448,192,8942,1,0,0:0:0:0:
192,192,9029,1,0,0:0:0:0:
64,192,9115,1,0,0:0:0:0:
320,192,9201,1,0,0:0:0:0:
64,192,9287,1,8,0:0:0:0:
448,192,9287,1,2,0:0:0:0:
192,192,9373,1,0,0:0:0:0:
320,192,9460,1,0,0:0:0:0:
448,192,9546,1,0,0:0:0:0:
64,192,9632,1,2,0:0:0:0:
192,192,9632,1,0,0:0:0:0:
320,192,9804,1,0,0:0:0:0:
192,192,9891,1,0,0:0:0:0:
64,192,9977,1,2,0:0:0:0:
448,192,9977,1,8,0:0:0:0:
320,192,10063,1,0,0:0:0:0:
64,192,10149,1,0,0:0:0:0:
192,192,10236,1,0,0:0:0:0:
320,192,10322,1,2,0:0:0:0:
448,192,10322,1,0,0:0:0:0:
192,192,10408,1,0,0:0:0:0:
64,192,10494,1,0,0:0:0:0:
320,192,10580,1,0,0:0:0:0:
64,192,10667,1,2,0:0:0:0:
448,192,10667,1,8,0:0:0:0:
192,192,10753,1,0,0:0:0:0:
320,192,10839,1,0,0:0:0:0:
192,192,10925,1,0,0:0:0:0:
320,192,11011,1,2,0:0:0:0:
448,192,11011,1,0,0:0:0:0:
192,192,11184,1,0,0:0:0:0:
320,192,11270,1,0,0:0:0:0:
64,192,11356,1,8,0:0:0:0:
448,192,11356,1,2,0:0:0:0:
192,192,11442,1,0,0:0:0:0:
320,192,11529,1,0,0:0:0:0:
448,192,11615,1,0,0:0:0:0:
64,192,11701,1,2,0:0:0:0:
192,192,11701,1,0,0:0:0:0:
320,192,11787,1,0,0:0:0:0:
448,192,11873,1,0,0:0:0:0:
192,192,11960,1,0,0:0:0:0:
64,192,12046,1,8,0:0:0:0:
448,192,12046,1,2,0:0:0:0:
320,192,12132,1,0,0:0:0:0:
192,192,12218,1,0,0:0:0:0:
64,192,12304,1,0,0:0:0:0:
320,192,12391,1,2,0:0:0:0:
448,192,12391,1,0,0:0:0:0:
192,192,12563,1,0,0:0:0:0:
320,192,12649,1,0,0:0:0:0:
64,192,12736,1,2,0:0:0:0:
448,192,12736,1,8,0:0:0:0:
192,192,12822,1,0,0:0:0:0:
448,192,12908,1,0,0:0:0:0:
320,192,12994,1,0,0:0:0:0:
64,192,13080,1,2,0:0:0:0:
192,192,13080,1,0,0:0:0:0:
64,192,13253,1,8,0:0:0:0:
448,192,13253,1,0,0:0:0:0:
320,192,13425,1,2,0:0:0:0:
448,192,13425,1,0,0:0:0:0:
192,192,13511,1,2,0:0:0:0:
320,192,13598,1,8,0:0:0:0:
192,192,13684,1,8,0:0:0:0:
64,192,13770,1,4,0:0:0:0:
320,192,13770,1,2,0:0:0:0:
448,192,13770,1,0,0:0:0:0:
192,192,13942,1,0,0:0:0:0:
320,192,14029,1,0,0:0:0:0:
64,192,14115,1,2,0:0:0:0:
448,192,14115,1,0,0:0:0:70:clap07.wav
192,192,14287,1,0,0:0:0:0:
320,192,14373,1,0,0:0:0:0:
64,192,14460,1,2,0:0:0:0:
448,192,14460,1,0,0:0:0:70:clap07.wav
192,192,14632,1,0,0:0:0:0:
320,192,14718,1,0,0:0:0:0:
64,192,14804,1,2,0:0:0:0:
448,192,14804,1,0,0:0:0:70:clap07.wav
448,192,14977,1,0,0:0:0:0:
320,192,15063,1,0,0:0:0:0:
64,192,15149,1,2,0:0:0:0:
192,192,15149,1,0,0:0:0:70:clap07.wav
448,192,15322,1,0,0:0:0:0:
320,192,15408,1,0,0:0:0:0:
64,192,15494,1,2,0:0:0:0:
192,192,15494,1,0,0:0:0:70:clap07.wav
448,192,15667,1,0,0:0:0:0:
320,192,15753,1,0,0:0:0:0:
64,192,15839,1,2,0:0:0:0:
192,192,15839,1,0,0:0:0:70:clap07.wav
448,192,16011,1,0,0:0:0:0:
320,192,16098,1,0,0:0:0:0:
64,192,16184,1,2,0:0:0:0:
192,192,16184,1,0,0:0:0:70:clap07.wav
320,192,16356,1,0,0:0:0:0:
192,192,16442,1,0,0:0:0:0:
64,192,16529,1,2,0:0:0:0:
448,192,16529,1,0,0:0:0:70:clap07.wav
320,192,16701,1,0,0:0:0:0:
192,192,16787,1,0,0:0:0:0:
64,192,16873,1,2,0:0:0:0:
448,192,16873,1,0,0:0:0:70:clap07.wav
320,192,17046,1,0,0:0:0:0:
192,192,17132,1,0,0:0:0:0:
64,192,17218,1,2,0:0:0:0:
448,192,17218,1,0,0:0:0:70:clap07.wav
320,192,17391,1,0,0:0:0:0:
192,192,17477,1,0,0:0:0:0:
64,192,17563,1,2,0:0:0:0:
448,192,17563,1,0,0:0:0:70:clap07.wav
64,192,17736,1,0,0:0:0:0:
192,192,17822,1,0,0:0:0:0:
320,192,17908,1,2,0:0:0:0:
448,192,17908,1,0,0:0:0:70:clap07.wav
64,192,18080,1,0,0:0:0:0:
192,192,18167,1,0,0:0:0:0:
320,192,18253,1,2,0:0:0:0:
448,192,18253,1,0,0:0:0:70:clap07.wav
64,192,18425,1,0,0:0:0:0:
192,192,18511,1,0,0:0:0:0:
320,192,18598,1,2,0:0:0:0:
448,192,18598,1,0,0:0:0:70:clap07.wav
64,192,18770,1,0,0:0:0:0:
192,192,18856,1,0,0:0:0:0:
320,192,18942,1,2,0:0:0:0:
448,192,18942,1,0,0:0:0:70:clap07.wav
192,192,19115,1,0,0:0:0:0:
320,192,19201,1,0,0:0:0:0:
64,192,19287,1,2,0:0:0:0:
448,192,19287,1,4,0:0:0:0:
64,192,19460,1,2,0:0:0:0:
192,192,19460,1,0,0:0:0:0:
192,192,19632,1,2,0:0:0:0:
320,192,19632,1,0,0:0:0:70:clap07.wav
320,192,19804,1,2,0:0:0:0:
448,192,19804,1,0,0:0:0:0:
64,192,19977,1,2,0:0:0:0:
448,192,19977,1,0,0:0:0:70:clap07.wav
64,192,20149,1,2,0:0:0:0:
320,192,20149,1,0,0:0:0:0:
192,192,20322,1,2,0:0:0:0:
320,192,20322,1,0,0:0:0:70:clap07.wav
192,192,20494,1,2,0:0:0:0:
448,192,20494,1,0,0:0:0:0:
64,192,20667,1,2,0:0:0:0:
448,192,20667,1,0,0:0:0:70:clap07.wav
320,192,20839,1,2,0:0:0:0:
448,192,20839,1,0,0:0:0:0:
192,192,21011,1,2,0:0:0:0:
320,192,21011,1,0,0:0:0:70:clap07.wav
64,192,21184,1,2,0:0:0:0:
192,192,21184,1,0,0:0:0:0:
64,192,21356,1,2,0:0:0:0:
448,192,21356,1,0,0:0:0:70:clap07.wav
192,192,21529,1,2,0:0:0:0:
448,192,21529,1,0,0:0:0:0:
192,192,21701,1,2,0:0:0:0:
320,192,21701,1,0,0:0:0:70:clap07.wav
64,192,21873,1,2,0:0:0:0:
320,192,21873,1,0,0:0:0:0:
64,192,22046,1,2,0:0:0:0:
448,192,22046,1,4,0:0:0:0:
320,192,22132,1,2,0:0:0:0:
64,192,22218,1,2,0:0:0:0:
192,192,22304,1,2,0:0:0:0:
320,192,22391,1,2,0:0:0:0:
448,192,22391,1,0,0:0:0:70:clap07.wav
192,192,22477,1,2,0:0:0:0:
448,192,22563,1,2,0:0:0:0:
320,192,22649,1,2,0:0:0:0:
64,192,22736,1,2,0:0:0:0:
192,192,22736,1,0,0:0:0:70:clap07.wav
320,192,22822,1,2,0:0:0:0:
64,192,22908,1,2,0:0:0:0:
192,192,22994,1,2,0:0:0:0:
320,192,23080,1,2,0:0:0:0:
448,192,23080,1,0,0:0:0:70:clap07.wav
192,192,23167,1,2,0:0:0:0:
448,192,23253,1,2,0:0:0:0:
320,192,23339,1,2,0:0:0:0:
64,192,23425,1,2,0:0:0:0:
192,192,23425,128,0,23770:0:0:0:0:
64,192,23770,1,0,0:0:0:70:snare17.wav
448,192,23770,1,0,0:0:0:0:
320,192,23942,1,0,0:0:0:0:
192,192,24029,1,0,0:0:0:70:snare17.wav
64,192,24115,1,0,0:0:0:70:snare17.wav
448,192,24115,1,0,0:0:0:0:
320,192,24244,1,0,0:0:0:70:snare17.wav
192,192,24373,1,0,0:0:0:70:snare17.wav
64,192,24503,1,0,0:0:0:70:snare17.wav
448,192,24503,1,0,0:0:0:0:
320,192,24804,1,4,0:0:0:0:
448,192,24804,1,2,0:0:0:0:
320,192,24977,1,0,0:0:0:0:
64,192,25063,1,0,0:0:0:0:
320,192,25149,1,2,0:0:0:0:
448,192,25149,1,0,0:0:0:0:
192,192,25236,1,0,0:0:0:0:
448,192,25322,1,0,0:0:0:0:
64,192,25408,1,0,0:0:0:0:
320,192,25494,1,2,0:0:0:0:
448,192,25494,1,0,0:0:0:0:
192,192,25580,1,0,0:0:0:0:
320,192,25667,1,0,0:0:0:0:
64,192,25753,1,0,0:0:0:0:
320,192,25839,1,2,0:0:0:0:
448,192,25839,1,0,0:0:0:0:
192,192,25925,1,0,0:0:0:0:
448,192,26011,1,0,0:0:0:0:
320,192,26098,1,0,0:0:0:0:
64,192,26184,1,2,0:0:0:0:
192,192,26184,1,0,0:0:0:0:
192,192,26356,1,0,0:0:0:0:
448,192,26442,1,0,0:0:0:0:
64,192,26529,1,2,0:0:0:0:
192,192,26529,1,0,0:0:0:0:
320,192,26615,1,0,0:0:0:0:
64,192,26701,1,0,0:0:0:0:
448,192,26787,1,0,0:0:0:0:
64,192,26873,1,2,0:0:0:0:
192,192,26873,1,0,0:0:0:0:
320,192,26960,1,0,0:0:0:0:
192,192,27046,1,0,0:0:0:0:
448,192,27132,1,0,0:0:0:0:
64,192,27218,1,2,0:0:0:0:
192,192,27218,1,0,0:0:0:0:
320,192,27304,1,0,0:0:0:0:
448,192,27391,1,0,0:0:0:70:snare15.wav
64,192,27448,1,0,0:0:0:70:snare15.wav
192,192,27506,1,0,0:0:0:70:snare15.wav
320,192,27563,1,2,0:0:0:0:
448,192,27563,1,0,0:0:0:0:
320,192,27736,1,0,0:0:0:0:
64,192,27822,1,0,0:0:0:0:
320,192,27908,1,2,0:0:0:0:
448,192,27908,1,0,0:0:0:0:
192,192,27994,1,0,0:0:0:0:
448,192,28080,1,0,0:0:0:0:
64,192,28167,1,0,0:0:0:0:
320,192,28253,1,2,0:0:0:0:
448,192,28253,1,0,0:0:0:0:
192,192,28339,1,0,0:0:0:0:
320,192,28425,1,0,0:0:0:0:
64,192,28511,1,0,0:0:0:0:
320,192,28598,1,2,0:0:0:0:
448,192,28598,1,0,0:0:0:0:
192,192,28684,1,0,0:0:0:0:
448,192,28770,1,0,0:0:0:0:
320,192,28856,1,0,0:0:0:0:
64,192,28942,1,2,0:0:0:0:
192,192,28942,1,0,0:0:0:0:
192,192,29115,1,0,0:0:0:0:
448,192,29201,1,0,0:0:0:0:
64,192,29287,1,2,0:0:0:0:
192,192,29287,1,0,0:0:0:0:
320,192,29373,1,0,0:0:0:0:
64,192,29460,1,0,0:0:0:0:
448,192,29546,1,0,0:0:0:0:
64,192,29632,1,2,0:0:0:0:
192,192,29632,1,0,0:0:0:0:
320,192,29718,1,0,0:0:0:0:
192,192,29804,1,0,0:0:0:0:
320,192,29891,1,0,0:0:0:0:
64,192,29977,1,2,0:0:0:0:
192,192,29977,1,0,0:0:0:0:
448,192,30063,1,0,0:0:0:0:
64,192,30149,1,0,0:0:0:0:
320,192,30236,1,0,0:0:0:0:
64,192,30322,1,2,0:0:0:0:
192,192,30322,1,4,0:0:0:0:
320,192,30408,1,0,0:0:0:0:
448,192,30494,1,2,0:0:0:0:
192,192,30580,1,0,0:0:0:0:
320,192,30667,1,2,0:0:0:0:
448,192,30667,1,0,0:0:0:0:
64,192,30753,1,0,0:0:0:0:
320,192,30839,1,2,0:0:0:0:
64,192,30925,1,0,0:0:0:0:
320,192,31011,1,2,0:0:0:0:
448,192,31011,1,0,0:0:0:0:
192,192,31098,1,0,0:0:0:0:
64,192,31184,1,2,0:0:0:0:
320,192,31270,1,0,0:0:0:0:
64,192,31356,1,2,0:0:0:0:
192,192,31356,1,0,0:0:0:0:
448,192,31442,1,0,0:0:0:0:
192,192,31529,1,2,0:0:0:0:
448,192,31615,1,0,0:0:0:0:
64,192,31701,1,2,0:0:0:0:
192,192,31701,1,0,0:0:0:0:
320,192,31787,1,0,0:0:0:0:
64,192,31873,1,2,0:0:0:0:
320,192,31960,1,0,0:0:0:0:
64,192,32046,1,2,0:0:0:0:
448,192,32046,1,0,0:0:0:0:
192,192,32132,1,0,0:0:0:0:
448,192,32218,1,2,0:0:0:0:
192,192,32304,1,0,0:0:0:0:
64,192,32391,1,2,0:0:0:0:
448,192,32391,1,0,0:0:0:0:
320,192,32477,1,0,0:0:0:0:
64,192,32563,1,2,0:0:0:0:
320,192,32649,1,0,0:0:0:0:
64,192,32736,1,2,0:0:0:0:
448,192,32736,1,0,0:0:0:0:
192,192,32822,1,0,0:0:0:0:
448,192,32908,1,2,0:0:0:0:
320,192,32994,1,0,0:0:0:0:
64,192,33080,1,2,0:0:0:0:
192,192,33080,1,0,0:0:0:0:
320,192,33167,1,0,0:0:0:0:
64,192,33253,1,0,0:0:0:0:
192,192,33339,1,0,0:0:0:0:
448,192,33425,1,0,0:0:0:70:clap07.wav
320,192,33511,1,0,0:0:0:0:
192,192,33598,1,0,0:0:0:0:
64,192,33684,1,0,0:0:0:0:
448,192,33770,1,0,0:0:0:70:clap07.wav
320,192,33856,1,0,0:0:0:0:
64,192,33942,1,0,0:0:0:0:
192,192,34029,1,0,0:0:0:0:
320,192,34115,1,0,0:0:0:70:clap07.wav
64,192,34201,1,0,0:0:0:0:
448,192,34287,1,0,0:0:0:0:
192,192,34373,1,0,0:0:0:0:
64,192,34460,1,2,0:0:0:0:
320,192,34460,1,4,0:0:0:0:
448,192,34460,1,0,0:0:0:0:
192,192,34718,1,0,0:0:0:0:
320,192,34804,1,0,0:0:0:0:
64,192,34891,1,0,0:0:0:0:
448,192,34977,1,0,0:0:0:0:
192,192,35063,1,0,0:0:0:0:
64,192,35149,1,0,0:0:0:70:electronic27.wav
448,192,35149,1,0,0:0:0:0:
320,192,35236,1,0,0:0:0:0:
64,192,35322,1,0,0:0:0:0:
192,192,35408,1,0,0:0:0:0:
320,192,35494,1,0,0:0:0:70:electronic27.wav
448,192,35494,1,0,0:0:0:0:
64,192,35580,1,2,0:0:0:0:
320,192,35667,1,0,0:0:0:0:
192,192,35753,1,0,0:0:0:0:
64,192,35839,1,4,0:0:0:0:
320,192,35839,1,2,0:0:0:0:
448,192,35839,1,0,0:0:0:0:
448,192,36011,1,0,0:0:0:0:
320,192,36098,1,0,0:0:0:0:
64,192,36184,1,8,0:0:0:0:
192,192,36184,1,0,0:0:0:0:
448,192,36270,1,0,0:0:0:0:
192,192,36356,1,0,0:0:0:0:
320,192,36442,1,0,0:0:0:0:
448,192,36529,1,0,0:0:0:0:
64,192,36615,1,0,0:0:0:0:
192,192,36701,1,0,0:0:0:0:
320,192,36787,1,2,0:0:0:0:
64,192,36873,1,8,0:0:0:0:
192,192,36873,1,0,0:0:0:0:
320,192,36960,1,2,0:0:0:0:
64,192,37046,1,0,0:0:0:0:
448,192,37132,1,0,0:0:0:0:
64,192,37218,1,2,0:0:0:0:
192,192,37218,1,0,0:0:0:0:
320,192,37304,1,0,0:0:0:0:
64,192,37391,1,0,0:0:0:0:
192,192,37477,1,0,0:0:0:0:
320,192,37563,1,8,0:0:0:0:
448,192,37563,1,0,0:0:0:0:
192,192,37649,1,0,0:0:0:0:
320,192,37736,1,0,0:0:0:0:
64,192,37822,1,0,0:0:0:0:
192,192,37908,1,0,0:0:0:0:
448,192,37994,1,0,0:0:0:0:
320,192,38080,1,0,0:0:0:0:
64,192,38167,1,0,0:0:0:0:
320,192,38253,1,8,0:0:0:0:
448,192,38253,1,0,0:0:0:0:
192,192,38339,1,2,0:0:0:0:
448,192,38425,1,0,0:0:0:0:
64,192,38511,1,0,0:0:0:0:
320,192,38598,1,2,0:0:0:0:
448,192,38598,1,0,0:0:0:0:
192,192,38684,1,0,0:0:0:0:
320,192,38770,1,0,0:0:0:0:
192,192,38856,1,0,0:0:0:0:
64,192,38942,1,8,0:0:0:0:
448,192,38942,1,0,0:0:0:0:
320,192,39029,1,0,0:0:0:0:
64,192,39115,1,0,0:0:0:0:
192,192,39201,1,0,0:0:0:0:
448,192,39287,1,0,0:0:0:0:
64,192,39373,1,0,0:0:0:0:
320,192,39460,1,0,0:0:0:0:
192,192,39546,1,0,0:0:0:0:
64,192,39632,1,8,0:0:0:0:
448,192,39632,1,0,0:0:0:0:
320,192,39718,1,0,0:0:0:0:
64,192,39804,1,0,0:0:0:0:
448,192,39891,1,0,0:0:0:0:
64,192,39977,1,2,0:0:0:0:
192,192,39977,1,0,0:0:0:0:
320,192,40063,1,0,0:0:0:0:
192,192,40149,1,0,0:0:0:0:
320,192,40236,1,0,0:0:0:0:
64,192,40322,1,8,0:0:0:0:
448,192,40322,1,0,0:0:0:0:
192,192,40408,1,0,0:0:0:0:
448,192,40494,1,0,0:0:0:0:
64,192,40580,1,2,0:0:0:0:
320,192,40667,1,0,0:0:0:0:
192,192,40753,1,2,0:0:0:0:
448,192,40839,1,0,0:0:0:0:
320,192,40925,1,0,0:0:0:0:
64,192,41011,1,8,0:0:0:0:
448,192,41011,1,0,0:0:0:0:
192,192,41098,1,0,0:0:0:0:
320,192,41184,1,0,0:0:0:0:
64,192,41270,1,0,0:0:0:0:
320,192,41356,1,2,0:0:0:0:
448,192,41356,1,0,0:0:0:0:
192,192,41442,1,0,0:0:0:0:
64,192,41529,1,0,0:0:0:0:
320,192,41615,1,0,0:0:0:0:
64,192,41701,1,4,0:0:0:0:
192,192,41701,1,8,0:0:0:0:
448,192,41701,1,0,0:0:0:0:
192,192,41873,1,0,0:0:0:0:
320,192,41960,1,0,0:0:0:0:
448,192,42046,1,0,0:0:0:0:
64,192,42132,1,0,0:0:0:0:
192,192,42218,1,0,0:0:0:0:
448,192,42304,1,0,0:0:0:0:
64,192,42391,1,8,0:0:0:0:
192,192,42391,1,0,0:0:0:0:
320,192,42477,1,0,0:0:0:0:
64,192,42563,1,0,0:0:0:0:
448,192,42649,1,0,0:0:0:0:
64,192,42736,1,2,0:0:0:0:
192,192,42736,1,0,0:0:0:0:
320,192,42822,1,0,0:0:0:0:
448,192,42908,1,0,0:0:0:0:
192,192,42994,1,0,0:0:0:0:
320,192,43080,1,8,0:0:0:0:
448,192,43080,1,0,0:0:0:0:
64,192,43167,1,0,0:0:0:0:
320,192,43253,1,0,0:0:0:0:
192,192,43339,1,0,0:0:0:0:
64,192,43425,1,0,0:0:0:0:
448,192,43511,1,0,0:0:0:0:
320,192,43598,1,0,0:0:0:0:
64,192,43684,1,0,0:0:0:0:
320,192,43770,1,8,0:0:0:0:
448,192,43770,1,0,0:0:0:0:
192,192,43856,1,2,0:0:0:0:
448,192,43942,1,0,0:0:0:0:
64,192,44029,1,0,0:0:0:0:
320,192,44115,1,2,0:0:0:0:
448,192,44115,1,0,0:0:0:0:
192,192,44201,1,0,0:0:0:0:
320,192,44287,1,0,0:0:0:0:
192,192,44373,1,0,0:0:0:0:
64,192,44460,1,8,0:0:0:0:
448,192,44460,1,0,0:0:0:0:
320,192,44546,1,0,0:0:0:0:
64,192,44632,1,0,0:0:0:0:
192,192,44718,1,0,0:0:0:0:
448,192,44804,1,0,0:0:0:0:
64,192,44891,1,0,0:0:0:0:
320,192,44977,1,0,0:0:0:0:
192,192,45063,1,0,0:0:0:0:
64,192,45149,1,8,0:0:0:0:
448,192,45149,1,0,0:0:0:0:
320,192,45236,1,0,0:0:0:0:
64,192,45322,1,0,0:0:0:0:
448,192,45408,1,0,0:0:0:0:
64,192,45494,1,2,0:0:0:0:
192,192,45494,1,0,0:0:0:0:
320,192,45580,1,0,0:0:0:0:
192,192,45667,1,0,0:0:0:0:
320,192,45753,1,0,0:0:0:0:
64,192,45839,1,8,0:0:0:0:
448,192,45839,1,0,0:0:0:0:
192,192,45925,1,0,0:0:0:0:
448,192,46011,1,0,0:0:0:0:
192,192,46098,1,0,0:0:0:0:
320,192,46184,1,0,0:0:0:0:
64,192,46270,1,2,0:0:0:0:
192,192,46270,1,0,0:0:0:0:
448,192,46356,1,0,0:0:0:0:
320,192,46442,1,0,0:0:0:0:
64,192,46529,1,0,0:0:0:0:
448,192,46615,1,0,0:0:0:0:
192,192,46701,1,0,0:0:0:0:
320,192,46787,1,0,0:0:0:0:
64,192,46873,1,4,0:0:0:0:
192,192,46873,1,2,0:0:0:0:
448,192,46873,1,0,0:0:0:0:
64,192,47046,1,0,0:0:0:0:
192,192,47132,1,0,0:0:0:0:
320,192,47218,1,8,0:0:0:0:
448,192,47218,1,0,0:0:0:0:
64,192,47304,1,0,0:0:0:0:
320,192,47391,1,0,0:0:0:0:
192,192,47477,1,0,0:0:0:0:
64,192,47563,1,0,0:0:0:0:
448,192,47649,1,0,0:0:0:0:
320,192,47736,1,0,0:0:0:0:
64,192,47822,1,2,0:0:0:0:
320,192,47908,1,8,0:0:0:0:
448,192,47908,1,0,0:0:0:0:
64,192,47994,1,2,0:0:0:0:
448,192,48080,1,0,0:0:0:0:
192,192,48167,1,0,0:0:0:0:
320,192,48253,1,2,0:0:0:0:
448,192,48253,1,0,0:0:0:0:
64,192,48339,1,0,0:0:0:0:
448,192,48425,1,0,0:0:0:0:
320,192,48511,1,0,0:0:0:0:
64,192,48598,1,8,0:0:0:0:
192,192,48598,1,0,0:0:0:0:
448,192,48684,1,0,0:0:0:0:
192,192,48770,1,0,0:0:0:0:
320,192,48856,1,0,0:0:0:0:
448,192,48942,1,0,0:0:0:0:
64,192,49029,1,0,0:0:0:0:
192,192,49115,1,0,0:0:0:0:
448,192,49201,1,0,0:0:0:0:
64,192,49287,1,8,0:0:0:0:
192,192,49287,1,0,0:0:0:0:
320,192,49373,1,2,0:0:0:0:
64,192,49460,1,0,0:0:0:0:
448,192,49546,1,0,0:0:0:0:
64,192,49632,1,2,0:0:0:0:
192,192,49632,1,0,0:0:0:0:
320,192,49718,1,0,0:0:0:0:
192,192,49804,1,0,0:0:0:0:
320,192,49891,1,0,0:0:0:0:
64,192,49977,1,8,0:0:0:0:
448,192,49977,1,0,0:0:0:0:
192,192,50063,1,0,0:0:0:0:
448,192,50149,1,0,0:0:0:0:
320,192,50236,1,0,0:0:0:0:
64,192,50322,1,0,0:0:0:0:
448,192,50408,1,0,0:0:0:0:
192,192,50494,1,0,0:0:0:0:
320,192,50580,1,0,0:0:0:0:
64,192,50667,1,8,0:0:0:0:
448,192,50667,1,0,0:0:0:0:
192,192,50753,1,0,0:0:0:0:
448,192,50839,1,0,0:0:0:0:
64,192,50925,1,0,0:0:0:0:
320,192,51011,1,2,0:0:0:0:
448,192,51011,1,0,0:0:0:0:
192,192,51098,1,0,0:0:0:0:
320,192,51184,1,0,0:0:0:0:
192,192,51270,1,0,0:0:0:0:
64,192,51356,1,8,0:0:0:0:
448,192,51356,1,0,0:0:0:0:
320,192,51442,1,0,0:0:0:0:
64,192,51529,1,0,0:0:0:0:
448,192,51615,1,2,0:0:0:0:
192,192,51701,1,0,0:0:0:0:
320,192,51787,1,2,0:0:0:0:
64,192,51873,1,0,0:0:0:0:
192,192,51960,1,0,0:0:0:0:
64,192,52046,1,8,0:0:0:0:
448,192,52046,1,0,0:0:0:0:
320,192,52132,1,0,0:0:0:0:
192,192,52218,1,0,0:0:0:0:
320,192,52304,1,0,0:0:0:0:
64,192,52391,1,2,0:0:0:0:
192,192,52391,1,4,0:0:0:0:
448,192,52391,1,0,0:0:0:0:
64,192,52563,1,0,0:0:0:0:
192,192,52649,1,0,0:0:0:0:
320,192,52736,1,8,0:0:0:0:
448,192,52736,1,0,0:0:0:0:
64,192,52822,1,0,0:0:0:0:
320,192,52908,1,0,0:0:0:0:
192,192,52994,1,0,0:0:0:0:
64,192,53080,1,0,0:0:0:0:
448,192,53167,1,0,0:0:0:0:
320,192,53253,1,0,0:0:0:0:
64,192,53339,1,0,0:0:0:0:
320,192,53425,1,8,0:0:0:0:
448,192,53425,1,0,0:0:0:0:
192,192,53511,1,0,0:0:0:0:
448,192,53598,1,0,0:0:0:0:
64,192,53684,1,0,0:0:0:0:
320,192,53770,1,2,0:0:0:0:
448,192,53770,1,0,0:0:0:0:
192,192,53856,1,0,0:0:0:0:
64,192,53942,1,0,0:0:0:0:
320,192,54029,1,0,0:0:0:0:
64,192,54115,1,8,0:0:0:0:
192,192,54115,1,0,0:0:0:0:
448,192,54201,1,0,0:0:0:0:
192,192,54287,1,0,0:0:0:0:
320,192,54373,1,0,0:0:0:0:
448,192,54460,1,0,0:0:0:0:
64,192,54546,1,0,0:0:0:0:
192,192,54632,1,0,0:0:0:0:
448,192,54718,1,0,0:0:0:0:
64,192,54804,1,8,0:0:0:0:
192,192,54804,1,0,0:0:0:0:
320,192,54891,1,2,0:0:0:0:
64,192,54977,1,0,0:0:0:0:
448,192,55063,1,0,0:0:0:0:
64,192,55149,1,0,0:0:0:70:LR3_Kick BRH.wav
192,192,55149,1,0,0:0:0:0:
448,192,55236,1,0,0:0:0:0:
192,192,55322,1,0,0:0:0:0:
320,192,55408,1,0,0:0:0:0:
64,192,55494,1,0,0:0:0:70:LR3_Kick BRH.wav
448,192,55494,1,0,0:0:0:0:
192,192,55580,1,0,0:0:0:0:
448,192,55667,1,0,0:0:0:0:
192,192,55753,1,0,0:0:0:0:
320,192,55839,1,0,0:0:0:70:LR3_Kick BRH.wav
448,192,55839,1,0,0:0:0:0:
64,192,55925,1,0,0:0:0:0:
320,192,56011,1,0,0:0:0:0:
192,192,56098,1,0,0:0:0:0:
64,192,56184,1,0,0:0:0:70:LR3_Kick BRH.wav
448,192,56184,1,0,0:0:0:0:
320,192,56270,1,0,0:0:0:0:
64,192,56356,1,0,0:0:0:0:
320,192,56442,1,0,0:0:0:0:
64,192,56529,1,0,0:0:0:70:LR3_Kick BRH.wav
192,192,56529,1,0,0:0:0:0:
192,192,56701,1,2,0:0:0:0:
448,192,56701,1,0,0:0:0:0:
320,192,56873,1,0,0:0:0:70:LR3_Kick BRH.wav
448,192,56873,1,0,0:0:0:0:
64,192,57046,1,2,0:0:0:0:
320,192,57046,1,0,0:0:0:0:
64,192,57218,1,0,0:0:0:70:LR3_Kick BRH.wav
192,192,57218,1,0,0:0:0:0:
448,192,57218,1,0,0:0:0:0:
320,192,57563,1,0,0:0:0:0:
64,192,57649,1,0,0:0:0:0:
320,192,57736,1,0,0:0:0:0:
192,192,57822,1,0,0:0:0:0:
64,192,57908,1,2,0:0:0:0:
448,192,57908,1,0,0:0:0:100:LR3_FX_ResetBTN.wav
320,192,57994,1,0,0:0:0:0:
192,192,58080,1,0,0:0:0:0:
448,192,58167,1,0,0:0:0:0:
64,192,58253,128,2,58598:0:0:0:0:
192,192,58253,128,4,58598:0:0:0:0:
448,192,58598,1,0,0:0:0:0:
320,192,58684,1,0,0:0:0:0:
64,192,58770,1,0,0:0:0:0:
448,192,58856,1,0,0:0:0:0:
192,192,58942,1,0,0:0:0:0:
320,192,59029,1,0,0:0:0:0:
192,192,59115,1,0,0:0:0:0:
320,192,59201,1,0,0:0:0:0:
64,192,59287,128,2,60667:0:0:0:0:
448,192,59287,128,4,60580:0:0:0:0:
320,192,60667,128,2,61356:0:0:0:0:
448,192,60667,128,4,61356:0:0:0:0:
192,192,61356,1,0,0:0:0:0:
320,192,61529,1,0,0:0:0:0:
192,192,61701,1,0,0:0:0:0:
448,192,61787,1,0,0:0:0:0:
64,192,61873,1,0,0:0:0:0:
320,192,61960,1,0,0:0:0:0:
64,192,62046,128,4,62736:0:0:0:0:
192,192,62046,128,2,62736:0:0:0:0:
320,192,62736,1,2,0:0:0:0:
448,192,62736,128,0,63080:0:0:0:0:
192,192,63080,1,0,0:0:0:0:
320,192,63167,1,0,0:0:0:0:
192,192,63253,1,0,0:0:0:0:
320,192,63339,1,0,0:0:0:0:
64,192,63425,128,2,63770:0:0:0:0:
448,192,63425,128,4,63684:0:0:0:0:
192,192,63770,128,8,64029:0:0:0:0:
448,192,63770,128,2,64115:0:0:0:0:
64,192,64115,128,2,64373:0:0:0:0:
320,192,64115,128,0,64460:0:0:0:0:
64,192,64460,128,2,64804:0:0:0:0:
448,192,64460,128,8,64718:0:0:0:0:
192,192,64804,128,2,65063:0:0:0:0:
320,192,64804,128,0,65149:0:0:0:0:
192,192,65149,128,8,65494:0:0:0:0:
448,192,65149,128,2,65408:0:0:0:0:
64,192,65494,128,2,65839:0:0:0:0:
320,192,65494,128,0,65753:0:0:0:0:
192,192,65839,128,2,66098:0:0:0:0:
320,192,65839,128,8,66184:0:0:0:0:
64,192,66184,1,2,0:0:0:0:
448,192,66184,1,8,0:0:0:0:
192,192,66356,1,2,0:0:0:0:
448,192,66356,1,0,0:0:0:0:
192,192,66529,1,8,0:0:0:0:
320,192,66529,1,2,0:0:0:0:
64,192,66701,1,2,0:0:0:0:
320,192,66701,1,0,0:0:0:0:
64,192,66873,1,2,0:0:0:0:
448,192,66873,1,8,0:0:0:0:
192,192,67046,1,2,0:0:0:0:
448,192,67046,1,0,0:0:0:0:
192,192,67218,1,2,0:0:0:0:
320,192,67218,1,8,0:0:0:0:
64,192,67391,1,2,0:0:0:0:
320,192,67391,1,0,0:0:0:0:
64,192,67563,1,2,0:0:0:0:
448,192,67563,1,0,0:0:0:0:
192,192,67649,1,0,0:0:0:0:
320,192,67736,1,0,0:0:0:0:
448,192,67822,1,2,0:0:0:0:
64,192,67908,1,0,0:0:0:0:
320,192,68023,1,0,0:0:0:0:
192,192,68138,1,0,0:0:0:0:
64,192,68253,1,0,0:0:0:70:snare15.wav
448,192,68253,1,0,0:0:0:0:
320,192,68339,1,0,0:0:0:70:snare15.wav
192,192,68425,1,0,0:0:0:70:LR_Tom Normal.wav
320,192,68511,1,0,0:0:0:0:
64,192,68598,1,0,0:0:0:70:snare17.wav
448,192,68598,1,0,0:0:0:0:
192,192,68684,1,0,0:0:0:70:snare17.wav
320,192,68770,1,0,0:0:0:70:snare15.wav
192,192,68856,1,0,0:0:0:70:snare17.wav
64,192,68942,1,2,0:0:0:0:
320,192,68942,1,4,0:0:0:0:
448,192,68942,1,0,0:0:0:0:
448,192,69115,1,0,0:0:0:0:
192,192,69287,1,0,0:0:0:0:
192,192,69460,1,0,0:0:0:0:
320,192,69632,1,0,0:0:0:0:
320,192,69804,1,0,0:0:0:0:
64,192,69977,1,0,0:0:0:0:
64,192,70149,1,0,0:0:0:0:
448,192,70322,1,0,0:0:0:0:
448,192,70494,1,0,0:0:0:0:
64,192,70667,1,0,0:0:0:0:
64,192,70839,1,0,0:0:0:0:
320,192,71011,1,0,0:0:0:0:
320,192,71184,1,0,0:0:0:0:
192,192,71356,1,0,0:0:0:0:
192,192,71529,1,0,0:0:0:0:
64,192,71701,1,0,0:0:0:0:
64,192,71873,1,0,0:0:0:0:
320,192,72046,1,0,0:0:0:0:
320,192,72218,1,0,0:0:0:0:
192,192,72391,1,0,0:0:0:0:
192,192,72563,1,0,0:0:0:0:
448,192,72736,1,0,0:0:0:0:
448,192,72908,1,0,0:0:0:0:
64,192,73080,1,0,0:0:0:0:
64,192,73253,1,0,0:0:0:0:
448,192,73425,1,0,0:0:0:0:
448,192,73598,1,0,0:0:0:0:
192,192,73770,1,0,0:0:0:0:
192,192,73942,1,0,0:0:0:0:
320,192,74115,1,0,0:0:0:0:
320,192,74287,1,0,0:0:0:0:
448,192,74460,1,0,0:0:0:0:
448,192,74632,1,0,0:0:0:0:
192,192,74804,1,0,0:0:0:0:
192,192,74977,1,0,0:0:0:0:
320,192,75149,1,0,0:0:0:0:
320,192,75322,1,0,0:0:0:0:
64,192,75494,1,0,0:0:0:0:
64,192,75667,1,0,0:0:0:0:
448,192,75839,1,0,0:0:0:0:
448,192,76011,1,0,0:0:0:0:
64,192,76184,1,0,0:0:0:0:
64,192,76356,1,0,0:0:0:0:
320,192,76529,1,0,0:0:0:0:
320,192,76701,1,0,0:0:0:0:
192,192,76873,1,0,0:0:0:0:
192,192,77046,1,0,0:0:0:0:
64,192,77218,1,0,0:0:0:0:
64,192,77391,1,0,0:0:0:0:
320,192,77563,1,0,0:0:0:0:
320,192,77736,1,0,0:0:0:0:
192,192,77908,1,0,0:0:0:0:
192,192,78080,1,0,0:0:0:0:
448,192,78253,1,0,0:0:0:0:
448,192,78425,1,0,0:0:0:0:
64,192,78598,1,0,0:0:0:0:
64,192,78770,1,0,0:0:0:0:
448,192,78942,1,0,0:0:0:0:
448,192,79115,1,0,0:0:0:0:
192,192,79287,1,0,0:0:0:0:
192,192,79460,1,0,0:0:0:0:
320,192,79632,1,0,0:0:0:0:
320,192,79804,1,0,0:0:0:0:
64,192,79977,1,2,0:0:0:0:
192,192,79977,1,4,0:0:0:0:
448,192,79977,1,0,0:0:0:0:
320,192,80149,1,0,0:0:0:0:
192,192,80236,1,0,0:0:0:0:
64,192,80322,1,0,0:0:0:70:clap07.wav
448,192,80322,1,0,0:0:0:0:
320,192,80494,1,0,0:0:0:0:
64,192,80667,1,0,0:0:0:70:clap07.wav
192,192,80667,1,0,0:0:0:0:
320,192,80839,1,0,0:0:0:0:
64,192,81011,1,0,0:0:0:70:clap07.wav
448,192,81011,1,0,0:0:0:0:
192,192,81098,1,0,0:0:0:0:
320,192,81184,1,2,0:0:0:0:
448,192,81270,1,0,0:0:0:0:
64,192,81356,1,2,0:0:0:0:
192,192,81356,1,0,0:0:0:70:clap07.wav
320,192,81529,1,0,0:0:0:0:
192,192,81615,1,0,0:0:0:0:
64,192,81701,1,0,0:0:0:70:clap07.wav
448,192,81701,1,0,0:0:0:0:
320,192,81873,1,0,0:0:0:0:
64,192,82046,1,0,0:0:0:70:clap07.wav
192,192,82046,1,0,0:0:0:0:
320,192,82218,1,0,0:0:0:0:
64,192,82391,1,0,0:0:0:70:clap07.wav
448,192,82391,1,0,0:0:0:0:
192,192,82477,1,0,0:0:0:0:
320,192,82563,1,2,0:0:0:0:
64,192,82649,1,2,0:0:0:0:
320,192,82736,1,2,0:0:0:0:
448,192,82736,1,0,0:0:0:70:clap07.wav
192,192,82908,1,0,0:0:0:0:
320,192,82994,1,0,0:0:0:0:
64,192,83080,1,0,0:0:0:70:clap07.wav
448,192,83080,1,0,0:0:0:0:
192,192,83253,1,0,0:0:0:0:
320,192,83425,1,0,0:0:0:70:clap07.wav
448,192,83425,1,0,0:0:0:0:
192,192,83598,1,0,0:0:0:0:
320,192,83684,1,0,0:0:0:0:
64,192,83770,1,0,0:0:0:70:clap07.wav
448,192,83770,1,0,0:0:0:0:
192,192,83856,1,0,0:0:0:0:
320,192,83942,1,0,0:0:0:0:
64,192,84029,1,0,0:0:0:0:
320,192,84115,1,2,0:0:0:0:
448,192,84115,1,0,0:0:0:70:clap07.wav
192,192,84287,1,0,0:0:0:0:
320,192,84373,1,0,0:0:0:0:
64,192,84460,1,0,0:0:0:70:clap07.wav
448,192,84460,1,0,0:0:0:0:
192,192,84632,1,0,0:0:0:0:
320,192,84804,1,2,0:0:0:0:
448,192,84804,1,0,0:0:0:70:clap07.wav
192,192,84977,1,0,0:0:0:0:
320,192,85063,1,2,0:0:0:0:
448,192,85063,1,0,0:0:0:0:
192,192,85236,1,0,0:0:0:0:
320,192,85322,1,2,0:0:0:0:
448,192,85322,1,0,0:0:0:0:
64,192,85494,1,2,0:0:0:0:
192,192,85494,1,0,0:0:0:70:clap07.wav
448,192,85580,1,0,0:0:0:0:
320,192,85667,1,0,0:0:0:0:
192,192,85753,1,0,0:0:0:0:
64,192,85839,1,2,0:0:0:0:
448,192,85839,1,0,0:0:0:70:clap07.wav
320,192,85925,1,0,0:0:0:0:
192,192,86011,1,0,0:0:0:0:
64,192,86098,1,0,0:0:0:0:
320,192,86184,1,2,0:0:0:0:
448,192,86184,1,0,0:0:0:70:clap07.wav
192,192,86270,1,0,0:0:0:0:
448,192,86356,1,0,0:0:0:0:
320,192,86442,1,0,0:0:0:0:
64,192,86529,1,2,0:0:0:0:
192,192,86529,1,0,0:0:0:70:clap07.wav
448,192,86615,1,0,0:0:0:0:
320,192,86701,1,0,0:0:0:0:
192,192,86787,1,0,0:0:0:0:
320,192,86873,1,2,0:0:0:0:
448,192,86873,1,0,0:0:0:70:clap07.wav
64,192,86960,1,0,0:0:0:0:
192,192,87046,1,0,0:0:0:0:
320,192,87132,1,0,0:0:0:0:
64,192,87218,1,2,0:0:0:0:
448,192,87218,1,0,0:0:0:70:clap07.wav
192,192,87304,1,0,0:0:0:0:
320,192,87391,1,0,0:0:0:0:
448,192,87477,1,0,0:0:0:0:
64,192,87563,1,2,0:0:0:0:
192,192,87563,1,0,0:0:0:70:clap07.wav
320,192,87649,1,0,0:0:0:0:
64,192,87736,1,0,0:0:0:0:
192,192,87822,1,0,0:0:0:0:
320,192,87908,1,2,0:0:0:0:
448,192,87908,1,0,0:0:0:70:clap07.wav
320,192,88080,1,0,0:0:0:0:
192,192,88080,1,2,0:0:0:0:
64,192,88253,1,2,0:0:0:0:
448,192,88253,1,0,0:0:0:70:clap07.wav
64,192,88425,1,2,0:0:0:0:
192,192,88425,1,0,0:0:0:0:
192,192,88598,1,2,0:0:0:0:
320,192,88598,1,0,0:0:0:70:clap07.wav
320,192,88770,1,2,0:0:0:0:
448,192,88770,1,0,0:0:0:0:
64,192,88942,1,2,0:0:0:0:
448,192,88942,1,0,0:0:0:70:clap07.wav
64,192,89115,1,2,0:0:0:0:
320,192,89115,1,0,0:0:0:0:
192,192,89287,1,2,0:0:0:0:
320,192,89287,1,0,0:0:0:70:clap07.wav
192,192,89460,1,2,0:0:0:0:
448,192,89460,1,0,0:0:0:0:
64,192,89632,1,0,0:0:0:70:LR3_Kick BRH.wav
448,192,89632,128,0,90322:0:0:0:0:
64,192,90322,1,0,0:0:0:70:clap07.wav
192,192,90322,1,0,0:0:0:0:
64,192,90667,1,0,0:0:0:70:clap07.wav
192,192,90667,1,0,0:0:0:0:
64,192,91011,1,2,0:0:0:0:
320,192,91011,1,4,0:0:0:0:
448,192,91011,1,0,0:0:0:0:
192,192,91184,1,0,0:0:0:0:
64,192,91356,1,8,0:0:0:0:
448,192,91356,1,2,0:0:0:0:
448,192,91529,128,0,91701:0:0:0:0:
64,192,91701,1,2,0:0:0:0:
192,192,91701,1,0,0:0:0:0:
320,192,91873,1,0,0:0:0:0:
64,192,92046,1,8,0:0:0:0:
448,192,92046,1,2,0:0:0:0:
192,192,92218,1,0,0:0:0:0:
320,192,92391,1,2,0:0:0:0:
448,192,92391,1,0,0:0:0:0:
192,192,92563,128,0,92736:0:0:0:0:
64,192,92736,1,8,0:0:0:0:
448,192,92736,1,2,0:0:0:0:
448,192,92908,128,0,93080:0:0:0:0:
64,192,93080,1,2,0:0:0:0:
192,192,93080,1,0,0:0:0:0:
320,192,93253,1,0,0:0:0:0:
64,192,93425,1,8,0:0:0:0:
448,192,93425,1,2,0:0:0:0:
192,192,93598,1,0,0:0:0:0:
320,192,93770,1,2,0:0:0:0:
448,192,93770,1,0,0:0:0:0:
192,192,93942,1,0,0:0:0:0:
64,192,94115,1,2,0:0:0:0:
448,192,94115,1,8,0:0:0:0:
448,192,94287,128,0,94460:0:0:0:0:
64,192,94460,1,2,0:0:0:0:
192,192,94460,1,0,0:0:0:0:
320,192,94632,1,0,0:0:0:0:
192,192,94718,1,0,0:0:0:0:
64,192,94804,1,2,0:0:0:0:
448,192,94804,1,8,0:0:0:0:
320,192,94977,1,0,0:0:0:0:
64,192,95149,1,2,0:0:0:0:
192,192,95149,1,0,0:0:0:0:
448,192,95322,1,0,0:0:0:0:
64,192,95494,1,8,0:0:0:0:
192,192,95494,1,2,0:0:0:0:
448,192,95667,1,0,0:0:0:0:
320,192,95753,1,0,0:0:0:0:
64,192,95839,1,2,0:0:0:0:
192,192,95839,1,0,0:0:0:0:
320,192,96011,1,0,0:0:0:0:
64,192,96098,1,0,0:0:0:0:
192,192,96098,1,0,0:0:0:0:
448,192,96184,1,10,0:0:0:0:
64,192,96356,1,0,0:0:0:0:
192,192,96356,1,0,0:0:0:0:
320,192,96529,1,2,0:0:0:0:
448,192,96529,1,0,0:0:0:0:
192,192,96701,1,0,0:0:0:0:
64,192,96873,1,2,0:0:0:0:
320,192,96873,1,8,0:0:0:0:
320,192,97046,128,0,97218:0:0:0:0:
64,192,97218,1,2,0:0:0:0:
192,192,97218,1,0,0:0:0:0:
448,192,97391,1,0,0:0:0:0:
64,192,97563,1,2,0:0:0:0:
320,192,97563,1,8,0:0:0:0:
192,192,97736,1,0,0:0:0:0:
320,192,97908,1,2,0:0:0:0:
448,192,97908,1,0,0:0:0:0:
192,192,98080,128,0,98253:0:0:0:0:
64,192,98253,1,8,0:0:0:0:
320,192,98253,1,2,0:0:0:0:
320,192,98425,128,0,98598:0:0:0:0:
64,192,98598,1,2,0:0:0:0:
192,192,98598,1,0,0:0:0:0:
448,192,98770,1,0,0:0:0:0:
64,192,98942,1,8,0:0:0:0:
320,192,98942,1,2,0:0:0:0:
192,192,99115,1,0,0:0:0:0:
320,192,99287,1,2,0:0:0:0:
448,192,99287,1,0,0:0:0:0:
192,192,99460,1,0,0:0:0:0:
64,192,99632,1,2,0:0:0:0:
320,192,99632,1,8,0:0:0:0:
320,192,99804,128,0,99977:0:0:0:0:
64,192,99977,1,2,0:0:0:0:
192,192,99977,1,0,0:0:0:0:
448,192,100149,1,0,0:0:0:0:
320,192,100236,1,0,0:0:0:0:
64,192,100322,1,2,0:0:0:0:
192,192,100322,1,8,0:0:0:0:
320,192,100494,1,0,0:0:0:0:
64,192,100667,1,2,0:0:0:0:
448,192,100667,1,0,0:0:0:0:
192,192,100839,1,0,0:0:0:0:
320,192,101011,1,8,0:0:0:0:
448,192,101011,1,2,0:0:0:0:
192,192,101184,1,0,0:0:0:0:
320,192,101270,1,0,0:0:0:0:
64,192,101356,1,2,0:0:0:0:
192,192,101356,1,0,0:0:0:0:
448,192,101529,1,0,0:0:0:0:
64,192,101615,1,0,0:0:0:0:
192,192,101615,1,0,0:0:0:0:
320,192,101701,1,10,0:0:0:0:
64,192,101873,1,0,0:0:0:0:
192,192,101873,1,0,0:0:0:0:
64,192,102046,1,2,0:0:0:0:
192,192,102046,1,4,0:0:0:0:
448,192,102046,1,0,0:0:0:0:
320,192,102218,1,0,0:0:0:0:
64,192,102391,1,2,0:0:0:0:
448,192,102391,1,8,0:0:0:0:
64,192,102563,128,0,102736:0:0:0:0:
320,192,102736,1,2,0:0:0:0:
448,192,102736,1,0,0:0:0:0:
192,192,102908,1,0,0:0:0:0:
64,192,103080,1,2,0:0:0:0:
448,192,103080,1,8,0:0:0:0:
320,192,103253,1,0,0:0:0:0:
64,192,103425,1,2,0:0:0:0:
192,192,103425,1,0,0:0:0:0:
320,192,103598,128,0,103770:0:0:0:0:
64,192,103770,1,2,0:0:0:0:
448,192,103770,1,8,0:0:0:0:
64,192,103942,128,0,104115:0:0:0:0:
320,192,104115,1,2,0:0:0:0:
448,192,104115,1,0,0:0:0:0:
192,192,104287,1,0,0:0:0:0:
64,192,104460,1,2,0:0:0:0:
448,192,104460,1,8,0:0:0:0:
320,192,104632,1,0,0:0:0:0:
64,192,104804,1,2,0:0:0:0:
192,192,104804,1,0,0:0:0:0:
320,192,104977,1,0,0:0:0:0:
64,192,105149,1,8,0:0:0:0:
448,192,105149,1,2,0:0:0:0:
64,192,105322,128,0,105494:0:0:0:0:
320,192,105494,1,2,0:0:0:0:
448,192,105494,1,0,0:0:0:0:
192,192,105667,1,0,0:0:0:0:
320,192,105753,1,0,0:0:0:0:
64,192,105839,1,8,0:0:0:0:
448,192,105839,1,2,0:0:0:0:
192,192,106011,1,0,0:0:0:0:
320,192,106184,1,2,0:0:0:0:
448,192,106184,1,0,0:0:0:0:
64,192,106356,1,0,0:0:0:0:
320,192,106529,1,2,0:0:0:0:
448,192,106529,1,8,0:0:0:0:
64,192,106701,1,0,0:0:0:0:
192,192,106787,1,0,0:0:0:0:
320,192,106873,1,2,0:0:0:0:
448,192,106873,1,0,0:0:0:0:
192,192,107046,1,0,0:0:0:0:
320,192,107132,1,0,0:0:0:0:
448,192,107132,1,0,0:0:0:0:
64,192,107218,1,10,0:0:0:0:
320,192,107391,1,0,0:0:0:0:
448,192,107391,1,0,0:0:0:0:
64,192,107563,1,2,0:0:0:0:
192,192,107563,1,0,0:0:0:0:
320,192,107736,1,0,0:0:0:0:
192,192,107908,1,8,0:0:0:0:
448,192,107908,1,2,0:0:0:0:
192,192,108080,128,0,108253:0:0:0:0:
320,192,108253,1,2,0:0:0:0:
448,192,108253,1,0,0:0:0:0:
64,192,108425,1,0,0:0:0:0:
192,192,108598,1,8,0:0:0:0:
448,192,108598,1,2,0:0:0:0:
320,192,108770,1,0,0:0:0:0:
64,192,108942,1,2,0:0:0:0:
192,192,108942,1,0,0:0:0:0:
320,192,109115,128,0,109287:0:0:0:0:
192,192,109287,1,2,0:0:0:0:
448,192,109287,1,8,0:0:0:0:
192,192,109460,128,0,109632:0:0:0:0:
320,192,109632,1,2,0:0:0:0:
448,192,109632,1,0,0:0:0:0:
64,192,109804,1,0,0:0:0:0:
192,192,109977,1,2,0:0:0:0:
448,192,109977,1,8,0:0:0:0:
320,192,110149,1,0,0:0:0:0:
64,192,110322,1,2,0:0:0:0:
192,192,110322,1,0,0:0:0:0:
320,192,110494,1,0,0:0:0:0:
192,192,110667,1,8,0:0:0:0:
448,192,110667,1,2,0:0:0:0:
192,192,110839,128,0,111011:0:0:0:0:
320,192,111011,1,2,0:0:0:0:
448,192,111011,1,0,0:0:0:0:
64,192,111184,1,0,0:0:0:0:
192,192,111270,1,0,0:0:0:0:
320,192,111356,1,8,0:0:0:0:
448,192,111356,1,2,0:0:0:0:
192,192,111529,1,0,0:0:0:0:
64,192,111701,1,2,0:0:0:0:
448,192,111701,1,0,0:0:0:0:
320,192,111873,1,0,0:0:0:0:
64,192,112046,1,2,0:0:0:0:
192,192,112046,1,8,0:0:0:0:
320,192,112218,1,0,0:0:0:0:
192,192,112304,1,0,0:0:0:0:
320,192,112391,1,2,0:0:0:0:
448,192,112391,1,0,0:0:0:0:
64,192,112563,1,0,0:0:0:0:
320,192,112649,1,0,0:0:0:0:
448,192,112649,1,0,0:0:0:0:
192,192,112736,1,2,0:0:0:0:
320,192,112883,1,0,0:0:0:70:snare17.wav
192,192,112982,1,0,0:0:0:70:snare17.wav
64,192,113080,1,2,0:0:0:0:
320,192,113080,1,4,0:0:0:0:
448,192,113080,1,0,0:0:0:0:
192,192,113253,1,0,0:0:0:0:
448,192,113425,1,0,0:0:0:0:
448,192,113598,128,0,113770:0:0:0:0:
64,192,113770,1,0,0:0:0:0:
192,192,113770,1,0,0:0:0:0:
320,192,113942,1,0,0:0:0:0:
64,192,114115,1,0,0:0:0:0:
192,192,114287,1,0,0:0:0:0:
320,192,114460,1,0,0:0:0:0:
448,192,114460,1,0,0:0:0:0:
192,192,114632,1,0,0:0:0:0:
448,192,114804,1,0,0:0:0:0:
448,192,114977,128,0,115149:0:0:0:0:
64,192,115149,1,0,0:0:0:0:
192,192,115149,1,0,0:0:0:0:
320,192,115322,1,0,0:0:0:0:
64,192,115494,1,0,0:0:0:0:
192,192,115667,1,0,0:0:0:0:
320,192,115839,1,2,0:0:0:0:
448,192,115839,1,0,0:0:0:0:
192,192,116011,1,0,0:0:0:0:
448,192,116184,1,0,0:0:0:0:
448,192,116356,128,0,116529:0:0:0:0:
64,192,116529,1,0,0:0:0:0:
192,192,116529,1,0,0:0:0:0:
320,192,116701,1,0,0:0:0:0:
192,192,116787,1,0,0:0:0:0:
64,192,116873,1,0,0:0:0:0:
320,192,117046,1,0,0:0:0:0:
64,192,117218,1,0,0:0:0:0:
448,192,117218,1,0,0:0:0:0:
192,192,117391,1,0,0:0:0:0:
448,192,117563,1,0,0:0:0:0:
64,192,117736,1,0,0:0:0:0:
192,192,117822,1,0,0:0:0:0:
320,192,117908,128,0,118080:0:0:0:0:
64,192,118167,128,0,118339:0:0:0:0:
320,192,118339,1,2,0:0:0:0:
448,192,118425,128,0,118598:0:0:0:0:
64,192,118598,1,2,0:0:0:0:
192,192,118598,1,0,0:0:0:0:
320,192,118770,1,0,0:0:0:0:
64,192,118942,1,0,0:0:0:0:
64,192,119115,128,0,119287:0:0:0:0:
320,192,119287,1,0,0:0:0:0:
448,192,119287,1,0,0:0:0:0:
192,192,119460,1,0,0:0:0:0:
448,192,119632,1,0,0:0:0:0:
320,192,119804,1,0,0:0:0:0:
64,192,119977,1,0,0:0:0:0:
192,192,119977,1,0,0:0:0:0:
320,192,120149,1,0,0:0:0:0:
64,192,120322,1,0,0:0:0:0:
64,192,120494,128,0,120667:0:0:0:0:
320,192,120667,1,0,0:0:0:0:
448,192,120667,1,0,0:0:0:0:
192,192,120839,1,0,0:0:0:0:
448,192,121011,1,0,0:0:0:0:
320,192,121184,1,0,0:0:0:0:
64,192,121356,1,2,0:0:0:0:
192,192,121356,1,0,0:0:0:0:
320,192,121529,1,0,0:0:0:0:
64,192,121701,1,0,0:0:0:0:
64,192,121873,128,0,122046:0:0:0:0:
320,192,122046,1,0,0:0:0:0:
448,192,122046,1,0,0:0:0:0:
192,192,122218,1,0,0:0:0:0:
320,192,122304,1,0,0:0:0:0:
448,192,122391,1,0,0:0:0:0:
192,192,122563,1,0,0:0:0:0:
64,192,122736,1,2,0:0:0:0:
448,192,122736,1,0,0:0:0:0:
320,192,122908,1,0,0:0:0:0:
64,192,123080,1,0,0:0:0:0:
448,192,123253,1,0,0:0:0:0:
320,192,123339,1,0,0:0:0:0:
192,192,123425,128,0,123598:0:0:0:0:
448,192,123684,128,0,123856:0:0:0:0:
192,192,123856,1,2,0:0:0:0:
64,192,123942,128,0,124115:0:0:0:0:
320,192,124115,128,2,125494:0:0:0:0:
448,192,124115,1,4,0:0:0:0:
64,192,125494,128,0,126873:0:0:0:0:
448,192,126873,128,0,128253:0:0:0:0:
192,192,128253,128,0,129632:0:0:0:0:
448,192,129632,128,0,131011:0:0:0:0:
64,192,131011,128,0,132391:0:0:0:0:
320,192,132391,128,0,133770:0:0:0:0:
192,192,133770,128,0,135149:0:0:0:0:
