osu file format v14

[General]
AudioFilename: Aiyru_-_Station.ogg
AudioLeadIn: 0
PreviewTime: 90279
Countdown: 0
SampleSet: Soft
StackLeniency: 0.7
Mode: 3
LetterboxInBreaks: 0
SpecialStyle: 0
WidescreenStoryboard: 1

[Editor]
Bookmarks: 2736,13770,24804,35839,46873,57908,68942,79977,91011,102046,113080,124115
DistanceSpacing: 1.5
BeatDivisor: 1
GridSize: 4
TimelineZoom: 1.15

[Metadata]
Title:Station
TitleUnicode:Station
Artist:Aiyru
ArtistUnicode:Aiyru
Creator:FAMoss
Version:Beginner
Source:
Tags:electronic dance music edm instrumental drum and bass dnb
BeatmapID:3676941
BeatmapSetID:1794071

[Difficulty]
HPDrainRate:6.5
CircleSize:4
OverallDifficulty:6.5
ApproachRate:5
SliderMultiplier:1.4
SliderTickRate:1

[Events]
//Background and Video events
0,0,"Background.jpg",0,0
//Break Periods
//Storyboard Layer 0 (Background)
//Storyboard Layer 1 (Fail)
//Storyboard Layer 2 (Pass)
//Storyboard Layer 3 (Foreground)
//Storyboard Layer 4 (Overlay)
//Storyboard Sound Samples
Sample,57908,0,"LR3_FX_ResetBTN.wav",100

[TimingPoints]
2736,344.827586206897,4,2,1,60,1,0
91011,-100,4,2,1,60,0,1
100667,-100,4,2,1,60,0,0
102046,-100,4,2,1,60,0,1
113080,-100,4,2,1,50,0,0
118598,-100,4,2,1,40,0,0

[HitObjects]
448,192,2736,1,6,0:0:0:0:
320,192,3080,1,10,0:0:0:0:
192,192,3425,1,2,0:0:0:0:
64,192,3770,1,10,0:0:0:0:
448,192,4115,1,2,0:0:0:0:
192,192,4460,1,10,0:0:0:0:
320,192,4804,1,2,0:0:0:0:
448,192,5149,1,10,0:0:0:0:
64,192,5494,1,2,0:0:0:0:
192,192,5839,1,10,0:0:0:0:
320,192,6184,1,2,0:0:0:0:
448,192,6529,1,10,0:0:0:0:
64,192,6873,1,2,0:0:0:0:
320,192,7218,1,10,0:0:0:0:
192,192,7563,1,2,0:0:0:0:
64,192,7908,1,10,0:0:0:0:
448,192,8253,1,2,0:0:0:0:
320,192,8598,1,10,0:0:0:0:
192,192,8942,1,2,0:0:0:0:
64,192,9287,1,10,0:0:0:0:
448,192,9632,1,2,0:0:0:0:
192,192,9977,1,10,0:0:0:0:
320,192,10322,1,2,0:0:0:0:
448,192,10667,1,10,0:0:0:0:
64,192,11011,1,2,0:0:0:0:
192,192,11356,1,10,0:0:0:0:
320,192,11701,1,2,0:0:0:0:
448,192,12046,1,10,0:0:0:0:
64,192,12391,1,2,0:0:0:0:
320,192,12736,1,10,0:0:0:0:
192,192,13080,128,2,13770:0:0:0:0:
448,192,13770,1,6,0:0:0:0:
320,192,14115,1,2,0:0:0:0:
192,192,14460,1,2,0:0:0:0:
64,192,14804,1,2,0:0:0:0:
448,192,15149,1,2,0:0:0:0:
192,192,15494,1,2,0:0:0:0:
320,192,15839,1,2,0:0:0:0:
448,192,16184,1,2,0:0:0:0:
64,192,16529,1,2,0:0:0:0:
192,192,16873,1,2,0:0:0:0:
320,192,17218,1,2,0:0:0:0:
448,192,17563,1,2,0:0:0:0:
64,192,17908,1,2,0:0:0:0:
320,192,18253,1,2,0:0:0:0:
192,192,18598,1,2,0:0:0:0:
64,192,18942,1,2,0:0:0:0:
448,192,19287,1,6,0:0:0:0:
192,192,19632,1,2,0:0:0:0:
320,192,19977,1,2,0:0:0:0:
64,192,20322,1,2,0:0:0:0:
448,192,20667,1,2,0:0:0:0:
192,192,21011,1,2,0:0:0:0:
320,192,21356,1,2,0:0:0:0:
64,192,21701,1,2,0:0:0:0:
448,192,22046,128,6,22736:0:0:0:0:
192,192,22736,128,2,23425:0:0:0:0:
320,192,23425,1,2,0:0:0:0:
192,192,24804,1,6,0:0:0:0:
320,192,25494,1,2,0:0:0:0:
64,192,26184,1,2,0:0:0:0:
448,192,26873,1,2,0:0:0:0:
192,192,27563,1,2,0:0:0:0:
320,192,28253,1,2,0:0:0:0:
64,192,28942,1,2,0:0:0:0:
448,192,29632,1,2,0:0:0:0:
192,192,30322,128,6,31011:0:0:0:0:
320,192,31011,128,2,31701:0:0:0:0:
64,192,31701,128,2,32391:0:0:0:0:
448,192,32391,128,2,33080:0:0:0:0:
192,192,33080,128,2,34460:0:0:0:0:
320,192,34460,1,6,0:0:0:0:
448,192,35839,1,6,0:0:0:0:
320,192,36184,1,8,0:0:0:0:
320,192,36873,1,8,0:0:0:0:
64,192,37218,1,2,0:0:0:0:
192,192,37563,1,8,0:0:0:0:
192,192,38253,1,8,0:0:0:0:
320,192,38598,1,2,0:0:0:0:
448,192,38942,1,8,0:0:0:0:
448,192,39632,1,8,0:0:0:0:
320,192,39977,1,2,0:0:0:0:
64,192,40322,1,8,0:0:0:0:
64,192,41011,1,8,0:0:0:0:
320,192,41356,1,2,0:0:0:0:
192,192,41701,1,12,0:0:0:0:
192,192,42391,1,8,0:0:0:0:
448,192,42736,1,2,0:0:0:0:
320,192,43080,1,8,0:0:0:0:
320,192,43770,1,8,0:0:0:0:
192,192,44115,1,2,0:0:0:0:
64,192,44460,1,8,0:0:0:0:
64,192,45149,1,8,0:0:0:0:
192,192,45494,1,2,0:0:0:0:
448,192,45839,1,8,0:0:0:0:
448,192,46529,1,0,0:0:0:0:
192,192,46873,1,6,0:0:0:0:
320,192,47218,1,8,0:0:0:0:
320,192,47908,1,8,0:0:0:0:
64,192,48253,1,2,0:0:0:0:
192,192,48598,1,8,0:0:0:0:
192,192,49287,1,8,0:0:0:0:
320,192,49632,1,2,0:0:0:0:
448,192,49977,1,8,0:0:0:0:
448,192,50667,1,8,0:0:0:0:
320,192,51011,1,2,0:0:0:0:
64,192,51356,1,8,0:0:0:0:
64,192,52046,1,8,0:0:0:0:
320,192,52391,1,6,0:0:0:0:
192,192,52736,1,8,0:0:0:0:
192,192,53425,1,8,0:0:0:0:
448,192,53770,1,2,0:0:0:0:
320,192,54115,1,8,0:0:0:0:
320,192,54804,1,8,0:0:0:0:
192,192,55149,1,0,0:0:0:70:LR3_Kick BRH.wav
448,192,55494,1,0,0:0:0:70:LR3_Kick BRH.wav
320,192,55839,1,0,0:0:0:70:LR3_Kick BRH.wav
192,192,56184,1,0,0:0:0:70:LR3_Kick BRH.wav
64,192,56529,128,0,57218:0:0:0:70:LR3_Kick BRH.wav
320,192,57218,1,0,0:0:0:70:LR3_Kick BRH.wav
192,192,57908,1,2,0:0:0:0:
448,192,58253,1,6,0:0:0:0:
320,192,58598,128,0,59287:0:0:0:0:
64,192,59287,128,6,60667:0:0:0:0:
448,192,60667,128,6,61356:0:0:0:0:
192,192,62046,128,6,62736:0:0:0:0:
64,192,63425,1,6,0:0:0:0:
192,192,63770,1,10,0:0:0:0:
320,192,64115,1,2,0:0:0:0:
448,192,64460,1,10,0:0:0:0:
64,192,64804,1,2,0:0:0:0:
320,192,65149,1,10,0:0:0:0:
192,192,65494,1,2,0:0:0:0:
64,192,65839,1,10,0:0:0:0:
448,192,66184,128,10,66873:0:0:0:0:
192,192,66873,128,10,67563:0:0:0:0:
448,192,67563,1,2,0:0:0:0:
64,192,68942,128,6,70322:0:0:0:0:
448,192,70322,128,0,71701:0:0:0:0:
192,192,71701,128,0,73080:0:0:0:0:
320,192,73080,128,0,74460:0:0:0:0:
64,192,74460,128,0,75839:0:0:0:0:
448,192,75839,128,0,77218:0:0:0:0:
192,192,77218,128,0,78598:0:0:0:0:
320,192,78598,128,0,79977:0:0:0:0:
64,192,79977,1,6,0:0:0:0:
192,192,80667,1,0,0:0:0:70:clap07.wav
448,192,81356,1,2,0:0:0:0:
320,192,82046,1,0,0:0:0:70:clap07.wav
64,192,82736,1,2,0:0:0:0:
192,192,83425,1,0,0:0:0:70:clap07.wav
448,192,84115,1,2,0:0:0:0:
64,192,84804,1,2,0:0:0:0:
320,192,85149,1,0,0:0:0:70:clap07.wav
64,192,85494,1,2,0:0:0:0:
192,192,86184,1,2,0:0:0:0:
448,192,86873,1,2,0:0:0:0:
320,192,87563,1,2,0:0:0:0:
64,192,88253,128,2,88942:0:0:0:0:
448,192,88942,128,2,89632:0:0:0:0:
192,192,89632,1,0,0:0:0:70:LR3_Kick BRH.wav
448,192,91011,1,6,0:0:0:0:
320,192,91356,1,10,0:0:0:0:
192,192,91701,1,2,0:0:0:0:
64,192,92046,1,10,0:0:0:0:
448,192,92391,1,2,0:0:0:0:
192,192,92736,1,10,0:0:0:0:
320,192,93080,1,2,0:0:0:0:
64,192,93425,1,10,0:0:0:0:
448,192,93770,1,2,0:0:0:0:
320,192,94115,1,10,0:0:0:0:
192,192,94460,1,2,0:0:0:0:
64,192,94804,1,10,0:0:0:0:
448,192,95149,1,2,0:0:0:0:
320,192,95494,1,10,0:0:0:0:
64,192,95839,1,2,0:0:0:0:
320,192,96184,1,10,0:0:0:0:
64,192,96529,1,2,0:0:0:0:
192,192,96873,1,10,0:0:0:0:
320,192,97218,1,2,0:0:0:0:
448,192,97563,1,10,0:0:0:0:
64,192,97908,1,2,0:0:0:0:
320,192,98253,1,10,0:0:0:0:
192,192,98598,1,2,0:0:0:0:
448,192,98942,1,10,0:0:0:0:
64,192,99287,1,2,0:0:0:0:
192,192,99632,1,10,0:0:0:0:
320,192,99977,1,2,0:0:0:0:
448,192,100322,1,10,0:0:0:0:
64,192,100667,1,2,0:0:0:0:
192,192,101011,1,10,0:0:0:0:
448,192,101356,1,2,0:0:0:0:
192,192,101701,1,10,0:0:0:0:
448,192,102046,1,6,0:0:0:0:
320,192,102391,1,10,0:0:0:0:
192,192,102736,1,2,0:0:0:0:
64,192,103080,1,10,0:0:0:0:
448,192,103425,1,2,0:0:0:0:
192,192,103770,1,10,0:0:0:0:
320,192,104115,1,2,0:0:0:0:
64,192,104460,1,10,0:0:0:0:
448,192,104804,1,2,0:0:0:0:
320,192,105149,1,10,0:0:0:0:
192,192,105494,1,2,0:0:0:0:
64,192,105839,1,10,0:0:0:0:
448,192,106184,1,2,0:0:0:0:
320,192,106529,1,10,0:0:0:0:
64,192,106873,1,2,0:0:0:0:
320,192,107218,1,10,0:0:0:0:
64,192,107563,1,2,0:0:0:0:
192,192,107908,1,10,0:0:0:0:
320,192,108253,1,2,0:0:0:0:
448,192,108598,1,10,0:0:0:0:
64,192,108942,1,2,0:0:0:0:
320,192,109287,1,10,0:0:0:0:
192,192,109632,1,2,0:0:0:0:
448,192,109977,1,10,0:0:0:0:
64,192,110322,1,2,0:0:0:0:
192,192,110667,1,10,0:0:0:0:
320,192,111011,1,2,0:0:0:0:
448,192,111356,1,10,0:0:0:0:
64,192,111701,1,2,0:0:0:0:
192,192,112046,1,10,0:0:0:0:
448,192,112391,128,2,113080:0:0:0:0:
192,192,113080,1,6,0:0:0:0:
320,192,113770,1,0,0:0:0:0:
64,192,114460,1,0,0:0:0:0:
448,192,115149,1,0,0:0:0:0:
320,192,115839,1,2,0:0:0:0:
192,192,116529,1,0,0:0:0:0:
448,192,117218,1,0,0:0:0:0:
64,192,117908,1,0,0:0:0:0:
192,192,118598,1,2,0:0:0:0:
320,192,119287,1,0,0:0:0:0:
64,192,119977,1,0,0:0:0:0:
448,192,120667,1,0,0:0:0:0:
320,192,121356,1,2,0:0:0:0:
192,192,122046,1,0,0:0:0:0:
448,192,122736,1,2,0:0:0:0:
64,192,123425,1,0,0:0:0:0:
320,192,124115,128,6,126873:0:0:0:0:
192,192,126873,128,0,129632:0:0:0:0:
448,192,129632,128,0,131011:0:0:0:0:
64,192,131011,128,0,132391:0:0:0:0:
320,192,132391,128,0,133770:0:0:0:0:
192,192,133770,128,0,135149:0:0:0:0:
