osu file format v14

[General]
AudioFilename: audio.mp3
AudioLeadIn: 0
PreviewTime: 34265
Countdown: 0
SampleSet: Normal
StackLeniency: 0.7
Mode: 1
LetterboxInBreaks: 0
WidescreenStoryboard: 1

[Editor]
Bookmarks: 1180,12151,22951,32894,44551,50380,55522,69751,80722,102494,113465,124608,135408,157008
DistanceSpacing: 2.9
BeatDivisor: 4
GridSize: 32
TimelineZoom: 2.2

[Metadata]
Title:Inventor
TitleUnicode:Inventor
Artist:Aiyru
ArtistUnicode:Aiyru
Creator:WTHBRO
Version:KaEDe's Bouncing Oni
Source:
Tags:
BeatmapID:2702925
BeatmapSetID:1177003

[Difficulty]
HPDrainRate:5
CircleSize:5
OverallDifficulty:6
ApproachRate:5
SliderMultiplier:1.4
SliderTickRate:1

[Events]
//Background and Video events
0,0,"inventor.jpg",0,140
//Break Periods
2,97551,101637
//Storyboard Layer 0 (Background)
//Storyboard Layer 1 (Fail)
//Storyboard Layer 2 (Pass)
//Storyboard Layer 3 (Foreground)
//Storyboard Layer 4 (Overlay)
//Storyboard Sound Samples

[TimingPoints]
-20,342.857142857143,4,1,0,75,1,0
1351,-125,4,1,0,75,0,0
6751,-125,4,1,0,77,0,0
6837,-111.111111111111,4,1,0,77,0,0
11951,-102.040816326531,4,1,0,60,0,0
11980,-102.040816326531,4,1,0,60,0,0
12122,-103.092783505155,4,1,0,70,0,0
12151,-103.092783505155,4,1,0,70,0,0
12179,-104.166666666667,4,1,0,73,0,0
12208,-104.166666666667,4,1,0,73,0,0
12236,-105.263157894737,4,1,0,76,0,0
12265,-105.263157894737,4,1,0,76,0,0
12293,-106.382978723404,4,1,0,83,0,0
12322,-106.382978723404,4,1,0,83,0,0
17637,-105.263157894737,4,1,0,83,0,0
17694,-104.166666666667,4,1,0,83,0,0
17751,-103.092783505155,4,1,0,83,0,0
17780,-102.040816326531,4,1,0,85,0,0
17808,-102.040816326531,4,1,0,85,0,0
17979,-101.351317111042,4,1,0,85,0,0
18065,-101.010101010101,4,1,0,85,0,0
18151,-100.671174721871,4,1,0,85,0,0
18236,-100.334414603875,4,1,0,85,0,0
18322,-100,4,1,0,85,0,0
18408,-99.667807198607,4,1,0,85,0,0
18494,-99.3377154510876,4,1,0,85,0,0
18579,-99.009900990099,4,1,0,85,0,0
18665,-98.6842429882378,4,1,0,85,0,0
18751,-98.3606234883202,4,1,0,85,0,0
18836,-98.0392156862745,4,1,0,85,0,0
18922,-97.7199015374272,4,1,0,85,0,0
19008,-97.4025657783877,4,1,0,85,0,0
19179,-96.774224765879,4,1,0,85,0,0
19351,-96.1538461538461,4,1,0,85,0,0
19522,-95.5413708466972,4,1,0,85,0,0
19608,-95.2380952380952,4,1,0,85,0,0
19694,-94.9367389040313,4,1,0,85,0,0
19865,-94.3396226415094,4,1,0,85,0,0
19951,-94.043916628187,4,1,0,85,0,0
20036,-93.7499707031342,4,1,0,85,0,0
20208,-93.1677307974319,4,1,0,85,0,0
20294,-92.8792282107653,4,1,0,85,0,0
20379,-92.5925925925926,4,1,0,85,0,0
20551,-91.743119266055,4,1,0,85,0,0
20722,-91.4294073545815,4,1,0,85,0,0
20808,-91.2733545696005,4,1,0,85,0,0
20894,-91.1177505578684,4,1,0,85,0,0
21065,-90.8082937030805,4,1,0,85,0,0
21151,-90.6543521794666,4,1,0,85,0,0
21237,-90.5009317070919,4,1,0,85,0,0
21322,-90.3480296449955,4,1,0,85,0,0
21408,-90.1956433700339,4,1,0,85,0,0
21580,-89.8923269707544,4,1,0,85,0,0
21751,-89.5911240281603,4,1,0,85,0,0
21837,-89.4412782231953,4,1,0,85,0,0
21922,-89.2919328310364,4,1,0,85,0,0
22051,-88.9947332916838,4,1,0,86,0,0
22094,-88.9947332916838,4,1,0,86,0,0
22222,-88.6994269130027,4,1,0,87,0,0
22265,-88.6994269130027,4,1,0,87,0,0
22394,-88.4061520073059,4,1,0,88,0,0
22437,-88.4061520073059,4,1,0,88,0,0
22479,-88.260240615068,4,1,0,87,0,0
22522,-88.260240615068,4,1,0,87,0,0
22565,-88.1148100729326,4,1,0,86,0,0
22608,-88.1148100729326,4,1,0,86,0,0
22737,-87.8253820623683,4,1,0,90,0,0
22780,-87.8253820623683,4,1,0,90,0,0
22908,-87.5377725488548,4,1,0,92,0,0
22951,-87.5377725488548,4,1,0,92,0,0
23080,-87.252116736352,4,1,0,88,0,0
23122,-87.252116736352,4,1,0,88,0,0
23208,-87.109986811548,4,1,0,88,0,0
23252,-86.9683191806889,4,1,0,80,0,0
23294,-86.9683191806889,4,1,0,80,0,0
28780,-83.3333333333333,4,1,0,80,0,0
28951,-83.1889312135685,4,1,0,80,0,0
29037,-83.1168831168831,4,1,0,80,0,0
29080,-83.0449597107378,4,1,0,82,0,0
29122,-83.0449597107378,4,1,0,82,0,0
29294,-82.9015544041451,4,1,0,82,0,0
29380,-82.8300030150121,4,1,0,82,0,0
29423,-82.7586435196258,4,1,0,84,0,0
29465,-82.7586435196258,4,1,0,84,0,0
29637,-82.616156250284,4,1,0,84,0,0
29722,-82.5451645868037,4,1,0,84,0,0
29766,-82.4742268041237,4,1,0,86,0,0
29808,-82.4742268041237,4,1,0,86,0,0
29980,-82.3327841736629,4,1,0,86,0,0
30065,-82.2622107969152,4,1,0,86,0,0
30151,-82.1917583036279,4,1,0,86,0,0
30237,-82.1214938228212,4,1,0,86,0,0
30322,-82.0512820512821,4,1,0,86,0,0
30408,-81.9811902357123,4,1,0,86,0,0
30494,-81.9112851634908,4,1,0,86,0,0
30665,-81.7716983245797,4,1,0,86,0,0
30751,-81.7021499103727,4,1,0,86,0,0
30837,-81.6326530612245,4,1,0,86,0,0
30922,-81.5632743413358,4,1,0,86,0,0
31008,-81.4940798625684,4,1,0,86,0,0
31094,-81.4249363867685,4,1,0,86,0,0
31180,-81.3559101407701,4,1,0,86,0,0
31309,-81.2182741116751,4,1,0,80,0,0
31351,-81.2182741116751,4,1,0,80,0,0
31480,-81.0811029948927,4,1,0,86,0,0
31522,-81.0811029948927,4,1,0,86,0,0
31608,-81.0126582278481,4,1,0,86,0,0
31694,-80.9443289188994,4,1,0,86,0,0
31780,-80.8761801856594,4,1,0,86,0,0
31865,-80.8080808080808,4,1,0,86,0,0
31951,-80.7400960161222,4,1,0,86,0,0
32037,-80.6722906009521,4,1,0,86,0,0
32122,-80.6045340050378,4,1,0,86,0,0
32208,-80.5368911310359,4,1,0,86,0,0
32294,-80.4694264461161,4,1,0,86,0,0
32380,-80.4020100502513,4,1,0,86,0,0
32465,-80.3347065212501,4,1,0,86,0,0
32551,-80.2675800047037,4,1,0,86,0,0
32722,-80.1335345219273,4,1,0,86,0,0
32851,-80,4,1,0,75,0,0
32894,-80,4,1,0,75,0,0
33022,-90.9090909090909,4,1,0,70,0,0
33065,-90.9090909090909,4,1,0,70,0,0
33879,-95.2380952380952,4,1,0,75,0,0
33922,-95.2380952380952,4,1,0,75,0,0
33965,-92.0187534219474,4,1,0,78,0,0
34008,-92.0187534219474,4,1,0,78,0,0
34051,-89.0100216383363,4,1,0,82,0,0
34094,-89.0100216383363,4,1,0,82,0,0
34137,-86.1917386942296,4,1,0,86,0,0
34180,-86.1917386942296,4,1,0,86,0,0
34265,-83.5464463936759,4,1,0,86,0,1
55480,-83.3333333333333,4,1,0,85,0,1
55522,-83.3333333333333,4,1,0,85,0,1
55566,-84.2013793869971,4,1,0,84,0,1
55608,-84.2013793869971,4,1,0,84,0,1
55652,-85.087699892279,4,1,0,83,0,1
55694,-85.087699892279,4,1,0,83,0,1
55738,-85.9928780698383,4,1,0,82,0,1
55780,-85.9928780698383,4,1,0,82,0,1
55823,-86.9175977714328,4,1,0,81,0,1
55865,-86.9175977714328,4,1,0,81,0,1
55909,-87.8623443079259,4,1,0,79,0,1
55951,-87.8623443079259,4,1,0,79,0,1
55995,-88.8278542832347,4,1,0,77,0,1
56037,-88.8278542832347,4,1,0,77,0,1
56080,-89.814819804527,4,1,0,75,0,1
56122,-89.814819804527,4,1,0,75,0,1
56166,-90.8239640845716,4,1,0,73,0,0
56208,-90.8239640845716,4,1,0,73,0,0
56509,-95.2380952380952,4,1,0,60,0,0
56551,-95.2380952380952,4,1,0,60,0,0
56894,-98.0392156862745,4,1,0,60,0,0
61565,-98.0392156862745,4,1,0,70,0,0
61694,-98.0392156862745,4,1,0,70,0,0
62037,-97.3451068995291,4,1,0,70,0,0
62380,-96.6608509054705,4,1,0,70,0,0
62465,-96.4911942136161,4,1,0,70,0,0
62551,-96.3222248122198,4,1,0,70,0,0
62637,-96.1538461538461,4,1,0,70,0,0
62722,-95.9860551459084,4,1,0,70,0,0
62808,-95.8188487173689,4,1,0,70,0,0
62894,-95.6521323251599,4,1,0,70,0,0
63065,-95.3206156567924,4,1,0,70,0,0
63237,-94.9913890305844,4,1,0,70,0,0
63280,-94.9094374148188,4,1,0,70,0,0
63322,-94.8276270808737,4,1,0,70,0,0
63408,-94.6643391861139,4,1,0,70,0,0
63751,-94.0171261597012,4,1,0,70,0,0
64008,-93.5374070121253,4,1,0,70,0,0
64094,-93.3786157367246,4,1,0,70,0,0
64437,-92.7487196039259,4,1,0,70,0,0
64780,-92.127264603323,4,1,0,70,0,0
64951,-91.8196918347503,4,1,0,70,0,0
65008,-91.7176234496282,4,1,0,70,0,0
65065,-91.6157817345616,4,1,0,70,0,0
65122,-91.514165935316,4,1,0,70,0,0
65465,-76.9230769230769,4,1,0,70,0,0
65722,-90.9090909090909,4,1,0,70,0,0
65765,-90.5477231775007,4,1,0,72,0,0
65808,-90.1892169772182,4,1,0,75,0,0
65894,-89.4805742147409,4,1,0,75,0,0
65937,-88.7830594819864,4,1,0,76,0,0
65980,-88.7830594819864,4,1,0,76,0,0
66065,-88.0962574947891,4,1,0,76,0,0
66108,-87.4200761953384,4,1,0,77,0,0
66151,-87.4200761953384,4,1,0,77,0,0
66237,-86.7541206038434,4,1,0,77,0,0
66279,-86.0983087709208,4,1,0,78,0,0
66322,-86.0983087709208,4,1,0,78,0,0
66494,-84.8159155369187,4,1,0,78,0,0
66580,-84.1889030606876,4,1,0,78,0,0
66622,-83.5711629345178,4,1,0,79,0,0
66665,-83.5711629345178,4,1,0,79,0,0
66751,-82.9623533432999,4,1,0,79,0,0
66794,-82.3624176993541,4,1,0,80,0,0
66837,-82.3624176993541,4,1,0,80,0,0
66922,-81.7710296689827,4,1,0,80,0,0
66965,-81.1881397117983,4,1,0,81,0,0
67008,-81.1881397117983,4,1,0,81,0,0
67094,-80.6134360026054,4,1,0,81,0,0
67137,-80.0468754502637,4,1,0,82,0,0
67180,-80.0468754502637,4,1,0,82,0,0
68508,-80.0468754502637,4,1,0,60,0,0
68551,-98.0392156862745,4,1,0,60,0,0
69880,-98.0392156862745,4,1,0,80,0,0
69922,-83.3333333333333,4,1,0,80,0,1
91480,-83.3333333333333,4,1,0,75,0,1
91822,-83.3333333333333,4,1,0,50,0,1
91865,-83.3333333333333,4,1,0,50,0,0
91951,-105.263157894737,4,1,0,50,0,0
102794,-105.263157894737,4,1,0,60,0,0
108280,-105.263157894737,4,1,0,65,0,0
113765,-105.263157894737,4,1,0,70,0,0
113808,-102.040816326531,4,1,0,70,0,0
122037,-102.040816326531,4,1,0,70,0,0
122208,-101.158671422473,4,1,0,70,0,0
122294,-100.723293974027,4,1,0,70,0,0
122380,-100.291648112712,4,1,0,70,0,0
122551,-99.8636860685165,4,1,0,70,0,0
122637,-99.4393608833397,4,1,0,70,0,0
122722,-98.6014372145488,4,1,0,70,0,0
122808,-98.187748721841,4,1,0,70,0,0
122894,-97.7775170377324,4,1,0,70,0,0
123065,-96.9672522195804,4,1,0,70,0,0
123237,-96.1703060716161,4,1,0,70,0,0
123322,-95.7767252979853,4,1,0,70,0,0
123365,-95.3863528837202,4,1,0,72,0,0
123408,-95.3863528837202,4,1,0,72,0,0
123537,-94.615077480287,4,1,0,74,0,0
123580,-94.615077480287,4,1,0,74,0,0
123708,-93.8561747977399,4,1,0,76,0,0
123751,-93.8561747977399,4,1,0,76,0,0
123879,-93.1093494822189,4,1,0,78,0,0
123922,-93.1093494822189,4,1,0,78,0,0
123965,-92.7403760993212,4,1,0,79,0,0
124008,-92.7403760993212,4,1,0,79,0,0
124051,-92.3743155063221,4,1,0,80,0,0
124094,-92.3743155063221,4,1,0,80,0,0
124137,-92.011133347135,4,1,0,81,0,0
124180,-92.011133347135,4,1,0,81,0,0
124222,-91.65079580386,4,1,0,82,0,0
124265,-91.65079580386,4,1,0,82,0,0
124394,-90.9385219216401,4,1,0,78,0,0
124437,-90.9385219216401,4,1,0,78,0,0
124779,-86.9565217391304,4,1,0,80,0,0
130222,-83.3333333333333,4,1,0,81,0,0
130265,-83.3333333333333,4,1,0,81,0,0
130437,-83.1891388260349,4,1,0,81,0,0
130522,-83.1172285391316,4,1,0,81,0,0
130565,-83.0455114316299,4,1,0,82,0,0
130608,-83.0455114316299,4,1,0,82,0,0
130780,-82.9023104044887,4,1,0,82,0,0
130865,-82.8308949298381,4,1,0,82,0,0
130951,-82.7596023897663,4,1,0,82,0,0
131122,-82.6173848458236,4,1,0,82,0,0
131251,-82.4757232708552,4,1,0,83,0,0
131294,-82.4757232708552,4,1,0,83,0,0
131465,-82.3344788803828,4,1,0,83,0,0
131551,-82.2640379467554,4,1,0,83,0,0
131637,-82.1937174410137,4,1,0,83,0,0
131808,-82.0534364799732,4,1,0,83,0,0
131937,-81.9137006398279,4,1,0,84,0,0
131980,-81.9137006398279,4,1,0,84,0,0
132151,-81.7743730563254,4,1,0,84,0,0
132237,-81.7048868509875,4,1,0,84,0,0
132322,-81.6355186345317,4,1,0,84,0,0
132494,-81.4972013861044,4,1,0,84,0,0
132665,-81.3592858607324,4,1,0,84,0,0
132965,-81.0848504308849,4,1,0,86,0,0
133008,-81.0848504308849,4,1,0,86,0,0
133094,-81.0165962497418,4,1,0,86,0,0
133180,-80.9483913530928,4,1,0,86,0,0
133265,-80.8803011982417,4,1,0,86,0,0
133351,-80.8123254958846,4,1,0,86,0,0
133437,-80.7444639576899,4,1,0,86,0,0
133522,-80.6767162962933,4,1,0,86,0,0
133608,-80.6090822252943,4,1,0,86,0,0
133694,-80.5416263287355,4,1,0,86,0,0
133780,-80.4742184746273,4,1,0,86,0,0
133865,-80.4069233577288,4,1,0,86,0,0
133951,-80.3397406954529,4,1,0,86,0,0
134037,-80.2726702061563,4,1,0,86,0,0
134122,-80.2057116091351,4,1,0,86,0,0
134208,-80.1388646246215,4,1,0,86,0,0
134294,-80.0721930892893,4,1,0,86,0,0
134380,-80.0055683875598,4,1,0,86,0,0
134508,-80,4,1,0,75,0,0
134551,-85.4700854700855,4,1,0,75,0,0
134679,-90.9090909090909,4,1,0,70,0,0
134722,-90.9090909090909,4,1,0,70,0,0
135365,-95.2380952380952,4,1,0,60,0,0
135494,-97.0873786407767,4,1,0,60,0,0
135580,-99.009900990099,4,1,0,60,0,0
135708,-90.9090909090909,4,1,0,86,0,0
135751,-90.9090909090909,4,1,0,86,0,1
136780,-95.2380952380952,4,1,0,86,0,1
137122,-90.9090909090909,4,1,0,86,0,0
137251,-90.9090909090909,4,1,0,60,0,0
137765,-90.9090909090909,4,1,0,70,0,0
137808,-90.9090909090909,4,1,0,70,0,0
138022,-87.9420075225593,4,1,0,75,0,0
138065,-87.9420075225593,4,1,0,75,0,0
138279,-85.1624089720301,4,1,0,80,0,0
138322,-85.1624089720301,4,1,0,80,0,0
138451,-83.4049921223985,4,1,0,86,0,0
138494,-83.4049921223985,4,1,0,86,0,1
156965,-83.3333333333333,4,1,0,85,0,1
157007,-83.3333333333333,4,1,0,85,0,1
157051,-84.2013793869971,4,1,0,84,0,1
157093,-84.2013793869971,4,1,0,84,0,1
157137,-85.087699892279,4,1,0,83,0,1
157179,-85.087699892279,4,1,0,83,0,1
157223,-85.9928780698383,4,1,0,82,0,1
157265,-85.9928780698383,4,1,0,82,0,1
157308,-86.9175977714328,4,1,0,81,0,1
157350,-86.9175977714328,4,1,0,81,0,1
157394,-87.8623443079259,4,1,0,79,0,1
157436,-87.8623443079259,4,1,0,79,0,1
157480,-88.8278542832347,4,1,0,77,0,1
157522,-88.8278542832347,4,1,0,77,0,1
157565,-89.814819804527,4,1,0,75,0,1
157607,-89.814819804527,4,1,0,75,0,1
157651,-90.8239640845716,4,1,0,73,0,0
157693,-90.8239640845716,4,1,0,73,0,0
157994,-95.2380952380952,4,1,0,60,0,0
158036,-95.2380952380952,4,1,0,60,0,0
158379,-98.0392156862745,4,1,0,60,0,0
163050,-98.0392156862745,4,1,0,70,0,0
163179,-98.0392156862745,4,1,0,70,0,0
163522,-97.3451068995291,4,1,0,70,0,0
163865,-96.6608509054705,4,1,0,70,0,0
163950,-96.4911942136161,4,1,0,70,0,0
164036,-96.3222248122198,4,1,0,70,0,0
164122,-96.1538461538461,4,1,0,70,0,0
164207,-95.9860551459084,4,1,0,70,0,0
164293,-95.8188487173689,4,1,0,70,0,0
164379,-95.6521323251599,4,1,0,70,0,0
164550,-95.3206156567924,4,1,0,70,0,0
164722,-94.9913890305844,4,1,0,70,0,0
164765,-94.9094374148188,4,1,0,70,0,0
164807,-94.8276270808737,4,1,0,70,0,0
164893,-94.6643391861139,4,1,0,70,0,0
165236,-94.0171261597012,4,1,0,70,0,0
165493,-93.5374070121253,4,1,0,70,0,0
165579,-93.3786157367246,4,1,0,70,0,0
165922,-92.7487196039259,4,1,0,70,0,0
166265,-92.127264603323,4,1,0,70,0,0
166436,-91.8196918347503,4,1,0,70,0,0
166493,-91.7176234496282,4,1,0,70,0,0
166550,-91.6157817345616,4,1,0,70,0,0
166607,-91.514165935316,4,1,0,70,0,0
166950,-76.9230769230769,4,1,0,70,0,0
167207,-90.9090909090909,4,1,0,70,0,0
167250,-90.5477231775007,4,1,0,72,0,0
167293,-90.1892169772182,4,1,0,75,0,0
167379,-89.4805742147409,4,1,0,75,0,0
167422,-88.7830594819864,4,1,0,76,0,0
167465,-88.7830594819864,4,1,0,76,0,0
167550,-88.0962574947891,4,1,0,76,0,0
167593,-87.4200761953384,4,1,0,77,0,0
167636,-87.4200761953384,4,1,0,77,0,0
167722,-86.7541206038434,4,1,0,77,0,0
167764,-86.0983087709208,4,1,0,78,0,0
167807,-86.0983087709208,4,1,0,78,0,0
167979,-84.8159155369187,4,1,0,78,0,0
168065,-84.1889030606876,4,1,0,78,0,0
168107,-83.5711629345178,4,1,0,79,0,0
168150,-83.5711629345178,4,1,0,79,0,0
168236,-82.9623533432999,4,1,0,79,0,0
168279,-82.3624176993541,4,1,0,80,0,0
168322,-82.3624176993541,4,1,0,80,0,0
168407,-81.7710296689827,4,1,0,80,0,0
168450,-81.1881397117983,4,1,0,81,0,0
168493,-81.1881397117983,4,1,0,81,0,0
168579,-80.6134360026054,4,1,0,81,0,0
168622,-80.0468754502637,4,1,0,82,0,0
168665,-80.0468754502637,4,1,0,82,0,0

[HitObjects]
256,192,1351,5,0,0:0:0:0:
256,192,2722,1,8,0:0:0:0:
256,192,3751,1,0,0:0:0:0:
256,192,4094,1,8,0:0:0:0:
256,192,5465,1,0,0:0:0:0:
256,192,6151,1,8,0:0:0:0:
256,192,6837,1,0,0:0:0:0:
256,192,7008,1,0,0:0:0:0:
256,192,7180,1,8,0:0:0:0:
256,192,7437,1,8,0:0:0:0:
256,192,7608,1,8,0:0:0:0:
256,192,7694,1,0,0:0:0:0:
256,192,7865,1,8,0:0:0:0:
256,192,8208,1,0,0:0:0:0:
256,192,8380,1,0,0:0:0:0:
256,192,8551,1,8,0:0:0:0:
256,192,8722,1,0,0:0:0:0:
256,192,8808,1,8,0:0:0:0:
256,192,8894,1,0,0:0:0:0:
256,192,8980,1,8,0:0:0:0:
256,192,9065,1,0,0:0:0:0:
256,192,9237,1,8,0:0:0:0:
256,192,9580,1,0,0:0:0:0:
256,192,9751,1,0,0:0:0:0:
256,192,9922,1,8,0:0:0:0:
256,192,10094,1,0,0:0:0:0:
256,192,10180,1,8,0:0:0:0:
256,192,10351,1,8,0:0:0:0:
256,192,10437,1,0,0:0:0:0:
256,192,10608,1,8,0:0:0:0:
256,192,10951,1,0,0:0:0:0:
256,192,11122,1,8,0:0:0:0:
256,192,11294,1,8,0:0:0:0:
256,192,11465,1,0,0:0:0:0:
256,192,11551,1,8,0:0:0:0:
256,192,11637,1,8,0:0:0:0:
256,192,11722,1,8,0:0:0:0:
256,192,11808,1,0,0:0:0:0:
256,192,11980,1,8,0:0:0:0:
256,192,12151,1,8,0:0:0:0:
256,192,12208,1,8,0:0:0:0:
256,192,12265,1,8,0:0:0:0:
256,192,12322,1,0,0:0:0:0:
256,192,12494,1,0,0:0:0:0:
256,192,12580,1,0,0:0:0:0:
256,192,12665,1,8,0:0:0:0:
256,192,12751,1,0,0:0:0:0:
256,192,12922,1,8,0:0:0:0:
256,192,13008,1,0,0:0:0:0:
256,192,13094,1,8,0:0:0:0:
256,192,13180,1,0,0:0:0:0:
256,192,13265,1,0,0:0:0:0:
256,192,13351,1,8,0:0:0:0:
256,192,13522,1,8,0:0:0:0:
256,192,13608,1,0,0:0:0:0:
256,192,13694,1,8,0:0:0:0:
256,192,13865,1,0,0:0:0:0:
256,192,13951,1,0,0:0:0:0:
256,192,14037,1,8,0:0:0:0:
256,192,14208,1,0,0:0:0:0:
256,192,14294,1,8,0:0:0:0:
256,192,14465,1,8,0:0:0:0:
256,192,14551,1,0,0:0:0:0:
256,192,14722,1,8,0:0:0:0:
256,192,14808,1,0,0:0:0:0:
256,192,14894,1,8,0:0:0:0:
256,192,15065,1,8,0:0:0:0:
256,192,15237,1,0,0:0:0:0:
256,192,15322,1,0,0:0:0:0:
256,192,15408,1,8,0:0:0:0:
256,192,15494,1,0,0:0:0:0:
256,192,15665,1,8,0:0:0:0:
256,192,15751,1,0,0:0:0:0:
256,192,15837,1,8,0:0:0:0:
256,192,15922,1,0,0:0:0:0:
256,192,16094,1,8,0:0:0:0:
256,192,16265,1,8,0:0:0:0:
256,192,16322,1,0,0:0:0:0:
256,192,16380,1,0,0:0:0:0:
256,192,16437,1,8,0:0:0:0:
256,192,16608,1,8,0:0:0:0:
256,192,16780,1,0,0:0:0:0:
256,192,16951,1,0,0:0:0:0:
256,192,17037,1,8,0:0:0:0:
256,192,17208,1,8,0:0:0:0:
256,192,17294,1,0,0:0:0:0:
256,192,17380,1,0,0:0:0:0:
256,192,17465,1,8,0:0:0:0:
256,192,17637,1,0,0:0:0:0:
256,192,17694,1,0,0:0:0:0:
256,192,17751,1,0,0:0:0:0:
256,192,17808,5,0,0:0:0:0:
256,192,17980,1,0,0:0:0:0:
256,192,18066,1,0,0:0:0:0:
256,192,18151,1,8,0:0:0:0:
256,192,18237,1,0,0:0:0:0:
256,192,18408,1,8,0:0:0:0:
256,192,18494,1,0,0:0:0:0:
256,192,18580,1,8,0:0:0:0:
256,192,18666,1,0,0:0:0:0:
256,192,18751,1,0,0:0:0:0:
256,192,18837,1,8,0:0:0:0:
256,192,19008,1,8,0:0:0:0:
256,192,19094,1,0,0:0:0:0:
256,192,19180,1,8,0:0:0:0:
256,192,19351,1,0,0:0:0:0:
256,192,19437,1,0,0:0:0:0:
256,192,19523,1,8,0:0:0:0:
256,192,19694,1,0,0:0:0:0:
256,192,19780,1,8,0:0:0:0:
256,192,19951,1,8,0:0:0:0:
256,192,20037,1,0,0:0:0:0:
256,192,20208,1,8,0:0:0:0:
256,192,20294,1,0,0:0:0:0:
256,192,20380,1,8,0:0:0:0:
256,192,20551,5,8,0:0:0:0:
256,192,20722,1,0,0:0:0:0:
256,192,20808,1,0,0:0:0:0:
256,192,20894,1,8,0:0:0:0:
256,192,21065,1,8,0:0:0:0:
256,192,21151,1,8,0:0:0:0:
256,192,21237,1,0,0:0:0:0:
256,192,21322,1,8,0:0:0:0:
256,192,21408,1,8,0:0:0:0:
256,192,21580,1,8,0:0:0:0:
256,192,21751,1,8,0:0:0:0:
256,192,21837,1,8,0:0:0:0:
256,192,21922,1,0,0:0:0:0:
256,192,22094,1,0,0:0:0:0:
256,192,22265,1,0,0:0:0:0:
256,192,22437,1,0,0:0:0:0:
256,192,22522,1,8,0:0:0:0:
256,192,22608,1,0,0:0:0:0:
256,192,22780,1,0,0:0:0:0:
256,192,22951,1,0,0:0:0:0:
256,192,23122,1,8,0:0:0:0:
256,192,23208,1,8,0:0:0:0:
256,192,23294,1,4,0:0:0:0:
256,192,23637,1,8,0:0:0:0:
256,192,23808,1,0,0:0:0:0:
256,192,23980,1,0,0:0:0:0:
256,192,24065,1,0,0:0:0:0:
256,192,24151,1,0,0:0:0:0:
256,192,24322,1,8,0:0:0:0:
256,192,24665,1,0,0:0:0:0:
256,192,24751,1,8,0:0:0:0:
256,192,24837,1,0,0:0:0:0:
256,192,24922,1,0,0:0:0:0:
256,192,25008,1,8,0:0:0:0:
256,192,25180,1,0,0:0:0:0:
256,192,25265,1,0,0:0:0:0:
256,192,25351,1,0,0:0:0:0:
256,192,25437,1,0,0:0:0:0:
256,192,25522,1,0,0:0:0:0:
256,192,25694,1,8,0:0:0:0:
256,192,26037,1,0,0:0:0:0:
256,192,26208,1,0,0:0:0:0:
256,192,26294,1,0,0:0:0:0:
256,192,26380,1,8,0:0:0:0:
256,192,26551,1,0,0:0:0:0:
256,192,26637,1,0,0:0:0:0:
256,192,26722,1,0,0:0:0:0:
256,192,26808,1,0,0:0:0:0:
256,192,26894,1,0,0:0:0:0:
256,192,27065,1,8,0:0:0:0:
256,192,27237,1,8,0:0:0:0:
256,192,27322,1,8,0:0:0:0:
256,192,27408,1,0,0:0:0:0:
256,192,27580,1,0,0:0:0:0:
256,192,27665,1,0,0:0:0:0:
256,192,27751,1,8,0:0:0:0:
256,192,27922,1,0,0:0:0:0:
256,192,28094,1,8,0:0:0:0:
256,192,28180,1,8,0:0:0:0:
256,192,28265,1,0,0:0:0:0:
256,192,28437,1,8,0:0:0:0:
256,192,28780,5,0,0:0:0:0:
256,192,28951,1,0,0:0:0:0:
256,192,29037,1,0,0:0:0:0:
256,192,29122,1,8,0:0:0:0:
256,192,29294,1,0,0:0:0:0:
256,192,29380,1,0,0:0:0:0:
256,192,29465,1,0,0:0:0:0:
256,192,29637,1,0,0:0:0:0:
256,192,29722,1,0,0:0:0:0:
256,192,29808,1,8,0:0:0:0:
256,192,29980,1,8,0:0:0:0:
256,192,30065,1,8,0:0:0:0:
256,192,30151,1,0,0:0:0:0:
256,192,30237,1,0,0:0:0:0:
256,192,30322,1,0,0:0:0:0:
256,192,30408,1,0,0:0:0:0:
256,192,30494,1,8,0:0:0:0:
256,192,30665,1,8,0:0:0:0:
256,192,30751,1,8,0:0:0:0:
256,192,30837,1,0,0:0:0:0:
256,192,30922,1,0,0:0:0:0:
256,192,31008,1,8,0:0:0:0:
256,192,31094,1,0,0:0:0:0:
256,192,31180,1,8,0:0:0:0:
256,192,31351,1,0,0:0:0:0:
256,192,31522,1,8,0:0:0:0:
256,192,31608,1,0,0:0:0:0:
256,192,31694,1,8,0:0:0:0:
256,192,31780,1,0,0:0:0:0:
256,192,31865,1,8,0:0:0:0:
256,192,31951,1,0,0:0:0:0:
256,192,32037,1,8,0:0:0:0:
256,192,32122,1,0,0:0:0:0:
256,192,32208,1,8,0:0:0:0:
256,192,32294,1,0,0:0:0:0:
256,192,32380,1,8,0:0:0:0:
256,192,32465,1,0,0:0:0:0:
256,192,32551,1,8,0:0:0:0:
256,192,32722,1,8,0:0:0:0:
256,192,32894,1,8,0:0:0:0:
256,192,33065,1,0,0:0:0:0:
256,192,33237,1,0,0:0:0:0:
256,192,33408,1,0,0:0:0:0:
256,192,33494,1,8,0:0:0:0:
256,192,33665,1,8,0:0:0:0:
256,192,33922,1,0,0:0:0:0:
256,192,34008,1,0,0:0:0:0:
256,192,34094,1,0,0:0:0:0:
256,192,34180,1,0,0:0:0:0:
256,192,34265,1,8,0:0:0:0:
256,192,34437,1,0,0:0:0:0:
256,192,34523,1,0,0:0:0:0:
256,192,34609,1,8,0:0:0:0:
256,192,34780,1,0,0:0:0:0:
256,192,34866,1,0,0:0:0:0:
256,192,34951,1,0,0:0:0:0:
256,192,35037,1,8,0:0:0:0:
256,192,35122,1,8,0:0:0:0:
256,192,35208,1,0,0:0:0:0:
256,192,35294,1,8,0:0:0:0:
256,192,35337,1,8,0:0:0:0:
256,192,35465,1,8,0:0:0:0:
256,192,35508,1,8,0:0:0:0:
256,192,35637,1,0,0:0:0:0:
256,192,35722,1,8,0:0:0:0:
256,192,35980,1,8,0:0:0:0:
256,192,36151,1,0,0:0:0:0:
256,192,36237,1,0,0:0:0:0:
256,192,36322,1,8,0:0:0:0:
256,192,36580,1,0,0:0:0:0:
256,192,36665,1,8,0:0:0:0:
256,192,36837,1,0,0:0:0:0:
256,192,36922,1,8,0:0:0:0:
256,192,37008,1,0,0:0:0:0:
256,192,37094,1,0,0:0:0:0:
256,192,37180,1,0,0:0:0:0:
256,192,37265,1,0,0:0:0:0:
256,192,37351,1,8,0:0:0:0:
256,192,37694,1,0,0:0:0:0:
256,192,37780,1,8,0:0:0:0:
256,192,38037,1,0,0:0:0:0:
251,189,38122,1,8,0:0:0:0:
256,192,38208,1,0,0:0:0:0:
256,192,38294,1,0,0:0:0:0:
256,192,38380,1,8,0:0:0:0:
256,192,38465,1,0,0:0:0:0:
256,192,38551,1,8,0:0:0:0:
256,192,38722,1,8,0:0:0:0:
256,192,39065,1,0,0:0:0:0:
256,192,39151,1,0,0:0:0:0:
256,192,39237,1,8,0:0:0:0:
256,192,39322,1,0,0:0:0:0:
256,192,39408,1,8,0:0:0:0:
256,192,39465,1,8,0:0:0:0:
256,192,39522,1,8,0:0:0:0:
256,192,39580,1,8,0:0:0:0:
256,192,39637,1,8,0:0:0:0:
256,192,39694,1,8,0:0:0:0:
256,192,39751,1,0,0:0:0:0:
256,192,39922,1,0,0:0:0:0:
256,192,40008,1,0,0:0:0:0:
256,192,40094,1,8,0:0:0:0:
256,192,40265,1,0,0:0:0:0:
256,192,40351,1,8,0:0:0:0:
256,192,40437,1,0,0:0:0:0:
256,192,40522,1,0,0:0:0:0:
256,192,40608,1,8,0:0:0:0:
256,192,40694,1,0,0:0:0:0:
256,192,40780,1,8,0:0:0:0:
256,192,40822,1,8,0:0:0:0:
256,192,40951,1,8,0:0:0:0:
256,192,40994,1,8,0:0:0:0:
256,192,41122,1,0,0:0:0:0:
256,192,41208,1,8,0:0:0:0:
256,192,41465,1,8,0:0:0:0:
256,192,41637,1,0,0:0:0:0:
256,192,41722,1,0,0:0:0:0:
256,192,41808,1,8,0:0:0:0:
256,192,42065,1,0,0:0:0:0:
256,192,42151,1,8,0:0:0:0:
256,192,42322,1,0,0:0:0:0:
256,192,42408,1,8,0:0:0:0:
256,192,42494,1,0,0:0:0:0:
256,192,42580,1,0,0:0:0:0:
256,192,42665,1,8,0:0:0:0:
256,192,42751,1,0,0:0:0:0:
256,192,42837,1,8,0:0:0:0:
256,192,43180,1,0,0:0:0:0:
256,192,43265,1,8,0:0:0:0:
256,192,43522,1,8,0:0:0:0:
256,192,43608,1,0,0:0:0:0:
256,192,43694,1,8,0:0:0:0:
256,192,43780,1,0,0:0:0:0:
256,192,43865,1,0,0:0:0:0:
256,192,44037,1,8,0:0:0:0:
256,192,44208,1,8,0:0:0:0:
256,192,44551,1,0,0:0:0:0:
256,192,44722,1,0,0:0:0:0:
256,192,44808,1,0,0:0:0:0:
256,192,44894,1,8,0:0:0:0:
256,192,44980,1,8,0:0:0:0:
256,192,45065,1,8,0:0:0:0:
256,192,45151,1,8,0:0:0:0:
256,192,45237,1,0,0:0:0:0:
256,192,45408,1,8,0:0:0:0:
256,192,45494,1,8,0:0:0:0:
256,192,45580,1,0,0:0:0:0:
256,192,45665,1,8,0:0:0:0:
256,192,45751,1,8,0:0:0:0:
256,192,45837,1,8,0:0:0:0:
256,192,45922,1,0,0:0:0:0:
256,192,46008,1,8,0:0:0:0:
256,192,46094,1,8,0:0:0:0:
256,192,46180,1,0,0:0:0:0:
256,192,46222,1,0,0:0:0:0:
256,192,46265,1,8,0:0:0:0:
256,192,46351,1,8,0:0:0:0:
256,192,46437,1,0,0:0:0:0:
256,192,46608,1,0,0:0:0:0:
256,192,46780,1,0,0:0:0:0:
256,192,46822,1,0,0:0:0:0:
256,192,46865,1,8,0:0:0:0:
256,192,46951,1,0,0:0:0:0:
256,192,47122,1,8,0:0:0:0:
256,192,47208,1,8,0:0:0:0:
256,192,47294,1,0,0:0:0:0:
256,192,47380,1,8,0:0:0:0:
256,192,47465,1,0,0:0:0:0:
256,192,47637,1,8,0:0:0:0:
256,192,47694,1,8,0:0:0:0:
256,192,47751,1,8,0:0:0:0:
256,192,47808,1,0,0:0:0:0:
256,192,47980,1,0,0:0:0:0:
256,192,48065,1,8,0:0:0:0:
256,192,48151,1,0,0:0:0:0:
256,192,48237,1,0,0:0:0:0:
256,192,48322,1,8,0:0:0:0:
256,192,48494,1,0,0:0:0:0:
256,192,48551,1,0,0:0:0:0:
256,192,48608,1,0,0:0:0:0:
256,192,48665,1,0,0:0:0:0:
256,192,48922,1,8,0:0:0:0:
256,192,49008,1,0,0:0:0:0:
256,192,49180,1,0,0:0:0:0:
256,192,49265,1,0,0:0:0:0:
256,192,49351,1,0,0:0:0:0:
256,192,49522,1,8,0:0:0:0:
256,192,49608,1,0,0:0:0:0:
256,192,49694,1,8,0:0:0:0:
256,192,49865,1,0,0:0:0:0:
256,192,50037,1,8,0:0:0:0:
256,192,50122,1,0,0:0:0:0:
256,192,50208,1,0,0:0:0:0:
256,192,50294,1,8,0:0:0:0:
256,192,50380,1,0,0:0:0:0:
256,192,50465,1,0,0:0:0:0:
256,192,50551,1,0,0:0:0:0:
256,192,50637,1,0,0:0:0:0:
256,192,50722,1,0,0:0:0:0:
256,192,50894,1,8,0:0:0:0:
256,192,50980,1,0,0:0:0:0:
256,192,51065,1,8,0:0:0:0:
256,192,51151,1,8,0:0:0:0:
256,192,51237,1,0,0:0:0:0:
256,192,51322,1,0,0:0:0:0:
256,192,51408,1,8,0:0:0:0:
256,192,51494,1,0,0:0:0:0:
256,192,51580,1,8,0:0:0:0:
256,192,51666,1,0,0:0:0:0:
256,192,51708,1,0,0:0:0:0:
256,192,51751,1,8,0:0:0:0:
256,192,51837,1,8,0:0:0:0:
256,192,51923,1,0,0:0:0:0:
256,192,52094,1,0,0:0:0:0:
256,192,52266,1,8,0:0:0:0:
256,192,52308,1,8,0:0:0:0:
256,192,52351,1,8,0:0:0:0:
256,192,52437,1,0,0:0:0:0:
256,192,52608,1,8,0:0:0:0:
256,192,52694,1,8,0:0:0:0:
256,192,52780,1,0,0:0:0:0:
256,192,52866,1,8,0:0:0:0:
256,192,52951,1,0,0:0:0:0:
256,192,53123,1,8,0:0:0:0:
256,192,53180,1,8,0:0:0:0:
256,192,53237,1,8,0:0:0:0:
256,192,53294,1,0,0:0:0:0:
256,192,53465,1,0,0:0:0:0:
256,192,53551,1,0,0:0:0:0:
256,192,53637,1,8,0:0:0:0:
256,192,53722,1,0,0:0:0:0:
256,192,53808,1,8,0:0:0:0:
256,192,53980,1,0,0:0:0:0:
256,192,54037,1,0,0:0:0:0:
256,192,54094,1,0,0:0:0:0:
256,192,54151,1,0,0:0:0:0:
256,192,54408,1,0,0:0:0:0:
256,192,54494,1,8,0:0:0:0:
256,192,54665,1,0,0:0:0:0:
256,192,54751,1,0,0:0:0:0:
256,192,54837,1,0,0:0:0:0:
256,192,54922,1,0,0:0:0:0:
256,192,55008,1,8,0:0:0:0:
256,192,55180,1,8,0:0:0:0:
256,192,55522,5,0,0:0:0:0:
256,192,55608,1,0,0:0:0:0:
256,192,55694,1,8,0:0:0:0:
256,192,55780,1,0,0:0:0:0:
256,192,55865,1,8,0:0:0:0:
256,192,55951,1,8,0:0:0:0:
256,192,56037,1,0,0:0:0:0:
256,192,56122,1,8,0:0:0:0:
256,192,56208,1,4,0:0:0:0:
256,192,56551,1,8,0:0:0:0:
256,192,56894,1,0,0:0:0:0:
256,192,56980,1,8,0:0:0:0:
256,192,57065,1,0,0:0:0:0:
256,192,57151,1,0,0:0:0:0:
256,192,57237,1,8,0:0:0:0:
256,192,57322,1,8,0:0:0:0:
256,192,57408,1,0,0:0:0:0:
256,192,57580,1,0,0:0:0:0:
256,192,57751,1,8,0:0:0:0:
256,192,57794,1,8,0:0:0:0:
256,192,57837,1,8,0:0:0:0:
256,192,57922,1,0,0:0:0:0:
256,192,58265,1,0,0:0:0:0:
256,192,58522,1,0,0:0:0:0:
256,192,58608,12,0,58780,0:0:0:0:
256,192,58951,5,0,0:0:0:0:
256,192,59294,1,8,0:0:0:0:
256,192,59465,1,0,0:0:0:0:
256,192,59522,1,0,0:0:0:0:
256,192,59580,1,0,0:0:0:0:
256,192,59637,1,0,0:0:0:0:
256,192,59894,1,0,0:0:0:0:
256,192,59980,1,8,0:0:0:0:
256,192,60151,1,0,0:0:0:0:
256,192,60237,1,0,0:0:0:0:
256,192,60322,1,0,0:0:0:0:
256,192,60494,1,8,0:0:0:0:
256,192,60580,1,8,0:0:0:0:
256,192,60665,1,0,0:0:0:0:
256,192,61008,1,0,0:0:0:0:
256,192,61265,1,0,0:0:0:0:
256,192,61351,1,8,0:0:0:0:
256,192,61437,1,0,0:0:0:0:
256,192,61608,1,0,0:0:0:0:
256,192,61694,1,0,0:0:0:0:
256,192,62037,1,8,0:0:0:0:
256,192,62380,1,0,0:0:0:0:
256,192,62465,1,8,0:0:0:0:
256,192,62551,1,0,0:0:0:0:
256,192,62637,1,0,0:0:0:0:
256,192,62722,1,8,0:0:0:0:
256,192,62808,1,8,0:0:0:0:
256,192,62894,1,0,0:0:0:0:
256,192,63065,1,0,0:0:0:0:
256,192,63237,1,8,0:0:0:0:
256,192,63280,1,8,0:0:0:0:
256,192,63322,1,8,0:0:0:0:
256,192,63408,1,0,0:0:0:0:
256,192,63751,1,0,0:0:0:0:
256,192,64008,1,0,0:0:0:0:
256,192,64094,12,0,64265,0:0:0:0:
256,192,64437,5,0,0:0:0:0:
256,192,64780,1,8,0:0:0:0:
256,192,64951,1,0,0:0:0:0:
256,192,65008,1,0,0:0:0:0:
256,192,65065,1,0,0:0:0:0:
256,192,65122,1,0,0:0:0:0:
256,192,65465,1,4,0:0:0:0:
256,192,65722,5,0,0:0:0:0:
256,192,65765,1,0,0:0:0:0:
256,192,65808,1,8,0:0:0:0:
256,192,65894,1,0,0:0:0:0:
256,192,65980,1,8,0:0:0:0:
256,192,66065,1,0,0:0:0:0:
256,192,66151,1,8,0:0:0:0:
256,192,66237,1,0,0:0:0:0:
256,192,66322,1,8,0:0:0:0:
256,192,66494,1,8,0:0:0:0:
256,192,66580,1,0,0:0:0:0:
256,192,66665,1,8,0:0:0:0:
256,192,66751,1,0,0:0:0:0:
256,192,66837,1,8,0:0:0:0:
256,192,66922,1,8,0:0:0:0:
256,192,67008,1,8,0:0:0:0:
256,192,67094,1,8,0:0:0:0:
256,192,67180,1,0,0:0:0:0:
256,192,68551,1,0,0:0:0:0:
256,192,68894,1,8,0:0:0:0:
256,192,69065,1,0,0:0:0:0:
256,192,69237,1,0,0:0:0:0:
256,192,69322,1,0,0:0:0:0:
256,192,69408,1,0,0:0:0:0:
256,192,69580,1,8,0:0:0:0:
256,192,69922,1,4,0:0:0:0:
256,192,70608,1,4,0:0:0:0:
256,192,71122,1,4,0:0:0:0:
256,192,71294,1,12,0:0:0:0:
256,192,71465,1,4,0:0:0:0:
256,192,71637,1,4,0:0:0:0:
256,192,71980,1,8,0:0:0:0:
256,192,72065,1,0,0:0:0:0:
256,192,72151,1,0,0:0:0:0:
256,192,72322,1,0,0:0:0:0:
256,192,72494,1,0,0:0:0:0:
256,192,72665,1,4,0:0:0:0:
256,192,73008,1,8,0:0:0:0:
256,192,73094,1,8,0:0:0:0:
256,192,73180,1,0,0:0:0:0:
256,192,73237,1,8,0:0:0:0:
256,192,73294,1,8,0:0:0:0:
256,192,73351,1,4,0:0:0:0:
256,192,73694,1,8,0:0:0:0:
256,192,73865,1,0,0:0:0:0:
256,192,74037,1,4,0:0:0:0:
256,192,74380,1,0,0:0:0:0:
256,192,74722,1,8,0:0:0:0:
256,192,74894,1,0,0:0:0:0:
256,192,75065,1,0,0:0:0:0:
256,192,75408,1,4,0:0:0:0:
256,192,75751,1,8,0:0:0:0:
256,192,75922,1,0,0:0:0:0:
256,192,76008,1,8,0:0:0:0:
256,192,76094,1,4,0:0:0:0:
256,192,76437,1,8,0:0:0:0:
256,192,76608,1,0,0:0:0:0:
256,192,76780,1,4,0:0:0:0:
256,192,76951,1,12,0:0:0:0:
256,192,77122,1,4,0:0:0:0:
256,192,77465,1,8,0:0:0:0:
256,192,77551,1,0,0:0:0:0:
256,192,77637,1,0,0:0:0:0:
256,192,77808,1,0,0:0:0:0:
256,192,77980,1,0,0:0:0:0:
256,192,78151,1,4,0:0:0:0:
256,192,78494,1,8,0:0:0:0:
256,192,78551,1,8,0:0:0:0:
256,192,78608,1,8,0:0:0:0:
256,192,78665,1,8,0:0:0:0:
256,192,78751,1,8,0:0:0:0:
256,192,78837,1,4,0:0:0:0:
256,192,79180,1,8,0:0:0:0:
256,192,79265,1,8,0:0:0:0:
256,192,79351,1,0,0:0:0:0:
256,192,79522,1,4,0:0:0:0:
256,192,79694,1,8,0:0:0:0:
256,192,79780,1,8,0:0:0:0:
256,192,79865,1,0,0:0:0:0:
256,192,80037,1,0,0:0:0:0:
256,192,80208,1,8,0:0:0:0:
256,192,80380,1,0,0:0:0:0:
256,192,80551,1,0,0:0:0:0:
256,192,80637,1,0,0:0:0:0:
256,192,80722,1,0,0:0:0:0:
256,192,80894,1,4,0:0:0:0:
256,192,81065,1,8,0:0:0:0:
256,192,81151,1,8,0:0:0:0:
256,192,81237,1,0,0:0:0:0:
256,192,81322,1,8,0:0:0:0:
256,192,81408,1,8,0:0:0:0:
256,192,81494,1,8,0:0:0:0:
256,192,81580,1,0,0:0:0:0:
256,192,81665,1,0,0:0:0:0:
256,192,81751,1,8,0:0:0:0:
256,192,81837,1,8,0:0:0:0:
256,192,81922,1,0,0:0:0:0:
256,192,82008,1,8,0:0:0:0:
256,192,82094,1,0,0:0:0:0:
256,192,82265,1,0,0:0:0:0:
256,192,82437,1,0,0:0:0:0:
256,192,82608,1,8,0:0:0:0:
256,192,82780,1,8,0:0:0:0:
256,192,82865,1,8,0:0:0:0:
256,192,82951,1,0,0:0:0:0:
256,192,83037,1,0,0:0:0:0:
256,192,83122,1,0,0:0:0:0:
256,192,83294,1,8,0:0:0:0:
256,192,83380,1,0,0:0:0:0:
256,192,83465,1,0,0:0:0:0:
256,192,83551,1,0,0:0:0:0:
256,192,83637,1,8,0:0:0:0:
256,192,83808,1,8,0:0:0:0:
256,192,83894,1,0,0:0:0:0:
256,192,83980,1,8,0:0:0:0:
256,192,84151,1,8,0:0:0:0:
256,192,84237,1,8,0:0:0:0:
256,192,84322,1,0,0:0:0:0:
256,192,84408,1,8,0:0:0:0:
256,192,84494,1,0,0:0:0:0:
256,192,84580,1,0,0:0:0:0:
256,192,84665,1,8,0:0:0:0:
256,192,84837,1,8,0:0:0:0:
256,192,84922,1,8,0:0:0:0:
256,192,85008,1,0,0:0:0:0:
256,192,85180,1,0,0:0:0:0:
256,192,85265,1,0,0:0:0:0:
256,192,85351,1,8,0:0:0:0:
256,192,85522,1,8,0:0:0:0:
256,192,85694,1,0,0:0:0:0:
256,192,85865,1,0,0:0:0:0:
256,192,86037,1,8,0:0:0:0:
256,192,86380,1,4,0:0:0:0:
256,192,86551,1,8,0:0:0:0:
256,192,86637,1,8,0:0:0:0:
256,192,86723,1,0,0:0:0:0:
256,192,86808,1,8,0:0:0:0:
256,192,86894,1,8,0:0:0:0:
256,192,86980,1,8,0:0:0:0:
256,192,87066,1,0,0:0:0:0:
256,192,87151,1,0,0:0:0:0:
256,192,87237,1,8,0:0:0:0:
256,192,87323,1,8,0:0:0:0:
256,192,87408,1,0,0:0:0:0:
256,192,87494,1,8,0:0:0:0:
256,192,87580,1,0,0:0:0:0:
256,192,87751,1,0,0:0:0:0:
256,192,87923,1,0,0:0:0:0:
256,192,88094,1,8,0:0:0:0:
256,192,88266,1,8,0:0:0:0:
256,192,88351,1,8,0:0:0:0:
256,192,88437,1,0,0:0:0:0:
256,192,88523,1,0,0:0:0:0:
256,192,88608,1,0,0:0:0:0:
256,192,88780,1,8,0:0:0:0:
256,192,88866,1,8,0:0:0:0:
256,192,88951,1,0,0:0:0:0:
256,192,89037,1,8,0:0:0:0:
256,192,89123,1,0,0:0:0:0:
256,192,89294,1,8,0:0:0:0:
256,192,89380,1,0,0:0:0:0:
256,192,89466,1,8,0:0:0:0:
256,192,89637,1,8,0:0:0:0:
256,192,89723,1,8,0:0:0:0:
256,192,89808,1,0,0:0:0:0:
256,192,89894,1,8,0:0:0:0:
256,192,89980,1,8,0:0:0:0:
256,192,90066,1,8,0:0:0:0:
256,192,90151,1,0,0:0:0:0:
256,192,90237,1,0,0:0:0:0:
256,192,90323,1,8,0:0:0:0:
256,192,90408,1,8,0:0:0:0:
256,192,90494,1,0,0:0:0:0:
256,192,90580,1,8,0:0:0:0:
256,192,90665,1,8,0:0:0:0:
256,192,90751,1,8,0:0:0:0:
256,192,90837,1,0,0:0:0:0:
256,192,90922,1,0,0:0:0:0:
256,192,91008,1,0,0:0:0:0:
256,192,91094,1,8,0:0:0:0:
256,192,91180,1,0,0:0:0:0:
256,192,91351,1,0,0:0:0:0:
256,192,91522,1,12,0:0:0:0:
256,192,91865,12,0,97351,0:0:0:0:
256,192,102837,5,0,0:0:0:0:
256,192,103008,1,0,0:0:0:0:
256,192,103180,1,8,0:0:0:0:
256,192,103437,1,8,0:0:0:0:
256,192,103608,1,8,0:0:0:0:
256,192,103694,1,0,0:0:0:0:
256,192,103865,1,8,0:0:0:0:
256,192,103951,1,0,0:0:0:0:
256,192,104122,1,0,0:0:0:0:
256,192,104208,1,0,0:0:0:0:
256,192,104380,1,0,0:0:0:0:
256,192,104551,1,8,0:0:0:0:
256,192,104808,1,8,0:0:0:0:
256,192,104980,1,8,0:0:0:0:
256,192,105065,1,0,0:0:0:0:
256,192,105237,1,8,0:0:0:0:
256,192,105408,1,0,0:0:0:0:
256,192,105580,1,0,0:0:0:0:
256,192,105751,1,0,0:0:0:0:
256,192,105922,1,8,0:0:0:0:
256,192,106180,1,8,0:0:0:0:
256,192,106351,1,8,0:0:0:0:
256,192,106437,1,0,0:0:0:0:
256,192,106608,1,8,0:0:0:0:
256,192,106780,1,0,0:0:0:0:
256,192,106865,1,0,0:0:0:0:
256,192,106951,1,0,0:0:0:0:
256,192,107122,1,0,0:0:0:0:
256,192,107294,1,8,0:0:0:0:
256,192,107551,1,8,0:0:0:0:
256,192,107722,1,8,0:0:0:0:
256,192,107808,1,0,0:0:0:0:
256,192,107980,1,8,0:0:0:0:
256,192,108322,5,0,0:0:0:0:
256,192,108493,1,0,0:0:0:0:
256,192,108665,1,8,0:0:0:0:
256,192,108922,1,8,0:0:0:0:
256,192,109008,1,0,0:0:0:0:
256,192,109093,1,8,0:0:0:0:
256,192,109180,1,0,0:0:0:0:
256,192,109350,1,8,0:0:0:0:
256,192,109436,1,0,0:0:0:0:
256,192,109607,1,0,0:0:0:0:
256,192,109693,1,0,0:0:0:0:
256,192,109865,1,0,0:0:0:0:
256,192,110036,1,8,0:0:0:0:
256,192,110293,1,8,0:0:0:0:
256,192,110379,1,0,0:0:0:0:
256,192,110465,1,8,0:0:0:0:
256,192,110550,1,0,0:0:0:0:
256,192,110722,1,8,0:0:0:0:
256,192,110808,1,0,0:0:0:0:
256,192,110893,1,0,0:0:0:0:
256,192,111065,1,0,0:0:0:0:
256,192,111236,1,0,0:0:0:0:
256,192,111407,1,8,0:0:0:0:
256,192,111579,1,0,0:0:0:0:
256,192,111665,1,8,0:0:0:0:
256,192,111751,1,0,0:0:0:0:
256,192,111836,1,8,0:0:0:0:
256,192,111922,1,0,0:0:0:0:
256,192,112093,1,8,0:0:0:0:
256,192,112265,1,8,0:0:0:0:
256,192,112350,1,8,0:0:0:0:
256,192,112436,1,0,0:0:0:0:
256,192,112607,1,0,0:0:0:0:
256,192,112779,1,8,0:0:0:0:
256,192,112950,1,8,0:0:0:0:
256,192,113036,1,0,0:0:0:0:
256,192,113122,1,8,0:0:0:0:
256,192,113207,1,8,0:0:0:0:
256,192,113293,1,0,0:0:0:0:
256,192,113465,1,8,0:0:0:0:
256,192,113808,1,0,0:0:0:0:
256,192,113980,1,0,0:0:0:0:
256,192,114065,1,0,0:0:0:0:
256,192,114151,1,8,0:0:0:0:
256,192,114237,1,0,0:0:0:0:
256,192,114408,1,8,0:0:0:0:
256,192,114494,1,0,0:0:0:0:
256,192,114580,1,8,0:0:0:0:
256,192,114665,1,0,0:0:0:0:
256,192,114751,1,0,0:0:0:0:
256,192,114837,1,8,0:0:0:0:
256,192,115008,1,8,0:0:0:0:
256,192,115094,1,0,0:0:0:0:
256,192,115180,1,0,0:0:0:0:
256,192,115351,1,8,0:0:0:0:
256,192,115437,1,8,0:0:0:0:
256,192,115522,1,0,0:0:0:0:
256,192,115608,1,8,0:0:0:0:
256,192,115780,1,8,0:0:0:0:
256,192,115865,1,0,0:0:0:0:
256,192,115951,1,8,0:0:0:0:
256,192,116122,1,8,0:0:0:0:
256,192,116208,1,8,0:0:0:0:
256,192,116294,1,0,0:0:0:0:
256,192,116380,1,8,0:0:0:0:
256,192,116465,1,8,0:0:0:0:
256,192,116551,1,0,0:0:0:0:
256,192,116722,1,0,0:0:0:0:
256,192,116807,1,0,0:0:0:0:
256,192,116893,1,8,0:0:0:0:
256,192,116979,1,0,0:0:0:0:
256,192,117150,1,8,0:0:0:0:
256,192,117236,1,0,0:0:0:0:
256,192,117322,1,8,0:0:0:0:
256,192,117407,1,0,0:0:0:0:
256,192,117493,1,0,0:0:0:0:
256,192,117579,1,8,0:0:0:0:
256,192,117751,1,8,0:0:0:0:
256,192,117837,1,0,0:0:0:0:
256,192,117922,1,0,0:0:0:0:
256,192,118094,1,0,0:0:0:0:
256,192,118180,1,0,0:0:0:0:
256,192,118265,1,8,0:0:0:0:
256,192,118437,1,0,0:0:0:0:
256,192,118522,1,8,0:0:0:0:
256,192,118608,1,0,0:0:0:0:
256,192,118694,1,8,0:0:0:0:
256,192,118780,1,0,0:0:0:0:
256,192,118951,1,8,0:0:0:0:
256,192,119037,1,0,0:0:0:0:
256,192,119122,1,0,0:0:0:0:
256,192,119208,1,8,0:0:0:0:
256,192,119294,1,0,0:0:0:0:
256,192,119465,1,0,0:0:0:0:
256,192,119551,1,0,0:0:0:0:
256,192,119637,1,8,0:0:0:0:
256,192,119722,1,0,0:0:0:0:
256,192,119894,1,8,0:0:0:0:
256,192,119980,1,0,0:0:0:0:
256,192,120066,1,8,0:0:0:0:
256,192,120151,1,8,0:0:0:0:
256,192,120237,1,0,0:0:0:0:
256,192,120323,1,8,0:0:0:0:
256,192,120494,1,8,0:0:0:0:
256,192,120580,1,8,0:0:0:0:
256,192,120666,1,0,0:0:0:0:
256,192,120837,1,8,0:0:0:0:
256,192,120922,1,0,0:0:0:0:
256,192,121008,1,8,0:0:0:0:
256,192,121180,1,0,0:0:0:0:
256,192,121265,1,8,0:0:0:0:
256,192,121351,1,0,0:0:0:0:
256,192,121437,1,8,0:0:0:0:
256,192,121522,1,8,0:0:0:0:
256,192,121694,1,8,0:0:0:0:
256,192,121780,1,0,0:0:0:0:
256,192,121865,1,0,0:0:0:0:
256,192,122037,5,0,0:0:0:0:
256,192,122208,1,0,0:0:0:0:
256,192,122294,1,0,0:0:0:0:
256,192,122380,1,8,0:0:0:0:
256,192,122551,1,0,0:0:0:0:
256,192,122637,1,8,0:0:0:0:
256,192,122722,1,0,0:0:0:0:
256,192,122808,1,8,0:0:0:0:
256,192,122894,1,0,0:0:0:0:
256,192,123065,1,8,0:0:0:0:
256,192,123237,1,8,0:0:0:0:
256,192,123322,1,0,0:0:0:0:
256,192,123408,1,0,0:0:0:0:
256,192,123580,1,0,0:0:0:0:
256,192,123751,1,8,0:0:0:0:
256,192,123922,1,0,0:0:0:0:
256,192,124008,1,8,0:0:0:0:
256,192,124094,1,0,0:0:0:0:
256,192,124180,1,8,0:0:0:0:
256,192,124265,1,0,0:0:0:0:
256,192,124437,1,8,0:0:0:0:
256,192,124780,1,4,0:0:0:0:
256,192,124951,1,0,0:0:0:0:
256,192,125037,1,0,0:0:0:0:
256,192,125122,1,8,0:0:0:0:
256,192,125294,1,0,0:0:0:0:
256,192,125380,1,0,0:0:0:0:
256,192,125551,1,0,0:0:0:0:
256,192,125637,1,0,0:0:0:0:
256,192,125722,1,0,0:0:0:0:
256,192,125808,1,8,0:0:0:0:
256,192,125980,1,0,0:0:0:0:
256,192,126065,1,0,0:0:0:0:
256,192,126151,1,0,0:0:0:0:
256,192,126322,1,0,0:0:0:0:
256,192,126408,1,0,0:0:0:0:
256,192,126494,1,8,0:0:0:0:
256,192,126665,1,0,0:0:0:0:
256,192,126837,1,0,0:0:0:0:
256,192,127008,1,0,0:0:0:0:
256,192,127094,1,0,0:0:0:0:
256,192,127180,1,8,0:0:0:0:
256,192,127522,1,0,0:0:0:0:
256,192,127694,1,8,0:0:0:0:
256,192,127780,1,0,0:0:0:0:
256,192,127865,1,8,0:0:0:0:
256,192,128037,1,0,0:0:0:0:
256,192,128122,1,0,0:0:0:0:
256,192,128208,1,0,0:0:0:0:
256,192,128380,1,0,0:0:0:0:
256,192,128465,1,0,0:0:0:0:
256,192,128551,1,8,0:0:0:0:
256,192,128722,1,0,0:0:0:0:
256,192,128808,1,0,0:0:0:0:
256,192,128894,1,0,0:0:0:0:
256,192,128980,1,0,0:0:0:0:
256,192,129065,1,0,0:0:0:0:
256,192,129151,1,0,0:0:0:0:
256,192,129237,1,8,0:0:0:0:
256,192,129408,1,0,0:0:0:0:
256,192,129580,1,8,0:0:0:0:
256,192,129665,1,0,0:0:0:0:
256,192,129751,1,0,0:0:0:0:
256,192,129837,1,0,0:0:0:0:
256,192,129922,1,8,0:0:0:0:
256,192,130265,1,8,0:0:0:0:
256,192,130437,1,0,0:0:0:0:
256,192,130522,1,0,0:0:0:0:
256,192,130608,1,8,0:0:0:0:
256,192,130780,1,0,0:0:0:0:
256,192,130865,1,0,0:0:0:0:
256,192,130951,1,8,0:0:0:0:
256,192,131122,1,0,0:0:0:0:
256,192,131294,1,8,0:0:0:0:
256,192,131465,1,8,0:0:0:0:
256,192,131551,1,0,0:0:0:0:
256,192,131637,1,8,0:0:0:0:
256,192,131808,1,0,0:0:0:0:
256,192,131980,1,8,0:0:0:0:
256,192,132151,1,8,0:0:0:0:
256,192,132237,1,0,0:0:0:0:
256,192,132322,1,8,0:0:0:0:
256,192,132494,1,8,0:0:0:0:
256,192,132665,1,8,0:0:0:0:
256,192,133008,1,8,0:0:0:0:
256,192,133094,1,8,0:0:0:0:
256,192,133180,1,8,0:0:0:0:
256,192,133265,1,8,0:0:0:0:
256,192,133351,1,0,0:0:0:0:
256,192,133437,1,8,0:0:0:0:
256,192,133522,1,8,0:0:0:0:
256,192,133608,1,8,0:0:0:0:
256,192,133694,1,0,0:0:0:0:
256,192,133780,1,8,0:0:0:0:
256,192,133865,1,8,0:0:0:0:
256,192,133951,1,8,0:0:0:0:
256,192,134037,1,8,0:0:0:0:
256,192,134122,1,8,0:0:0:0:
256,192,134208,1,8,0:0:0:0:
256,192,134294,1,8,0:0:0:0:
256,192,134380,1,8,0:0:0:0:
256,192,134551,1,0,0:0:0:0:
256,192,134722,1,8,0:0:0:0:
256,192,134894,1,0,0:0:0:0:
256,192,134980,1,8,0:0:0:0:
256,192,135065,1,0,0:0:0:0:
256,192,135122,1,0,0:0:0:0:
256,192,135180,1,0,0:0:0:0:
256,192,135237,1,8,0:0:0:0:
256,192,135408,1,8,0:0:0:0:
256,192,135494,1,8,0:0:0:0:
256,192,135580,1,8,0:0:0:0:
256,192,135751,1,4,0:0:0:0:
256,192,136780,1,8,0:0:0:0:
256,192,136822,1,8,0:0:0:0:
256,192,136951,1,0,0:0:0:0:
256,192,136994,1,0,0:0:0:0:
256,192,137122,1,12,0:0:0:0:
256,192,137465,1,0,0:0:0:0:
256,192,137522,1,8,0:0:0:0:
256,192,137580,1,8,0:0:0:0:
256,192,137637,1,8,0:0:0:0:
256,192,137808,5,0,0:0:0:0:
256,192,138065,1,0,0:0:0:0:
256,192,138322,1,0,0:0:0:0:
256,192,138494,1,0,0:0:0:0:
256,192,138580,1,0,0:0:0:0:
256,192,138665,1,0,0:0:0:0:
256,192,138751,1,0,0:0:0:0:
256,192,138837,1,8,0:0:0:0:
256,192,139180,1,0,0:0:0:0:
256,192,139266,1,8,0:0:0:0:
256,192,139523,1,0,0:0:0:0:
251,189,139608,1,8,0:0:0:0:
256,192,139694,1,0,0:0:0:0:
256,192,139780,1,0,0:0:0:0:
256,192,139866,1,8,0:0:0:0:
256,192,139951,1,0,0:0:0:0:
256,192,140037,1,8,0:0:0:0:
256,192,140208,1,8,0:0:0:0:
256,192,140551,1,0,0:0:0:0:
256,192,140637,1,0,0:0:0:0:
256,192,140723,1,8,0:0:0:0:
256,192,140808,1,0,0:0:0:0:
256,192,140894,1,8,0:0:0:0:
256,192,140951,1,8,0:0:0:0:
256,192,141008,1,8,0:0:0:0:
256,192,141066,1,8,0:0:0:0:
256,192,141123,1,8,0:0:0:0:
256,192,141180,1,8,0:0:0:0:
256,192,141237,1,0,0:0:0:0:
256,192,141408,1,0,0:0:0:0:
256,192,141494,1,0,0:0:0:0:
256,192,141580,1,8,0:0:0:0:
256,192,141751,1,0,0:0:0:0:
256,192,141837,1,8,0:0:0:0:
256,192,141923,1,0,0:0:0:0:
256,192,142008,1,0,0:0:0:0:
256,192,142094,1,8,0:0:0:0:
256,192,142180,1,0,0:0:0:0:
256,192,142266,1,8,0:0:0:0:
256,192,142308,1,8,0:0:0:0:
256,192,142437,1,8,0:0:0:0:
256,192,142480,1,8,0:0:0:0:
256,192,142608,1,0,0:0:0:0:
256,192,142694,1,8,0:0:0:0:
256,192,142951,1,8,0:0:0:0:
256,192,143123,1,0,0:0:0:0:
256,192,143208,1,0,0:0:0:0:
256,192,143294,1,8,0:0:0:0:
256,192,143551,1,0,0:0:0:0:
256,192,143637,1,8,0:0:0:0:
256,192,143808,1,0,0:0:0:0:
256,192,143894,1,8,0:0:0:0:
256,192,143980,1,0,0:0:0:0:
256,192,144066,1,0,0:0:0:0:
256,192,144151,1,8,0:0:0:0:
256,192,144237,1,0,0:0:0:0:
256,192,144323,1,8,0:0:0:0:
256,192,144666,1,0,0:0:0:0:
256,192,144751,1,8,0:0:0:0:
256,192,145008,1,8,0:0:0:0:
256,192,145094,1,0,0:0:0:0:
256,192,145180,1,8,0:0:0:0:
256,192,145266,1,0,0:0:0:0:
256,192,145351,1,0,0:0:0:0:
256,192,145523,1,8,0:0:0:0:
256,192,145694,1,8,0:0:0:0:
256,192,146037,1,0,0:0:0:0:
256,192,146208,1,0,0:0:0:0:
256,192,146294,1,0,0:0:0:0:
256,192,146380,1,8,0:0:0:0:
256,192,146466,1,8,0:0:0:0:
256,192,146551,1,8,0:0:0:0:
256,192,146637,1,8,0:0:0:0:
256,192,146723,1,0,0:0:0:0:
256,192,146894,1,8,0:0:0:0:
256,192,146980,1,8,0:0:0:0:
256,192,147066,1,0,0:0:0:0:
256,192,147151,1,8,0:0:0:0:
256,192,147237,1,8,0:0:0:0:
256,192,147323,1,8,0:0:0:0:
256,192,147408,1,0,0:0:0:0:
256,192,147494,1,8,0:0:0:0:
256,192,147580,1,8,0:0:0:0:
256,192,147666,1,0,0:0:0:0:
256,192,147708,1,0,0:0:0:0:
256,192,147751,1,8,0:0:0:0:
256,192,147837,1,8,0:0:0:0:
256,192,147923,1,0,0:0:0:0:
256,192,148094,1,0,0:0:0:0:
256,192,148266,1,0,0:0:0:0:
256,192,148308,1,0,0:0:0:0:
256,192,148351,1,8,0:0:0:0:
256,192,148437,1,0,0:0:0:0:
256,192,148608,1,8,0:0:0:0:
256,192,148694,1,8,0:0:0:0:
256,192,148780,1,0,0:0:0:0:
256,192,148866,1,8,0:0:0:0:
256,192,148951,1,0,0:0:0:0:
256,192,149123,1,8,0:0:0:0:
256,192,149180,1,8,0:0:0:0:
256,192,149237,1,8,0:0:0:0:
256,192,149294,1,0,0:0:0:0:
256,192,149466,1,0,0:0:0:0:
256,192,149551,1,8,0:0:0:0:
256,192,149637,1,0,0:0:0:0:
256,192,149723,1,0,0:0:0:0:
256,192,149808,1,8,0:0:0:0:
256,192,149980,1,0,0:0:0:0:
256,192,150037,1,0,0:0:0:0:
256,192,150094,1,0,0:0:0:0:
256,192,150151,1,0,0:0:0:0:
256,192,150408,1,8,0:0:0:0:
256,192,150494,1,0,0:0:0:0:
256,192,150666,1,0,0:0:0:0:
256,192,150751,1,0,0:0:0:0:
256,192,150837,1,0,0:0:0:0:
256,192,151008,1,8,0:0:0:0:
256,192,151094,1,0,0:0:0:0:
256,192,151180,1,8,0:0:0:0:
256,192,151351,1,0,0:0:0:0:
256,192,151523,1,8,0:0:0:0:
256,192,151608,1,0,0:0:0:0:
256,192,151694,1,0,0:0:0:0:
256,192,151780,1,8,0:0:0:0:
256,192,151866,1,0,0:0:0:0:
256,192,151951,1,0,0:0:0:0:
256,192,152037,1,0,0:0:0:0:
256,192,152123,1,0,0:0:0:0:
256,192,152208,1,0,0:0:0:0:
256,192,152380,1,8,0:0:0:0:
256,192,152466,1,0,0:0:0:0:
256,192,152551,1,8,0:0:0:0:
256,192,152637,1,8,0:0:0:0:
256,192,152723,1,0,0:0:0:0:
256,192,152808,1,0,0:0:0:0:
256,192,152894,1,8,0:0:0:0:
256,192,152980,1,0,0:0:0:0:
256,192,153066,1,8,0:0:0:0:
256,192,153152,1,0,0:0:0:0:
256,192,153194,1,0,0:0:0:0:
256,192,153237,1,8,0:0:0:0:
256,192,153323,1,8,0:0:0:0:
256,192,153409,1,0,0:0:0:0:
256,192,153580,1,0,0:0:0:0:
256,192,153752,1,8,0:0:0:0:
256,192,153794,1,8,0:0:0:0:
256,192,153837,1,8,0:0:0:0:
256,192,153923,1,0,0:0:0:0:
256,192,154094,1,8,0:0:0:0:
256,192,154180,1,8,0:0:0:0:
256,192,154266,1,0,0:0:0:0:
256,192,154352,1,8,0:0:0:0:
256,192,154437,1,0,0:0:0:0:
256,192,154609,1,8,0:0:0:0:
256,192,154666,1,8,0:0:0:0:
256,192,154723,1,8,0:0:0:0:
256,192,154780,1,0,0:0:0:0:
256,192,154951,1,0,0:0:0:0:
256,192,155037,1,0,0:0:0:0:
256,192,155123,1,8,0:0:0:0:
256,192,155208,1,0,0:0:0:0:
256,192,155294,1,8,0:0:0:0:
256,192,155466,1,0,0:0:0:0:
256,192,155523,1,0,0:0:0:0:
256,192,155580,1,0,0:0:0:0:
256,192,155637,1,0,0:0:0:0:
256,192,155894,1,0,0:0:0:0:
256,192,155980,1,8,0:0:0:0:
256,192,156151,1,0,0:0:0:0:
256,192,156237,1,0,0:0:0:0:
256,192,156323,1,0,0:0:0:0:
256,192,156408,1,0,0:0:0:0:
256,192,156494,1,8,0:0:0:0:
256,192,156666,1,8,0:0:0:0:
256,192,157008,1,0,0:0:0:0:
256,192,157094,1,0,0:0:0:0:
256,192,157180,1,8,0:0:0:0:
256,192,157266,1,0,0:0:0:0:
256,192,157351,1,8,0:0:0:0:
256,192,157437,1,8,0:0:0:0:
256,192,157523,1,0,0:0:0:0:
256,192,157608,1,8,0:0:0:0:
256,192,157694,1,4,0:0:0:0:
256,192,158037,1,8,0:0:0:0:
256,192,158380,1,0,0:0:0:0:
256,192,158466,1,8,0:0:0:0:
256,192,158551,1,0,0:0:0:0:
256,192,158637,1,0,0:0:0:0:
256,192,158723,1,8,0:0:0:0:
256,192,158808,1,8,0:0:0:0:
256,192,158894,1,0,0:0:0:0:
256,192,159066,1,0,0:0:0:0:
256,192,159237,1,8,0:0:0:0:
256,192,159280,1,8,0:0:0:0:
256,192,159323,1,8,0:0:0:0:
256,192,159408,1,0,0:0:0:0:
256,192,159751,1,0,0:0:0:0:
256,192,160008,1,0,0:0:0:0:
256,192,160094,12,0,160266,0:0:0:0:
256,192,160437,5,0,0:0:0:0:
256,192,160780,1,8,0:0:0:0:
256,192,160951,1,0,0:0:0:0:
256,192,161008,1,0,0:0:0:0:
256,192,161066,1,0,0:0:0:0:
256,192,161123,1,0,0:0:0:0:
256,192,161380,1,0,0:0:0:0:
256,192,161466,1,8,0:0:0:0:
256,192,161637,1,0,0:0:0:0:
256,192,161723,1,0,0:0:0:0:
256,192,161808,1,0,0:0:0:0:
256,192,161980,1,8,0:0:0:0:
256,192,162066,1,8,0:0:0:0:
256,192,162151,1,0,0:0:0:0:
256,192,162494,1,0,0:0:0:0:
256,192,162751,1,0,0:0:0:0:
256,192,162837,1,8,0:0:0:0:
256,192,162923,1,0,0:0:0:0:
256,192,163094,1,0,0:0:0:0:
256,192,163180,1,0,0:0:0:0:
256,192,163523,1,8,0:0:0:0:
256,192,163866,1,0,0:0:0:0:
256,192,163951,1,8,0:0:0:0:
256,192,164037,1,0,0:0:0:0:
256,192,164123,1,0,0:0:0:0:
256,192,164208,1,8,0:0:0:0:
256,192,164294,1,8,0:0:0:0:
256,192,164380,1,0,0:0:0:0:
256,192,164551,1,0,0:0:0:0:
256,192,164723,1,8,0:0:0:0:
256,192,164766,1,8,0:0:0:0:
256,192,164808,1,8,0:0:0:0:
256,192,164894,1,0,0:0:0:0:
256,192,165237,1,0,0:0:0:0:
256,192,165494,1,0,0:0:0:0:
256,192,165580,12,0,165751,0:0:0:0:
256,192,165923,5,0,0:0:0:0:
256,192,166266,1,8,0:0:0:0:
256,192,166437,1,0,0:0:0:0:
256,192,166494,1,0,0:0:0:0:
256,192,166551,1,0,0:0:0:0:
256,192,166608,1,0,0:0:0:0:
256,192,166951,1,4,0:0:0:0:
256,192,167208,5,0,0:0:0:0:
256,192,167251,1,0,0:0:0:0:
256,192,167294,1,8,0:0:0:0:
256,192,167380,1,0,0:0:0:0:
256,192,167466,1,8,0:0:0:0:
256,192,167551,1,0,0:0:0:0:
256,192,167637,1,8,0:0:0:0:
256,192,167723,1,0,0:0:0:0:
256,192,167808,1,8,0:0:0:0:
256,192,167980,1,8,0:0:0:0:
256,192,168066,1,0,0:0:0:0:
256,192,168151,1,8,0:0:0:0:
256,192,168237,1,0,0:0:0:0:
256,192,168323,1,8,0:0:0:0:
256,192,168408,1,8,0:0:0:0:
256,192,168494,1,8,0:0:0:0:
256,192,168580,1,8,0:0:0:0:
256,192,168666,1,0,0:0:0:0:
