osu file format v14

[General]
AudioFilename: audio.mp3
AudioLeadIn: 0
PreviewTime: 34265
Countdown: 0
SampleSet: Normal
StackLeniency: 0.7
Mode: 1
LetterboxInBreaks: 0
WidescreenStoryboard: 0

[Editor]
DistanceSpacing: 2.9
BeatDivisor: 4
GridSize: 32
TimelineZoom: 2.1

[Metadata]
Title:Inventor
TitleUnicode:Inventor
Artist:Aiyru
ArtistUnicode:Aiyru
Creator:WTHBRO
Version:Inner Oni
Source:
Tags:instrumental electronic future bass
BeatmapID:2454748
BeatmapSetID:1177003

[Difficulty]
HPDrainRate:5
CircleSize:5
OverallDifficulty:5
ApproachRate:5
SliderMultiplier:1.4
SliderTickRate:1

[Events]
//Background and Video events
0,0,"inventor.jpg",0,140
//Break Periods
//Storyboard Layer 0 (Background)
//Storyboard Layer 1 (Fail)
//Storyboard Layer 2 (Pass)
//Storyboard Layer 3 (Foreground)
//Storyboard Layer 4 (Overlay)
//Storyboard Sound Samples

[TimingPoints]
-20,342.857142857143,4,1,0,70,1,0
1351,-142.857142857143,4,1,0,70,0,0
6837,-125,4,1,0,75,0,0
12322,-111.111111111111,4,1,0,75,0,0
19180,-109.89010989011,4,1,0,75,0,0
19351,-108.695652173913,4,1,0,75,0,0
19437,-108.108108108108,4,1,0,75,0,0
19522,-106.382978723404,4,1,0,75,0,0
19694,-105.263157894737,4,1,0,75,0,0
19865,-104.166666666667,4,1,0,75,0,0
20037,-103.092783505155,4,1,0,75,0,0
20208,-102.040816326531,4,1,0,75,0,0
20294,-101.010101010101,4,1,0,75,0,0
20380,-100,4,1,0,75,0,0
20551,-99.009900990099,4,1,0,75,0,0
20722,-98.0392156862745,4,1,0,75,0,0
20894,-97.0873786407767,4,1,0,75,0,0
21065,-96.1538461538461,4,1,0,75,0,0
21237,-95.2380952380952,4,1,0,75,0,0
21408,-93.4579439252336,4,1,0,75,0,0
21580,-92.5925925925926,4,1,0,75,0,0
21751,-91.743119266055,4,1,0,75,0,0
21922,-90.9090909090909,4,1,0,75,0,0
22094,-90.0900900900901,4,1,0,75,0,0
22265,-89.2857142857143,4,1,0,75,0,0
22437,-88.4955752212389,4,1,0,75,0,0
22608,-87.719298245614,4,1,0,75,0,0
22694,-86.9565217391304,4,1,0,75,0,0
22780,-86.2068965517241,4,1,0,75,0,0
22951,-85.4700854700855,4,1,0,75,0,0
23122,-84.7457627118644,4,1,0,75,0,0
23294,-83.3333333333333,4,1,0,80,0,0
32894,-83.3333333333333,4,1,0,70,0,0
33922,-84.0336134453781,4,1,0,80,0,0
34008,-84.7457627118644,4,1,0,80,0,0
34094,-85.4700854700855,4,1,0,80,0,0
34180,-86.2068965517241,4,1,0,80,0,0
34265,-86.9565217391304,4,1,0,90,0,1
39408,-83.3333333333333,4,1,0,90,0,1
39751,-86.9565217391304,4,1,0,90,0,1
45237,-86.9565217391304,4,1,0,95,0,1
56208,-86.9565217391304,4,1,0,75,0,0
56551,-87.719298245614,4,1,0,75,0,0
56894,-88.4955752212389,4,1,0,75,0,0
56980,-89.2857142857143,4,1,0,75,0,0
57065,-90.0900900900901,4,1,0,75,0,0
57151,-90.9090909090909,4,1,0,75,0,0
57237,-91.743119266055,4,1,0,75,0,0
57322,-92.5925925925926,4,1,0,75,0,0
57408,-93.4579439252336,4,1,0,75,0,0
57494,-94.3396226415094,4,1,0,75,0,0
57580,-95.2380952380952,4,1,0,75,0,0
57665,-96.1538461538461,4,1,0,75,0,0
57922,-97.0873786407767,4,1,0,75,0,0
58094,-98.0392156862745,4,1,0,75,0,0
58180,-99.009900990099,4,1,0,75,0,0
58265,-100,4,1,0,75,0,0
65808,-96.1538461538461,4,1,0,80,0,0
65980,-92.5925925925926,4,1,0,80,0,0
66151,-89.2857142857143,4,1,0,80,0,0
66322,-86.2068965517241,4,1,0,80,0,0
66494,-83.3333333333333,4,1,0,80,0,0
66665,-80.6451612903226,4,1,0,80,0,0
67351,-90.9090909090909,4,1,0,70,0,0
68551,-90.9090909090909,4,1,0,75,0,0
69922,-83.3333333333333,4,1,0,80,0,1
70094,-83.3333333333333,4,1,0,80,0,0
70608,-83.3333333333333,4,1,0,80,0,1
70780,-83.3333333333333,4,1,0,80,0,0
71122,-83.3333333333333,4,1,0,80,0,1
80722,-80.6451612903226,4,1,0,90,0,1
91865,-95.2380952380952,4,1,0,70,0,0
102837,-95.2380952380952,4,1,0,75,0,0
120665,-94.3396226415094,4,1,0,75,0,0
122037,-93.4579439252336,4,1,0,80,0,0
122208,-92.5925925925926,4,1,0,80,0,0
122380,-91.743119266055,4,1,0,80,0,0
122551,-90.9090909090909,4,1,0,80,0,0
122637,-90.0900900900901,4,1,0,80,0,0
122722,-89.2857142857143,4,1,0,80,0,0
122808,-88.4955752212389,4,1,0,80,0,0
122894,-87.719298245614,4,1,0,80,0,0
123065,-86.9565217391304,4,1,0,80,0,0
123237,-86.2068965517241,4,1,0,80,0,0
123408,-85.4700854700855,4,1,0,80,0,0
123580,-84.7457627118644,4,1,0,80,0,0
123751,-84.0336134453781,4,1,0,80,0,0
123922,-83.3333333333333,4,1,0,80,0,0
124094,-82.6446280991736,4,1,0,80,0,0
124180,-81.9672131147541,4,1,0,80,0,0
124265,-81.3008130081301,4,1,0,80,0,0
124437,-80.6451612903226,4,1,0,80,0,0
124608,-80,4,1,0,80,0,0
124780,-80,4,1,0,85,0,0
134380,-80,4,1,0,75,0,0
134551,-81.9672131147541,4,1,0,75,0,0
134722,-84.0336134453781,4,1,0,75,0,0
134894,-86.2068965517241,4,1,0,75,0,0
134980,-88.4955752212389,4,1,0,75,0,0
135151,-90.9090909090909,4,1,0,75,0,0
135408,-94.3396226415094,4,1,0,80,0,0
135494,-96.1538461538461,4,1,0,80,0,0
135580,-98.0392156862745,4,1,0,80,0,0
135665,-100,4,1,0,80,0,0
135751,-102.040816326531,4,1,0,80,0,0
135837,-104.166666666667,4,1,0,80,0,0
135922,-106.382978723404,4,1,0,80,0,0
136094,-111.111111111111,4,1,0,80,0,0
137808,-90.9090909090909,4,1,0,80,0,0
138065,-83.3333333333333,4,1,0,80,0,0
138494,-83.3333333333333,4,1,0,90,0,1
140894,-80,4,1,0,90,0,1
141237,-83.3333333333333,4,1,0,90,0,1
146722,-83.3333333333333,4,1,0,95,0,1
157608,-84.0336134453781,4,1,0,95,0,1
157694,-84.7457627118644,4,1,0,80,0,0
157780,-85.4700854700855,4,1,0,80,0,0
157865,-86.2068965517241,4,1,0,80,0,0
158037,-87.719298245614,4,1,0,80,0,0
158122,-89.2857142857143,4,1,0,80,0,0
158208,-90.9090909090909,4,1,0,80,0,0
158380,-94.3396226415094,4,1,0,80,0,0
158551,-95.2380952380952,4,1,0,80,0,0
158637,-96.1538461538461,4,1,0,80,0,0
158722,-97.0873786407767,4,1,0,80,0,0
158808,-98.0392156862745,4,1,0,80,0,0
158894,-99.009900990099,4,1,0,80,0,0
158980,-100,4,1,0,80,0,0
160437,-100,4,1,0,75,0,0
167294,-98.0392156862745,4,1,0,85,0,0
167465,-96.1538461538461,4,1,0,100,0,0
167637,-94.3396226415094,4,1,0,100,0,0
167808,-92.5925925925926,4,1,0,100,0,0
167980,-90.9090909090909,4,1,0,100,0,0
168151,-89.2857142857143,4,1,0,100,0,0
168322,-87.719298245614,4,1,0,100,0,0
168408,-86.2068965517241,4,1,0,100,0,0
168494,-84.7457627118644,4,1,0,100,0,0
168580,-81.9672131147541,4,1,0,100,0,0

[HitObjects]
288,160,1351,5,0,0:0:0:0:
288,160,1694,1,0,0:0:0:0:
288,160,1865,1,8,0:0:0:0:
288,160,2122,1,8,0:0:0:0:
288,160,2208,1,8,0:0:0:0:
288,160,2380,1,8,0:0:0:0:
288,160,2551,1,0,0:0:0:0:
288,160,2722,1,0,0:0:0:0:
288,160,2980,1,8,0:0:0:0:
288,160,3065,1,0,0:0:0:0:
288,160,3408,1,8,0:0:0:0:
288,160,3580,1,8,0:0:0:0:
288,160,3751,1,8,0:0:0:0:
288,160,3837,1,0,0:0:0:0:
288,160,3922,1,0,0:0:0:0:
288,160,4094,1,0,0:0:0:0:
288,160,4437,1,0,0:0:0:0:
288,160,4608,1,8,0:0:0:0:
288,160,4865,1,8,0:0:0:0:
288,160,4951,1,8,0:0:0:0:
288,160,5122,1,8,0:0:0:0:
288,160,5294,1,0,0:0:0:0:
288,160,5465,1,0,0:0:0:0:
288,160,5637,1,8,0:0:0:0:
288,160,5808,5,8,0:0:0:0:
288,160,5980,1,0,0:0:0:0:
288,160,6151,1,0,0:0:0:0:
288,160,6237,1,8,0:0:0:0:
288,160,6322,1,8,0:0:0:0:
288,160,6494,1,8,0:0:0:0:
288,160,6665,1,0,0:0:0:0:
288,160,6837,5,0,0:0:0:0:
288,160,7008,1,0,0:0:0:0:
288,160,7180,1,8,0:0:0:0:
288,160,7351,1,0,0:0:0:0:
288,160,7437,1,8,0:0:0:0:
288,160,7522,1,0,0:0:0:0:
288,160,7608,1,8,0:0:0:0:
288,160,7694,1,0,0:0:0:0:
288,160,7865,1,8,0:0:0:0:
288,160,7951,1,0,0:0:0:0:
288,160,8122,1,0,0:0:0:0:
288,160,8208,5,0,0:0:0:0:
288,160,8379,1,0,0:0:0:0:
288,160,8551,1,8,0:0:0:0:
288,160,8722,1,0,0:0:0:0:
288,160,8808,1,8,0:0:0:0:
288,160,8893,1,0,0:0:0:0:
288,160,8979,1,8,0:0:0:0:
288,160,9065,1,0,0:0:0:0:
288,160,9236,1,8,0:0:0:0:
288,160,9408,1,0,0:0:0:0:
288,160,9580,5,0,0:0:0:0:
288,160,9751,1,0,0:0:0:0:
288,160,9923,1,8,0:0:0:0:
288,160,10094,1,0,0:0:0:0:
288,160,10180,1,8,0:0:0:0:
288,160,10265,1,0,0:0:0:0:
288,160,10351,1,8,0:0:0:0:
288,160,10437,1,0,0:0:0:0:
288,160,10608,1,8,0:0:0:0:
288,160,10951,5,0,0:0:0:0:
288,160,11122,1,0,0:0:0:0:
288,160,11294,1,8,0:0:0:0:
288,160,11465,1,0,0:0:0:0:
288,160,11551,1,8,0:0:0:0:
288,160,11636,1,0,0:0:0:0:
288,160,11722,1,8,0:0:0:0:
288,160,11808,1,0,0:0:0:0:
288,160,11979,1,8,0:0:0:0:
288,160,12322,1,0,0:0:0:0:
288,160,12494,1,0,0:0:0:0:
288,160,12665,1,8,0:0:0:0:
288,160,12837,1,0,0:0:0:0:
288,160,12922,1,8,0:0:0:0:
288,160,13008,1,0,0:0:0:0:
288,160,13094,1,8,0:0:0:0:
288,160,13180,1,0,0:0:0:0:
288,160,13265,1,8,0:0:0:0:
288,160,13351,1,8,0:0:0:0:
288,160,13522,1,8,0:0:0:0:
288,160,13694,1,0,0:0:0:0:
288,160,13866,1,0,0:0:0:0:
249,160,13951,1,8,0:0:0:0:
288,160,14037,1,8,0:0:0:0:
288,160,14209,1,0,0:0:0:0:
288,160,14294,1,8,0:0:0:0:
288,160,14380,1,0,0:0:0:0:
288,160,14465,1,8,0:0:0:0:
288,160,14552,1,0,0:0:0:0:
288,160,14637,1,0,0:0:0:0:
288,160,14723,1,8,0:0:0:0:
294,168,14808,1,8,0:0:0:0:
288,160,14894,1,0,0:0:0:0:
288,160,15065,1,0,0:0:0:0:
288,160,15237,1,0,0:0:0:0:
288,160,15408,1,8,0:0:0:0:
288,160,15580,1,0,0:0:0:0:
288,160,15665,1,8,0:0:0:0:
288,160,15751,1,0,0:0:0:0:
288,160,15837,1,8,0:0:0:0:
288,160,15923,1,0,0:0:0:0:
288,160,16008,1,8,0:0:0:0:
288,160,16094,1,8,0:0:0:0:
288,160,16265,1,8,0:0:0:0:
288,160,16437,1,0,0:0:0:0:
288,160,16609,1,0,0:0:0:0:
288,160,16780,1,8,0:0:0:0:
288,160,16952,1,8,0:0:0:0:
288,160,17037,1,8,0:0:0:0:
288,160,17123,1,0,0:0:0:0:
288,160,17208,1,0,0:0:0:0:
288,160,17295,1,8,0:0:0:0:
288,160,17465,1,8,0:0:0:0:
288,160,17637,1,8,0:0:0:0:
288,160,17808,1,0,0:0:0:0:
288,160,17980,1,0,0:0:0:0:
288,160,18151,1,8,0:0:0:0:
288,160,18323,1,0,0:0:0:0:
288,160,18408,1,8,0:0:0:0:
288,160,18494,1,0,0:0:0:0:
288,160,18580,1,8,0:0:0:0:
288,160,18666,1,0,0:0:0:0:
288,160,18751,1,8,0:0:0:0:
288,160,18837,1,8,0:0:0:0:
288,160,19008,1,8,0:0:0:0:
288,160,19180,1,0,0:0:0:0:
288,160,19351,1,0,0:0:0:0:
288,160,19437,1,8,0:0:0:0:
288,160,19522,1,0,0:0:0:0:
288,160,19694,1,8,0:0:0:0:
288,160,19865,1,8,0:0:0:0:
288,160,20037,1,8,0:0:0:0:
288,160,20208,1,8,0:0:0:0:
288,160,20294,1,0,0:0:0:0:
288,160,20380,1,0,0:0:0:0:
288,160,20551,1,0,0:0:0:0:
288,160,20722,1,8,0:0:0:0:
288,160,20894,1,8,0:0:0:0:
288,160,21065,1,8,0:0:0:0:
288,160,21237,1,8,0:0:0:0:
288,160,21322,1,8,0:0:0:0:
288,160,21408,1,8,0:0:0:0:
288,160,21580,1,8,0:0:0:0:
288,160,21751,1,8,0:0:0:0:
288,160,21922,1,0,0:0:0:0:
288,160,22094,1,8,0:0:0:0:
288,160,22265,1,8,0:0:0:0:
288,160,22437,1,8,0:0:0:0:
288,160,22608,1,0,0:0:0:0:
288,160,22694,1,0,0:0:0:0:
288,160,22780,1,8,0:0:0:0:
288,160,22951,1,8,0:0:0:0:
288,160,23122,1,8,0:0:0:0:
288,160,23294,1,4,0:0:0:0:
288,160,23380,1,8,0:0:0:0:
288,160,23551,1,8,0:0:0:0:
288,160,23637,1,8,0:0:0:0:
288,160,23808,1,0,0:0:0:0:
288,160,23980,1,8,0:0:0:0:
288,160,24065,1,8,0:0:0:0:
288,160,24151,1,0,0:0:0:0:
288,160,24322,1,8,0:0:0:0:
288,160,24494,1,0,0:0:0:0:
288,160,24665,1,8,0:0:0:0:
288,160,24837,1,0,0:0:0:0:
288,160,25008,1,8,0:0:0:0:
288,160,25180,1,8,0:0:0:0:
288,160,25351,1,8,0:0:0:0:
288,160,25437,1,8,0:0:0:0:
288,160,25522,1,0,0:0:0:0:
288,160,25694,1,8,0:0:0:0:
288,160,26037,1,0,0:0:0:0:
280,151,26122,1,0,0:0:0:0:
288,160,26294,1,0,0:0:0:0:
288,160,26380,1,8,0:0:0:0:
288,160,26551,1,0,0:0:0:0:
288,160,26722,1,8,0:0:0:0:
275,154,26808,1,0,0:0:0:0:
288,160,26894,1,0,0:0:0:0:
288,160,27065,1,8,0:0:0:0:
288,160,27237,1,8,0:0:0:0:
288,160,27408,1,8,0:0:0:0:
275,154,27494,1,8,0:0:0:0:
288,160,27580,1,0,0:0:0:0:
288,160,27751,1,8,0:0:0:0:
288,160,27922,1,0,0:0:0:0:
288,160,28094,1,8,0:0:0:0:
275,154,28180,1,8,0:0:0:0:
288,160,28265,1,0,0:0:0:0:
288,160,28437,1,8,0:0:0:0:
288,160,28780,1,0,0:0:0:0:
276,148,29122,1,8,0:0:0:0:
276,149,29465,1,8,0:0:0:0:
276,149,29637,1,0,0:0:0:0:
276,149,29808,1,8,0:0:0:0:
288,160,30151,1,8,0:0:0:0:
256,153,30322,1,0,0:0:0:0:
288,160,30494,1,8,0:0:0:0:
288,160,30665,1,8,0:0:0:0:
288,160,30837,1,8,0:0:0:0:
256,153,31008,1,0,0:0:0:0:
288,160,31180,1,8,0:0:0:0:
288,160,31351,1,8,0:0:0:0:
288,160,31522,1,8,0:0:0:0:
288,160,31608,1,8,0:0:0:0:
288,160,31694,1,0,0:0:0:0:
288,160,31780,1,0,0:0:0:0:
288,160,31865,1,8,0:0:0:0:
288,160,31951,1,0,0:0:0:0:
288,160,32037,1,0,0:0:0:0:
288,160,32122,1,8,0:0:0:0:
288,160,32208,1,0,0:0:0:0:
288,160,32294,1,8,0:0:0:0:
288,160,32380,1,0,0:0:0:0:
288,160,32465,1,0,0:0:0:0:
288,160,32551,1,8,0:0:0:0:
288,160,32637,1,8,0:0:0:0:
288,160,32722,1,8,0:0:0:0:
288,160,32808,1,8,0:0:0:0:
288,160,32894,1,8,0:0:0:0:
288,160,33065,1,0,0:0:0:0:
288,160,33237,1,8,0:0:0:0:
288,160,33408,1,0,0:0:0:0:
288,160,33494,1,8,0:0:0:0:
288,160,33665,1,8,0:0:0:0:
288,160,33922,1,0,0:0:0:0:
288,160,34008,1,0,0:0:0:0:
288,160,34094,1,0,0:0:0:0:
288,160,34180,1,0,0:0:0:0:
288,160,34265,1,0,0:0:0:0:
288,160,34351,1,0,0:0:0:0:
288,160,34437,1,8,0:0:0:0:
288,160,34608,1,0,0:0:0:0:
288,160,34694,1,0,0:0:0:0:
288,160,34780,1,8,0:0:0:0:
288,160,34951,1,0,0:0:0:0:
288,160,35037,1,8,0:0:0:0:
288,160,35122,1,8,0:0:0:0:
288,160,35208,1,0,0:0:0:0:
288,160,35294,1,8,0:0:0:0:
288,160,35380,1,8,0:0:0:0:
288,160,35465,1,0,0:0:0:0:
288,160,35551,1,8,0:0:0:0:
288,160,35637,1,0,0:0:0:0:
288,160,35722,1,8,0:0:0:0:
288,160,35980,1,8,0:0:0:0:
288,160,36322,1,0,0:0:0:0:
288,160,36408,1,8,0:0:0:0:
288,160,36580,1,0,0:0:0:0:
288,160,36665,1,8,0:0:0:0:
288,160,36837,1,0,0:0:0:0:
288,160,36922,1,8,0:0:0:0:
288,160,37008,1,0,0:0:0:0:
288,160,37094,1,0,0:0:0:0:
288,160,37180,1,8,0:0:0:0:
288,160,37265,1,8,0:0:0:0:
288,160,37351,1,8,0:0:0:0:
288,160,37694,1,0,0:0:0:0:
288,160,37780,1,8,0:0:0:0:
288,160,37865,1,8,0:0:0:0:
288,160,38037,1,0,0:0:0:0:
288,160,38122,1,8,0:0:0:0:
288,160,38208,1,0,0:0:0:0:
288,160,38294,1,0,0:0:0:0:
288,160,38380,1,0,0:0:0:0:
288,160,38465,1,8,0:0:0:0:
288,160,38551,1,8,0:0:0:0:
288,160,38722,1,8,0:0:0:0:
288,160,39065,1,0,0:0:0:0:
288,160,39322,1,0,0:0:0:0:
216,162,39408,2,0,L|177:105,2,45.4999979171754
288,160,39751,5,0,0:0:0:0:
288,160,39837,1,0,0:0:0:0:
288,160,39922,1,8,0:0:0:0:
288,160,40094,1,0,0:0:0:0:
288,160,40180,1,0,0:0:0:0:
288,160,40265,1,8,0:0:0:0:
288,160,40437,1,0,0:0:0:0:
288,160,40523,1,8,0:0:0:0:
288,160,40608,1,8,0:0:0:0:
288,160,40694,1,0,0:0:0:0:
288,160,40780,1,8,0:0:0:0:
288,160,40866,1,8,0:0:0:0:
288,160,40951,1,0,0:0:0:0:
288,160,41037,1,8,0:0:0:0:
288,160,41122,1,0,0:0:0:0:
288,160,41208,1,8,0:0:0:0:
288,160,41465,1,8,0:0:0:0:
288,160,41808,1,0,0:0:0:0:
288,160,41894,1,8,0:0:0:0:
288,160,42065,1,0,0:0:0:0:
288,160,42151,1,8,0:0:0:0:
288,160,42322,1,0,0:0:0:0:
288,160,42408,1,8,0:0:0:0:
288,160,42494,1,0,0:0:0:0:
288,160,42580,1,0,0:0:0:0:
288,160,42665,1,8,0:0:0:0:
288,160,42751,1,8,0:0:0:0:
288,160,42837,1,8,0:0:0:0:
288,160,43180,1,0,0:0:0:0:
288,160,43265,1,0,0:0:0:0:
288,160,43351,1,8,0:0:0:0:
288,160,43522,1,0,0:0:0:0:
288,160,43607,1,8,0:0:0:0:
288,160,43693,1,0,0:0:0:0:
288,160,43779,1,0,0:0:0:0:
288,160,43865,1,0,0:0:0:0:
288,160,43951,1,8,0:0:0:0:
288,160,44036,1,8,0:0:0:0:
288,160,44208,1,8,0:0:0:0:
288,160,44551,1,0,0:0:0:0:
288,160,44637,1,0,0:0:0:0:
288,160,44722,1,8,0:0:0:0:
288,160,44894,1,8,0:0:0:0:
288,160,45065,1,0,0:0:0:0:
288,160,45237,1,0,0:0:0:0:
288,160,45322,1,0,0:0:0:0:
288,160,45408,1,8,0:0:0:0:
288,160,45494,1,8,0:0:0:0:
288,160,45580,1,0,0:0:0:0:
288,160,45665,1,0,0:0:0:0:
288,160,45751,1,8,0:0:0:0:
288,160,45837,1,8,0:0:0:0:
288,160,45922,1,0,0:0:0:0:
288,160,46008,1,8,0:0:0:0:
288,160,46093,1,8,0:0:0:0:
288,160,46179,1,0,0:0:0:0:
288,160,46265,1,8,0:0:0:0:
288,160,46351,1,8,0:0:0:0:
288,160,46436,1,0,0:0:0:0:
288,160,46522,1,8,0:0:0:0:
288,160,46608,1,0,0:0:0:0:
288,160,46694,1,8,0:0:0:0:
288,160,46951,1,8,0:0:0:0:
288,160,47294,1,0,0:0:0:0:
288,160,47380,1,8,0:0:0:0:
288,160,47551,1,0,0:0:0:0:
288,160,47637,1,8,0:0:0:0:
288,160,47808,1,0,0:0:0:0:
288,160,47894,1,8,0:0:0:0:
288,160,47980,1,0,0:0:0:0:
288,160,48065,1,8,0:0:0:0:
288,160,48151,1,8,0:0:0:0:
288,160,48237,1,8,0:0:0:0:
288,160,48322,1,0,0:0:0:0:
288,160,48665,1,0,0:0:0:0:
288,160,48751,1,8,0:0:0:0:
288,160,48837,1,8,0:0:0:0:
288,160,49008,1,0,0:0:0:0:
288,160,49094,1,8,0:0:0:0:
288,160,49180,1,8,0:0:0:0:
288,160,49265,1,0,0:0:0:0:
288,160,49351,1,0,0:0:0:0:
288,160,49437,1,8,0:0:0:0:
288,160,49522,1,8,0:0:0:0:
288,160,49694,1,8,0:0:0:0:
288,160,50037,1,0,0:0:0:0:
288,160,50294,1,0,0:0:0:0:
288,160,50380,1,8,0:0:0:0:
288,160,50465,1,0,0:0:0:0:
288,160,50637,1,0,0:0:0:0:
288,160,50722,1,0,0:0:0:0:
288,160,50808,1,0,0:0:0:0:
288,160,50894,1,8,0:0:0:0:
288,160,50980,1,8,0:0:0:0:
288,160,51065,1,0,0:0:0:0:
288,160,51151,1,0,0:0:0:0:
288,160,51237,1,8,0:0:0:0:
288,160,51322,1,8,0:0:0:0:
288,160,51408,1,0,0:0:0:0:
288,160,51494,1,8,0:0:0:0:
288,160,51579,1,8,0:0:0:0:
288,160,51665,1,0,0:0:0:0:
288,160,51751,1,8,0:0:0:0:
288,160,51837,1,8,0:0:0:0:
288,160,51922,1,0,0:0:0:0:
288,160,52008,1,8,0:0:0:0:
288,160,52094,1,0,0:0:0:0:
288,160,52180,1,8,0:0:0:0:
288,160,52437,1,8,0:0:0:0:
288,160,52780,1,0,0:0:0:0:
288,160,52865,1,8,0:0:0:0:
288,160,53037,1,0,0:0:0:0:
288,160,53122,1,8,0:0:0:0:
288,160,53294,1,0,0:0:0:0:
288,160,53380,1,8,0:0:0:0:
288,160,53465,1,0,0:0:0:0:
288,160,53551,1,8,0:0:0:0:
288,160,53637,1,8,0:0:0:0:
288,160,53722,1,8,0:0:0:0:
288,160,53808,1,0,0:0:0:0:
288,160,54151,1,0,0:0:0:0:
288,160,54237,1,8,0:0:0:0:
288,160,54322,1,8,0:0:0:0:
288,160,54494,1,0,0:0:0:0:
288,160,54580,1,8,0:0:0:0:
288,160,54666,1,8,0:0:0:0:
288,160,54751,1,0,0:0:0:0:
288,160,54837,1,0,0:0:0:0:
288,160,54923,1,8,0:0:0:0:
288,160,55008,1,8,0:0:0:0:
288,160,55180,1,8,0:0:0:0:
288,160,55522,1,0,0:0:0:0:
288,160,55780,1,0,0:0:0:0:
288,160,55865,1,8,0:0:0:0:
288,160,55951,1,0,0:0:0:0:
288,160,56122,1,0,0:0:0:0:
288,160,56208,1,0,0:0:0:0:
288,160,56294,1,0,0:0:0:0:
288,160,56380,1,8,0:0:0:0:
288,160,56551,1,0,0:0:0:0:
288,160,56637,1,0,0:0:0:0:
288,160,56722,1,8,0:0:0:0:
288,160,56894,1,0,0:0:0:0:
288,160,56980,1,0,0:0:0:0:
288,160,57065,1,8,0:0:0:0:
288,160,57151,1,0,0:0:0:0:
288,160,57237,1,8,0:0:0:0:
288,160,57322,1,8,0:0:0:0:
288,160,57408,1,0,0:0:0:0:
288,160,57494,1,8,0:0:0:0:
288,160,57580,1,0,0:0:0:0:
288,160,57665,1,8,0:0:0:0:
288,160,57922,1,8,0:0:0:0:
288,160,58094,1,0,0:0:0:0:
288,160,58180,1,8,0:0:0:0:
288,160,58265,1,0,0:0:0:0:
288,160,58522,1,0,0:0:0:0:
288,160,58608,1,8,0:0:0:0:
288,160,58780,1,0,0:0:0:0:
288,160,58865,1,8,0:0:0:0:
288,160,58951,1,0,0:0:0:0:
288,160,59037,1,8,0:0:0:0:
288,160,59122,1,8,0:0:0:0:
288,160,59208,1,8,0:0:0:0:
288,160,59294,1,0,0:0:0:0:
288,160,59637,1,0,0:0:0:0:
288,160,59722,1,8,0:0:0:0:
288,160,59808,1,8,0:0:0:0:
288,160,59980,1,0,0:0:0:0:
288,160,60065,1,8,0:0:0:0:
288,160,60151,1,0,0:0:0:0:
288,160,60237,1,0,0:0:0:0:
288,160,60322,1,0,0:0:0:0:
288,160,60408,1,8,0:0:0:0:
288,160,60494,1,0,0:0:0:0:
288,160,60580,1,8,0:0:0:0:
288,160,60665,1,8,0:0:0:0:
288,160,60837,1,8,0:0:0:0:
288,160,60922,1,8,0:0:0:0:
288,160,61008,1,0,0:0:0:0:
288,160,61265,1,0,0:0:0:0:
288,160,61351,1,8,0:0:0:0:
288,160,61437,1,0,0:0:0:0:
288,160,61608,1,0,0:0:0:0:
288,160,61694,1,0,0:0:0:0:
288,160,61780,1,0,0:0:0:0:
288,160,61865,1,8,0:0:0:0:
288,160,62037,1,0,0:0:0:0:
288,160,62122,1,0,0:0:0:0:
288,160,62208,1,8,0:0:0:0:
288,160,62380,1,0,0:0:0:0:
288,160,62466,1,0,0:0:0:0:
288,160,62551,1,8,0:0:0:0:
288,160,62637,1,0,0:0:0:0:
288,160,62723,1,8,0:0:0:0:
288,160,62808,1,8,0:0:0:0:
288,160,62894,1,0,0:0:0:0:
288,160,62980,1,8,0:0:0:0:
288,160,63066,1,0,0:0:0:0:
288,160,63151,1,8,0:0:0:0:
288,160,63408,1,8,0:0:0:0:
288,160,63580,1,0,0:0:0:0:
288,160,63666,1,8,0:0:0:0:
288,160,63751,1,0,0:0:0:0:
288,160,64008,1,0,0:0:0:0:
288,160,64094,1,8,0:0:0:0:
288,160,64265,1,0,0:0:0:0:
288,160,64351,1,8,0:0:0:0:
288,160,64437,1,0,0:0:0:0:
288,160,64522,1,0,0:0:0:0:
288,160,64608,1,0,0:0:0:0:
288,160,64694,1,8,0:0:0:0:
288,160,64780,1,8,0:0:0:0:
288,160,65122,1,0,0:0:0:0:
288,160,65465,1,8,0:0:0:0:
288,160,65551,1,8,0:0:0:0:
288,160,65637,1,0,0:0:0:0:
288,160,65808,1,8,0:0:0:0:
288,160,65980,1,8,0:0:0:0:
288,160,66151,1,8,0:0:0:0:
288,160,66322,1,8,0:0:0:0:
288,160,66494,1,8,0:0:0:0:
288,160,66665,1,8,0:0:0:0:
288,160,66837,1,8,0:0:0:0:
288,160,66922,1,8,0:0:0:0:
288,160,67008,1,8,0:0:0:0:
288,160,67094,1,8,0:0:0:0:
288,160,67180,1,4,0:0:0:0:
288,160,68551,1,0,0:0:0:0:
288,160,68722,1,0,0:0:0:0:
288,160,68894,1,8,0:0:0:0:
288,160,69065,1,0,0:0:0:0:
288,160,69237,1,0,0:0:0:0:
288,160,69322,1,8,0:0:0:0:
288,160,69408,1,0,0:0:0:0:
288,160,69580,1,8,0:0:0:0:
288,160,69666,1,0,0:0:0:0:
288,160,69922,1,0,0:0:0:0:
288,160,70008,1,0,0:0:0:0:
288,160,70094,1,8,0:0:0:0:
288,160,70608,1,8,0:0:0:0:
288,160,70694,1,0,0:0:0:0:
288,160,70780,1,8,0:0:0:0:
288,160,71122,1,0,0:0:0:0:
288,160,71208,1,8,0:0:0:0:
288,160,71294,1,0,0:0:0:0:
288,160,71465,1,0,0:0:0:0:
288,160,71637,1,0,0:0:0:0:
288,160,71980,1,8,0:0:0:0:
288,160,72065,1,0,0:0:0:0:
288,160,72151,1,0,0:0:0:0:
288,160,72322,1,0,0:0:0:0:
288,160,72494,1,0,0:0:0:0:
288,160,72665,1,0,0:0:0:0:
288,160,72751,1,0,0:0:0:0:
288,160,72837,1,8,0:0:0:0:
277,144,73008,1,0,0:0:0:0:
288,160,73094,1,8,0:0:0:0:
288,160,73180,1,8,0:0:0:0:
288,160,73265,1,0,0:0:0:0:
288,160,73351,1,8,0:0:0:0:
288,160,73437,1,0,0:0:0:0:
288,160,73522,1,8,0:0:0:0:
288,160,73694,1,0,0:0:0:0:
288,160,73865,1,8,0:0:0:0:
288,160,74037,1,0,0:0:0:0:
288,160,74208,1,8,0:0:0:0:
288,160,74294,1,0,0:0:0:0:
288,160,74380,1,0,0:0:0:0:
288,160,74465,1,8,0:0:0:0:
288,160,74637,1,8,0:0:0:0:
288,160,74722,1,8,0:0:0:0:
288,160,74808,1,8,0:0:0:0:
288,160,74894,1,0,0:0:0:0:
288,160,75065,1,0,0:0:0:0:
288,160,75408,1,0,0:0:0:0:
288,160,75494,1,0,0:0:0:0:
288,160,75580,1,8,0:0:0:0:
288,160,75751,1,0,0:0:0:0:
288,160,75837,1,0,0:0:0:0:
288,160,75922,1,8,0:0:0:0:
288,160,76008,1,8,0:0:0:0:
288,160,76094,1,8,0:0:0:0:
288,160,76180,1,0,0:0:0:0:
288,160,76265,1,8,0:0:0:0:
288,160,76437,1,8,0:0:0:0:
288,160,76608,1,0,0:0:0:0:
288,160,76694,1,8,0:0:0:0:
288,160,76780,1,0,0:0:0:0:
288,160,76865,1,8,0:0:0:0:
288,160,76951,1,0,0:0:0:0:
288,160,77122,1,0,0:0:0:0:
288,160,77465,1,8,0:0:0:0:
288,160,77551,1,0,0:0:0:0:
288,160,77637,1,0,0:0:0:0:
288,160,77808,1,0,0:0:0:0:
288,160,77980,1,0,0:0:0:0:
288,160,78151,1,0,0:0:0:0:
288,160,78237,1,0,0:0:0:0:
288,160,78322,1,8,0:0:0:0:
288,160,78494,1,8,0:0:0:0:
288,160,78551,1,8,0:0:0:0:
288,160,78608,1,8,0:0:0:0:
288,160,78665,1,8,0:0:0:0:
288,160,78837,1,8,0:0:0:0:
288,160,78922,1,0,0:0:0:0:
288,160,79008,1,8,0:0:0:0:
288,160,79180,1,0,0:0:0:0:
288,160,79265,1,0,0:0:0:0:
288,160,79351,1,0,0:0:0:0:
288,160,79437,1,0,0:0:0:0:
288,160,79522,1,0,0:0:0:0:
288,160,79694,1,8,0:0:0:0:
288,160,79780,1,8,0:0:0:0:
288,160,79865,1,0,0:0:0:0:
288,160,79951,1,8,0:0:0:0:
288,160,80122,1,8,0:0:0:0:
288,160,80208,1,8,0:0:0:0:
288,160,80294,1,8,0:0:0:0:
288,160,80380,1,0,0:0:0:0:
288,160,80551,1,0,0:0:0:0:
288,160,80894,1,0,0:0:0:0:
288,160,80980,1,0,0:0:0:0:
288,160,81065,1,8,0:0:0:0:
288,160,81237,1,0,0:0:0:0:
288,160,81322,1,0,0:0:0:0:
288,160,81408,1,8,0:0:0:0:
288,160,81580,1,0,0:0:0:0:
288,160,81665,1,0,0:0:0:0:
288,160,81751,1,0,0:0:0:0:
288,160,81837,1,0,0:0:0:0:
288,160,81922,1,8,0:0:0:0:
288,160,82094,1,8,0:0:0:0:
288,160,82180,1,8,0:0:0:0:
288,160,82265,1,0,0:0:0:0:
288,160,82351,1,8,0:0:0:0:
288,160,82437,1,0,0:0:0:0:
288,160,82608,1,8,0:0:0:0:
288,160,82951,1,0,0:0:0:0:
288,160,83037,1,0,0:0:0:0:
288,160,83122,1,0,0:0:0:0:
288,160,83294,1,8,0:0:0:0:
288,160,83465,1,0,0:0:0:0:
288,160,83551,1,8,0:0:0:0:
288,160,83637,1,0,0:0:0:0:
288,160,83722,1,0,0:0:0:0:
288,160,83808,1,8,0:0:0:0:
288,160,83980,1,8,0:0:0:0:
288,160,84065,1,0,0:0:0:0:
288,160,84151,1,8,0:0:0:0:
288,160,84322,1,0,0:0:0:0:
288,160,84408,1,0,0:0:0:0:
288,160,84494,1,8,0:0:0:0:
288,128,84665,1,8,0:0:0:0:
288,160,84751,1,8,0:0:0:0:
288,160,84837,1,8,0:0:0:0:
288,160,84922,1,8,0:0:0:0:
288,160,85008,1,0,0:0:0:0:
288,160,85094,1,0,0:0:0:0:
288,160,85180,1,0,0:0:0:0:
288,160,85351,1,8,0:0:0:0:
288,160,85437,1,0,0:0:0:0:
288,160,85522,1,0,0:0:0:0:
288,160,85694,1,0,0:0:0:0:
288,160,85780,1,8,0:0:0:0:
288,160,85865,1,0,0:0:0:0:
288,160,85951,1,0,0:0:0:0:
288,160,86037,1,8,0:0:0:0:
288,160,86380,1,0,0:0:0:0:
288,160,86465,1,0,0:0:0:0:
288,160,86551,1,8,0:0:0:0:
288,160,86722,1,0,0:0:0:0:
288,160,86808,1,0,0:0:0:0:
288,160,86894,1,8,0:0:0:0:
288,160,87065,1,0,0:0:0:0:
288,160,87151,1,0,0:0:0:0:
288,160,87237,1,0,0:0:0:0:
288,160,87322,1,0,0:0:0:0:
288,160,87408,1,8,0:0:0:0:
288,160,87580,1,0,0:0:0:0:
288,160,87665,1,8,0:0:0:0:
288,160,87751,1,0,0:0:0:0:
288,160,87837,1,8,0:0:0:0:
288,160,87922,1,0,0:0:0:0:
288,160,88094,1,8,0:0:0:0:
288,160,88437,1,0,0:0:0:0:
288,160,88522,1,0,0:0:0:0:
288,160,88608,1,0,0:0:0:0:
288,160,88780,1,8,0:0:0:0:
288,160,88951,1,0,0:0:0:0:
288,160,89037,1,8,0:0:0:0:
288,160,89122,1,0,0:0:0:0:
288,160,89208,1,0,0:0:0:0:
288,160,89294,1,8,0:0:0:0:
288,160,89465,1,8,0:0:0:0:
288,160,89551,1,0,0:0:0:0:
288,160,89637,1,8,0:0:0:0:
288,160,89808,1,0,0:0:0:0:
288,160,89894,1,0,0:0:0:0:
288,160,89980,1,8,0:0:0:0:
288,160,90151,1,8,0:0:0:0:
288,160,90237,1,8,0:0:0:0:
288,160,90322,1,0,0:0:0:0:
288,160,90408,1,8,0:0:0:0:
288,160,90494,1,0,0:0:0:0:
288,160,90580,1,0,0:0:0:0:
288,160,90665,1,0,0:0:0:0:
288,160,90837,1,8,0:0:0:0:
288,160,90922,1,0,0:0:0:0:
288,160,91008,1,0,0:0:0:0:
288,160,91180,1,0,0:0:0:0:
288,160,91351,1,0,0:0:0:0:
288,160,91544,1,0,0:0:0:0:
288,160,91865,1,0,0:0:0:0:
288,160,92808,1,8,0:0:0:0:
288,160,93065,1,8,0:0:0:0:
288,160,94180,1,8,0:0:0:0:
288,160,94437,1,8,0:0:0:0:
288,160,95551,1,8,0:0:0:0:
288,160,95808,1,8,0:0:0:0:
288,160,96922,1,8,0:0:0:0:
288,160,97180,1,8,0:0:0:0:
288,160,98294,1,8,0:0:0:0:
288,160,98551,1,8,0:0:0:0:
288,160,98722,1,8,0:0:0:0:
288,160,99665,1,8,0:0:0:0:
288,160,99922,1,8,0:0:0:0:
288,160,100094,1,8,0:0:0:0:
288,160,101037,1,8,0:0:0:0:
288,160,101294,1,8,0:0:0:0:
288,160,101465,1,8,0:0:0:0:
288,160,102151,1,8,0:0:0:0:
288,160,102408,1,8,0:0:0:0:
288,160,102665,1,8,0:0:0:0:
288,160,102837,1,0,0:0:0:0:
288,160,103008,1,0,0:0:0:0:
288,160,103180,1,8,0:0:0:0:
288,160,103351,1,0,0:0:0:0:
288,160,103437,1,8,0:0:0:0:
288,160,103522,1,0,0:0:0:0:
288,160,103608,1,8,0:0:0:0:
288,160,103694,1,0,0:0:0:0:
288,160,103780,1,8,0:0:0:0:
288,160,103865,1,8,0:0:0:0:
288,160,103951,1,0,0:0:0:0:
288,160,104037,1,8,0:0:0:0:
288,160,104122,1,0,0:0:0:0:
288,160,104208,1,0,0:0:0:0:
288,160,104379,1,0,0:0:0:0:
288,160,104551,1,8,0:0:0:0:
288,160,104722,1,0,0:0:0:0:
288,160,104808,1,8,0:0:0:0:
288,160,104893,1,0,0:0:0:0:
288,160,104979,1,8,0:0:0:0:
288,160,105065,1,0,0:0:0:0:
288,160,105151,1,8,0:0:0:0:
288,160,105236,1,8,0:0:0:0:
288,160,105408,1,0,0:0:0:0:
288,160,105580,1,0,0:0:0:0:
288,160,105751,1,0,0:0:0:0:
288,160,105923,1,8,0:0:0:0:
288,160,106094,1,0,0:0:0:0:
288,160,106180,1,8,0:0:0:0:
288,160,106265,1,0,0:0:0:0:
288,160,106351,1,8,0:0:0:0:
288,160,106437,1,0,0:0:0:0:
288,160,106522,1,8,0:0:0:0:
288,160,106608,1,8,0:0:0:0:
288,160,106780,1,8,0:0:0:0:
288,160,106951,1,0,0:0:0:0:
288,160,107122,1,0,0:0:0:0:
288,160,107294,1,8,0:0:0:0:
288,160,107465,1,0,0:0:0:0:
288,160,107551,1,8,0:0:0:0:
288,160,107636,1,0,0:0:0:0:
288,160,107722,1,8,0:0:0:0:
288,160,107808,1,0,0:0:0:0:
288,160,107894,1,8,0:0:0:0:
288,160,107979,1,8,0:0:0:0:
288,160,108151,1,8,0:0:0:0:
288,160,108322,1,0,0:0:0:0:
288,160,108493,1,0,0:0:0:0:
288,160,108665,1,8,0:0:0:0:
288,160,108836,1,0,0:0:0:0:
288,160,108922,1,8,0:0:0:0:
288,160,109007,1,0,0:0:0:0:
288,160,109093,1,8,0:0:0:0:
288,160,109179,1,0,0:0:0:0:
288,160,109265,1,8,0:0:0:0:
288,160,109350,1,8,0:0:0:0:
288,160,109522,1,8,0:0:0:0:
288,160,109694,1,0,0:0:0:0:
288,160,109865,1,0,0:0:0:0:
288,160,110037,1,8,0:0:0:0:
288,160,110208,1,0,0:0:0:0:
288,160,110294,1,8,0:0:0:0:
288,160,110379,1,0,0:0:0:0:
288,160,110465,1,8,0:0:0:0:
288,160,110551,1,0,0:0:0:0:
288,160,110637,1,8,0:0:0:0:
288,160,110722,1,8,0:0:0:0:
288,160,110808,1,0,0:0:0:0:
288,160,110894,1,0,0:0:0:0:
288,160,111065,1,0,0:0:0:0:
288,160,111236,1,0,0:0:0:0:
288,160,111408,1,8,0:0:0:0:
288,160,111579,1,0,0:0:0:0:
288,160,111665,1,8,0:0:0:0:
288,160,111750,1,0,0:0:0:0:
288,160,111836,1,8,0:0:0:0:
288,160,111922,1,0,0:0:0:0:
288,160,112008,1,8,0:0:0:0:
288,160,112093,1,8,0:0:0:0:
288,160,112265,1,0,0:0:0:0:
288,160,112437,1,0,0:0:0:0:
288,160,112608,1,0,0:0:0:0:
288,160,112780,1,8,0:0:0:0:
288,160,112951,1,0,0:0:0:0:
288,160,113037,1,8,0:0:0:0:
288,160,113122,1,0,0:0:0:0:
288,160,113208,1,8,0:0:0:0:
288,160,113294,1,0,0:0:0:0:
288,160,113380,1,8,0:0:0:0:
288,160,113465,1,8,0:0:0:0:
288,160,113637,1,8,0:0:0:0:
288,160,113808,1,0,0:0:0:0:
288,160,113894,1,0,0:0:0:0:
288,160,113980,1,0,0:0:0:0:
288,160,114065,1,8,0:0:0:0:
288,160,114151,1,0,0:0:0:0:
288,160,114237,1,0,0:0:0:0:
288,160,114323,1,0,0:0:0:0:
288,160,114408,1,8,0:0:0:0:
288,160,114494,1,0,0:0:0:0:
288,160,114580,1,8,0:0:0:0:
288,160,114666,1,0,0:0:0:0:
288,160,114751,1,0,0:0:0:0:
288,160,114837,1,8,0:0:0:0:
288,160,114923,1,8,0:0:0:0:
288,160,115009,1,0,0:0:0:0:
288,160,115094,1,8,0:0:0:0:
288,160,115180,1,0,0:0:0:0:
288,160,115266,1,8,0:0:0:0:
288,160,115352,1,8,0:0:0:0:
288,160,115437,1,8,0:0:0:0:
288,160,115522,1,0,0:0:0:0:
288,160,115608,1,8,0:0:0:0:
288,160,115694,1,8,0:0:0:0:
288,160,115779,1,8,0:0:0:0:
288,160,115865,1,0,0:0:0:0:
288,160,115951,1,8,0:0:0:0:
288,160,116037,1,0,0:0:0:0:
288,160,116122,1,0,0:0:0:0:
288,160,116208,1,8,0:0:0:0:
288,160,116294,1,8,0:0:0:0:
288,160,116380,1,0,0:0:0:0:
288,160,116465,1,8,0:0:0:0:
288,160,116551,1,0,0:0:0:0:
288,160,116637,1,0,0:0:0:0:
288,160,116722,1,8,0:0:0:0:
288,160,116808,1,8,0:0:0:0:
288,160,116894,1,0,0:0:0:0:
288,160,116980,1,0,0:0:0:0:
288,160,117065,1,8,0:0:0:0:
288,160,117151,1,8,0:0:0:0:
288,160,117237,1,0,0:0:0:0:
288,160,117323,1,8,0:0:0:0:
288,160,117408,1,0,0:0:0:0:
288,160,117494,1,0,0:0:0:0:
288,160,117580,1,8,0:0:0:0:
288,160,117665,1,8,0:0:0:0:
288,160,117751,1,0,0:0:0:0:
288,160,117837,1,8,0:0:0:0:
288,160,117922,1,0,0:0:0:0:
288,160,118008,1,0,0:0:0:0:
288,160,118094,1,8,0:0:0:0:
288,160,118179,1,8,0:0:0:0:
288,160,118265,1,0,0:0:0:0:
288,160,118351,1,0,0:0:0:0:
288,160,118437,1,8,0:0:0:0:
288,160,118522,1,8,0:0:0:0:
288,160,118608,1,0,0:0:0:0:
288,160,118694,1,8,0:0:0:0:
288,160,118780,1,0,0:0:0:0:
288,160,118865,1,0,0:0:0:0:
288,160,118951,1,8,0:0:0:0:
288,160,119037,1,0,0:0:0:0:
288,160,119123,1,0,0:0:0:0:
288,160,119208,1,8,0:0:0:0:
288,160,119294,1,0,0:0:0:0:
288,160,119380,1,0,0:0:0:0:
288,160,119466,1,0,0:0:0:0:
288,160,119551,1,8,0:0:0:0:
288,160,119637,1,0,0:0:0:0:
288,160,119723,1,0,0:0:0:0:
288,160,119809,1,0,0:0:0:0:
288,160,119894,1,8,0:0:0:0:
288,160,119980,1,0,0:0:0:0:
288,160,120065,1,8,0:0:0:0:
288,160,120152,1,0,0:0:0:0:
288,160,120237,1,8,0:0:0:0:
288,160,120323,1,8,0:0:0:0:
288,160,120409,1,8,0:0:0:0:
288,160,120495,1,0,0:0:0:0:
288,160,120580,1,8,0:0:0:0:
288,160,120665,1,0,0:0:0:0:
288,160,120837,1,0,0:0:0:0:
288,160,121008,1,8,0:0:0:0:
288,160,121180,1,0,0:0:0:0:
288,160,121265,1,8,0:0:0:0:
288,160,121351,1,0,0:0:0:0:
288,160,121437,1,8,0:0:0:0:
288,160,121522,1,0,0:0:0:0:
288,160,121694,1,8,0:0:0:0:
288,160,121780,1,0,0:0:0:0:
288,160,121865,1,0,0:0:0:0:
288,160,122037,1,0,0:0:0:0:
288,160,122208,1,8,0:0:0:0:
288,160,122380,1,8,0:0:0:0:
288,160,122551,1,0,0:0:0:0:
288,160,122637,1,8,0:0:0:0:
288,160,122722,1,0,0:0:0:0:
288,160,122808,1,8,0:0:0:0:
288,160,122894,1,0,0:0:0:0:
288,160,123065,1,8,0:0:0:0:
288,160,123237,1,8,0:0:0:0:
288,160,123408,1,0,0:0:0:0:
288,160,123580,1,8,0:0:0:0:
288,160,123751,1,8,0:0:0:0:
288,160,123922,1,8,0:0:0:0:
288,160,124094,1,0,0:0:0:0:
288,160,124180,1,8,0:0:0:0:
288,160,124265,1,8,0:0:0:0:
288,160,124437,1,8,0:0:0:0:
288,160,124608,1,8,0:0:0:0:
288,160,124780,1,4,0:0:0:0:
288,160,124866,1,8,0:0:0:0:
288,160,125037,1,8,0:0:0:0:
288,160,125123,1,8,0:0:0:0:
288,160,125294,1,0,0:0:0:0:
288,160,125466,1,8,0:0:0:0:
288,160,125551,1,8,0:0:0:0:
288,160,125637,1,0,0:0:0:0:
288,160,125808,1,8,0:0:0:0:
288,160,125980,1,0,0:0:0:0:
288,160,126151,1,8,0:0:0:0:
288,160,126323,1,0,0:0:0:0:
288,160,126494,1,8,0:0:0:0:
288,160,126666,1,8,0:0:0:0:
288,160,126837,1,8,0:0:0:0:
288,160,126923,1,8,0:0:0:0:
288,160,127008,1,0,0:0:0:0:
288,160,127180,1,8,0:0:0:0:
280,158,127522,1,0,0:0:0:0:
280,158,127608,1,0,0:0:0:0:
288,160,127780,1,0,0:0:0:0:
288,160,127866,1,8,0:0:0:0:
288,160,128037,1,0,0:0:0:0:
288,160,128208,1,8,0:0:0:0:
289,157,128294,1,0,0:0:0:0:
288,160,128380,1,0,0:0:0:0:
288,160,128551,1,8,0:0:0:0:
288,160,128723,1,8,0:0:0:0:
288,160,128894,1,8,0:0:0:0:
288,160,128980,1,8,0:0:0:0:
288,160,129066,1,0,0:0:0:0:
288,160,129237,1,8,0:0:0:0:
288,160,129408,1,0,0:0:0:0:
288,160,129580,1,8,0:0:0:0:
288,160,129666,1,8,0:0:0:0:
288,160,129751,1,0,0:0:0:0:
288,160,129923,1,8,0:0:0:0:
288,160,130266,1,0,0:0:0:0:
275,161,130608,1,8,0:0:0:0:
275,161,130951,1,8,0:0:0:0:
275,161,131122,1,0,0:0:0:0:
275,161,131294,1,8,0:0:0:0:
288,160,131637,1,8,0:0:0:0:
275,161,131808,1,0,0:0:0:0:
288,160,131980,1,8,0:0:0:0:
288,160,132151,1,8,0:0:0:0:
288,160,132323,1,8,0:0:0:0:
275,161,132494,1,0,0:0:0:0:
288,160,132666,1,8,0:0:0:0:
288,160,132837,1,8,0:0:0:0:
288,160,133008,1,8,0:0:0:0:
288,160,133094,1,0,0:0:0:0:
288,160,133180,1,0,0:0:0:0:
288,160,133265,1,0,0:0:0:0:
288,160,133351,1,8,0:0:0:0:
288,160,133437,1,8,0:0:0:0:
288,160,133522,1,8,0:0:0:0:
288,160,133608,1,8,0:0:0:0:
288,160,133694,1,0,0:0:0:0:
288,160,133780,1,8,0:0:0:0:
288,160,133865,1,0,0:0:0:0:
288,160,133951,1,0,0:0:0:0:
288,160,134037,1,8,0:0:0:0:
288,160,134122,1,8,0:0:0:0:
288,160,134208,1,8,0:0:0:0:
288,160,134294,1,8,0:0:0:0:
288,160,134380,1,0,0:0:0:0:
288,160,134551,1,0,0:0:0:0:
288,160,134722,1,8,0:0:0:0:
288,160,134894,1,0,0:0:0:0:
288,160,134980,1,8,0:0:0:0:
288,160,135151,1,0,0:0:0:0:
288,160,135408,1,8,0:0:0:0:
288,160,135494,1,8,0:0:0:0:
288,160,135580,1,8,0:0:0:0:
294,168,135665,1,8,0:0:0:0:
288,160,135751,1,0,0:0:0:0:
288,160,135837,1,0,0:0:0:0:
288,160,135922,1,8,0:0:0:0:
288,160,136094,1,8,0:0:0:0:
288,160,136180,1,0,0:0:0:0:
288,160,136265,1,8,0:0:0:0:
288,160,136437,1,0,0:0:0:0:
288,160,136522,1,0,0:0:0:0:
288,160,136608,1,0,0:0:0:0:
288,160,136694,1,8,0:0:0:0:
288,160,136780,1,8,0:0:0:0:
288,160,136865,1,0,0:0:0:0:
288,160,136951,1,0,0:0:0:0:
288,160,137037,1,8,0:0:0:0:
288,160,137122,1,8,0:0:0:0:
288,160,137208,1,8,0:0:0:0:
288,160,137808,1,0,0:0:0:0:
288,160,138065,1,0,0:0:0:0:
288,160,138322,1,0,0:0:0:0:
288,160,138494,1,0,0:0:0:0:
288,160,138580,1,0,0:0:0:0:
288,160,138666,1,8,0:0:0:0:
288,160,138751,1,8,0:0:0:0:
288,160,138837,1,8,0:0:0:0:
288,160,139180,1,0,0:0:0:0:
288,160,139266,1,8,0:0:0:0:
288,160,139351,1,8,0:0:0:0:
288,160,139523,1,0,0:0:0:0:
288,160,139608,1,8,0:0:0:0:
288,160,139694,1,0,0:0:0:0:
288,160,139780,1,0,0:0:0:0:
288,160,139866,1,0,0:0:0:0:
288,160,139951,1,8,0:0:0:0:
288,160,140037,1,8,0:0:0:0:
288,160,140208,1,8,0:0:0:0:
288,160,140551,1,0,0:0:0:0:
288,160,140808,1,0,0:0:0:0:
246,199,140894,2,0,L|148:155,1,87.5
288,160,141237,5,0,0:0:0:0:
288,160,141322,1,0,0:0:0:0:
288,160,141408,1,8,0:0:0:0:
288,160,141580,1,0,0:0:0:0:
288,160,141665,1,0,0:0:0:0:
288,160,141751,1,8,0:0:0:0:
288,160,141923,1,0,0:0:0:0:
288,160,142009,1,8,0:0:0:0:
288,160,142094,1,8,0:0:0:0:
288,160,142180,1,0,0:0:0:0:
288,160,142266,1,8,0:0:0:0:
288,160,142352,1,8,0:0:0:0:
288,160,142437,1,0,0:0:0:0:
288,160,142523,1,8,0:0:0:0:
288,160,142608,1,0,0:0:0:0:
288,160,142694,1,8,0:0:0:0:
288,160,142951,1,8,0:0:0:0:
288,160,143294,1,0,0:0:0:0:
288,160,143380,1,8,0:0:0:0:
288,160,143551,1,0,0:0:0:0:
288,160,143637,1,8,0:0:0:0:
288,160,143808,1,0,0:0:0:0:
288,160,143894,1,8,0:0:0:0:
288,160,143980,1,0,0:0:0:0:
288,160,144066,1,0,0:0:0:0:
288,160,144151,1,8,0:0:0:0:
288,160,144237,1,8,0:0:0:0:
288,160,144323,1,8,0:0:0:0:
288,160,144666,1,0,0:0:0:0:
288,160,144751,1,0,0:0:0:0:
288,160,144837,1,8,0:0:0:0:
288,160,145008,1,0,0:0:0:0:
288,160,145093,1,8,0:0:0:0:
288,160,145179,1,0,0:0:0:0:
288,160,145265,1,0,0:0:0:0:
288,160,145351,1,0,0:0:0:0:
288,160,145437,1,8,0:0:0:0:
288,160,145522,1,8,0:0:0:0:
288,160,145694,1,8,0:0:0:0:
288,160,146037,1,0,0:0:0:0:
288,160,146122,1,0,0:0:0:0:
288,160,146208,1,8,0:0:0:0:
288,160,146380,1,8,0:0:0:0:
288,160,146551,1,0,0:0:0:0:
288,160,146723,1,0,0:0:0:0:
288,160,146808,1,0,0:0:0:0:
288,160,146894,1,8,0:0:0:0:
288,160,146980,1,8,0:0:0:0:
288,160,147066,1,0,0:0:0:0:
288,160,147151,1,0,0:0:0:0:
288,160,147237,1,8,0:0:0:0:
288,160,147323,1,8,0:0:0:0:
288,160,147408,1,0,0:0:0:0:
288,160,147494,1,8,0:0:0:0:
288,160,147579,1,8,0:0:0:0:
288,160,147665,1,0,0:0:0:0:
288,160,147751,1,8,0:0:0:0:
288,160,147837,1,8,0:0:0:0:
288,160,147922,1,0,0:0:0:0:
288,160,148008,1,8,0:0:0:0:
288,160,148094,1,0,0:0:0:0:
288,160,148180,1,8,0:0:0:0:
288,160,148437,1,8,0:0:0:0:
288,160,148780,1,0,0:0:0:0:
288,160,148866,1,8,0:0:0:0:
288,160,149037,1,0,0:0:0:0:
288,160,149123,1,8,0:0:0:0:
288,160,149294,1,0,0:0:0:0:
288,160,149380,1,8,0:0:0:0:
288,160,149466,1,0,0:0:0:0:
288,160,149551,1,8,0:0:0:0:
288,160,149637,1,8,0:0:0:0:
288,160,149723,1,8,0:0:0:0:
288,160,149808,1,0,0:0:0:0:
288,160,150151,1,0,0:0:0:0:
288,160,150237,1,8,0:0:0:0:
288,160,150323,1,8,0:0:0:0:
288,160,150494,1,0,0:0:0:0:
288,160,150580,1,8,0:0:0:0:
288,160,150666,1,8,0:0:0:0:
288,160,150751,1,0,0:0:0:0:
288,160,150837,1,0,0:0:0:0:
288,160,150923,1,8,0:0:0:0:
288,160,151008,1,8,0:0:0:0:
288,160,151180,1,8,0:0:0:0:
288,160,151523,1,0,0:0:0:0:
288,160,151780,1,0,0:0:0:0:
288,160,151866,1,8,0:0:0:0:
288,160,151951,1,0,0:0:0:0:
288,160,152123,1,0,0:0:0:0:
288,160,152208,1,0,0:0:0:0:
288,160,152294,1,0,0:0:0:0:
288,160,152380,1,8,0:0:0:0:
288,160,152466,1,8,0:0:0:0:
288,160,152551,1,0,0:0:0:0:
288,160,152637,1,0,0:0:0:0:
288,160,152723,1,8,0:0:0:0:
288,160,152808,1,8,0:0:0:0:
288,160,152894,1,0,0:0:0:0:
288,160,152980,1,8,0:0:0:0:
288,160,153065,1,8,0:0:0:0:
288,160,153151,1,0,0:0:0:0:
288,160,153237,1,8,0:0:0:0:
288,160,153323,1,8,0:0:0:0:
288,160,153408,1,0,0:0:0:0:
288,160,153494,1,8,0:0:0:0:
288,160,153580,1,0,0:0:0:0:
288,160,153666,1,8,0:0:0:0:
288,160,153923,1,8,0:0:0:0:
288,160,154266,1,0,0:0:0:0:
288,160,154351,1,8,0:0:0:0:
288,160,154523,1,0,0:0:0:0:
288,160,154608,1,8,0:0:0:0:
288,160,154780,1,0,0:0:0:0:
288,160,154866,1,8,0:0:0:0:
288,160,154951,1,0,0:0:0:0:
288,160,155037,1,8,0:0:0:0:
288,160,155123,1,8,0:0:0:0:
288,160,155208,1,8,0:0:0:0:
288,160,155294,1,0,0:0:0:0:
288,160,155637,1,0,0:0:0:0:
288,160,155723,1,8,0:0:0:0:
288,160,155808,1,8,0:0:0:0:
288,160,155980,1,0,0:0:0:0:
288,160,156066,1,8,0:0:0:0:
288,160,156152,1,8,0:0:0:0:
288,160,156237,1,0,0:0:0:0:
288,160,156323,1,0,0:0:0:0:
288,160,156409,1,8,0:0:0:0:
288,160,156494,1,8,0:0:0:0:
288,160,156666,1,8,0:0:0:0:
288,160,157008,1,0,0:0:0:0:
288,160,157266,1,0,0:0:0:0:
288,160,157351,1,8,0:0:0:0:
288,160,157437,1,0,0:0:0:0:
288,160,157608,1,0,0:0:0:0:
288,160,157694,1,0,0:0:0:0:
288,160,157780,1,0,0:0:0:0:
288,160,157865,1,8,0:0:0:0:
288,160,158037,1,0,0:0:0:0:
288,160,158122,1,0,0:0:0:0:
288,160,158208,1,8,0:0:0:0:
288,160,158380,1,0,0:0:0:0:
288,160,158465,1,0,0:0:0:0:
288,160,158551,1,8,0:0:0:0:
288,160,158637,1,0,0:0:0:0:
288,160,158722,1,8,0:0:0:0:
288,160,158808,1,8,0:0:0:0:
288,160,158894,1,0,0:0:0:0:
288,160,158980,1,8,0:0:0:0:
288,160,159065,1,0,0:0:0:0:
288,160,159151,1,8,0:0:0:0:
288,160,159408,1,8,0:0:0:0:
288,160,159580,1,0,0:0:0:0:
288,160,159665,1,8,0:0:0:0:
288,160,159751,1,0,0:0:0:0:
288,160,160008,1,0,0:0:0:0:
288,160,160094,1,8,0:0:0:0:
288,160,160265,1,0,0:0:0:0:
288,160,160437,1,0,0:0:0:0:
288,160,160522,1,0,0:0:0:0:
288,160,160608,1,8,0:0:0:0:
288,160,160694,1,8,0:0:0:0:
288,160,160780,1,8,0:0:0:0:
288,160,161122,1,0,0:0:0:0:
288,160,161208,1,0,0:0:0:0:
288,160,161294,1,8,0:0:0:0:
288,160,161465,1,8,0:0:0:0:
288,160,161551,1,8,0:0:0:0:
288,160,161637,1,0,0:0:0:0:
288,160,161722,1,0,0:0:0:0:
288,160,161808,1,0,0:0:0:0:
288,160,161894,1,8,0:0:0:0:
288,160,161980,1,0,0:0:0:0:
288,160,162065,1,8,0:0:0:0:
288,160,162322,1,8,0:0:0:0:
290,171,162408,1,8,0:0:0:0:
288,160,162494,1,0,0:0:0:0:
288,160,162750,1,0,0:0:0:0:
288,160,162836,1,8,0:0:0:0:
288,160,162922,1,0,0:0:0:0:
288,160,163094,1,0,0:0:0:0:
288,160,163180,1,0,0:0:0:0:
288,160,163265,1,0,0:0:0:0:
288,160,163351,1,8,0:0:0:0:
288,160,163522,1,0,0:0:0:0:
288,160,163608,1,0,0:0:0:0:
288,160,163694,1,8,0:0:0:0:
288,160,163865,1,0,0:0:0:0:
288,160,163951,1,0,0:0:0:0:
288,160,164037,1,8,0:0:0:0:
288,160,164122,1,0,0:0:0:0:
288,160,164208,1,8,0:0:0:0:
288,160,164294,1,8,0:0:0:0:
288,160,164380,1,0,0:0:0:0:
288,160,164465,1,8,0:0:0:0:
288,160,164551,1,0,0:0:0:0:
288,160,164637,1,8,0:0:0:0:
288,160,164894,1,8,0:0:0:0:
288,160,165065,1,0,0:0:0:0:
288,160,165151,1,8,0:0:0:0:
288,160,165237,1,0,0:0:0:0:
288,160,165494,1,0,0:0:0:0:
288,160,165580,1,8,0:0:0:0:
288,160,165751,1,0,0:0:0:0:
288,160,165922,1,0,0:0:0:0:
288,160,166008,1,0,0:0:0:0:
288,160,166094,1,8,0:0:0:0:
288,160,166180,1,8,0:0:0:0:
288,160,166265,1,8,0:0:0:0:
288,160,166608,1,0,0:0:0:0:
288,160,166951,1,8,0:0:0:0:
288,160,167037,1,8,0:0:0:0:
288,160,167122,1,0,0:0:0:0:
288,160,167294,1,8,0:0:0:0:
288,160,167465,1,8,0:0:0:0:
288,160,167637,1,8,0:0:0:0:
288,160,167808,1,8,0:0:0:0:
288,160,167980,1,8,0:0:0:0:
288,160,168151,1,8,0:0:0:0:
288,160,168322,1,8,0:0:0:0:
288,160,168408,1,8,0:0:0:0:
288,160,168494,1,8,0:0:0:0:
288,160,168580,1,8,0:0:0:0:
288,160,168665,1,0,0:0:0:0:
