osu file format v14

[General]
AudioFilename: audio.mp3
AudioLeadIn: 0
PreviewTime: -1
Countdown: 1
SampleSet: Soft
StackLeniency: 0.7
Mode: 3
LetterboxInBreaks: 0
StoryFireInFront: 0
SkinPreference:A-Requieland-Final
EpilepsyWarning: 1
SpecialStyle: 0
WidescreenStoryboard: 1

[Editor]
DistanceSpacing: 0.5
BeatDivisor: 16
GridSize: 4
TimelineZoom: 1

[Metadata]
Title:Water Damage
TitleUnicode:Water Damage
Artist:Aivi & Surasshu
ArtistUnicode:Aivi & Surasshu
Creator:MarikOff
Version:Test1
Source:Internet
Tags:SU, Steven Universe, Russian, MarikOff,
BeatmapID:1349369
BeatmapSetID:635509

[Difficulty]
HPDrainRate:5
CircleSize:5
OverallDifficulty:5
ApproachRate:5
SliderMultiplier:1.4
SliderTickRate:1

[Events]
//Background and Video events
//Break Periods
//Storyboard Layer 0 (Background)
//Storyboard Layer 1 (Fail)
//Storyboard Layer 2 (Pass)
//Storyboard Layer 3 (Foreground)
//Storyboard Sound Samples

[TimingPoints]
3913.36842105263,1052.63157894737,4,2,1,0,1,0

[HitObjects]
51,192,360,1,0,0:0:0:0:
153,192,360,1,0,0:0:0:0:
358,192,360,1,0,0:0:0:0:
460,192,360,1,0,0:0:0:0:
256,192,887,1,0,0:0:0:0:
460,192,1347,1,0,0:0:0:0:
358,192,1479,1,0,0:0:0:0:
51,192,1479,1,0,0:0:0:0:
256,192,2005,1,0,0:0:0:0:
51,192,2465,1,0,0:0:0:0:
460,192,2465,1,0,0:0:0:0:
153,192,2531,1,0,0:0:0:0:
358,192,2531,1,0,0:0:0:0:
256,192,2926,1,0,0:0:0:0:
51,192,3518,1,0,0:0:0:0:
153,192,3518,1,0,0:0:0:0:
358,192,3518,1,0,0:0:0:0:
460,192,3518,1,0,0:0:0:0:
256,192,4044,1,0,0:0:0:0:
358,192,4505,1,0,0:0:0:0:
51,192,4505,1,0,0:0:0:0:
460,192,4505,1,0,0:0:0:0:
153,192,4571,1,0,0:0:0:0:
256,192,5031,1,0,0:0:0:0:
51,192,5492,1,0,0:0:0:0:
460,192,5492,1,0,0:0:0:0:
153,192,5492,1,0,0:0:0:0:
358,192,5492,1,0,0:0:0:0:
256,192,5952,1,0,0:0:0:0:
51,192,6413,1,0,0:0:0:0:
358,192,6413,1,0,0:0:0:0:
153,192,6413,1,0,0:0:0:0:
460,192,6413,1,0,0:0:0:0:
256,192,6939,1,0,0:0:0:0:
460,192,7400,1,0,0:0:0:0:
51,192,7400,1,0,0:0:0:0:
153,192,7466,1,0,0:0:0:0:
358,192,7466,1,0,0:0:0:0:
256,192,7860,1,0,0:0:0:0:
460,192,8452,1,0,0:0:0:0:
51,192,8452,1,0,0:0:0:0:
358,192,8518,1,0,0:0:0:0:
153,192,8518,1,0,0:0:0:0:
256,192,8979,1,0,0:0:0:0:
51,192,9571,1,0,0:0:0:0:
460,192,9571,1,0,0:0:0:0:
153,192,9637,1,0,0:0:0:0:
358,192,9637,1,0,0:0:0:0:
256,192,10097,1,0,0:0:0:0:
51,192,10558,1,0,0:0:0:0:
153,192,10623,1,0,0:0:0:0:
256,192,11084,1,0,0:0:0:0:
460,192,11610,1,0,0:0:0:0:
358,192,11676,1,0,0:0:0:0:
256,192,12202,1,0,0:0:0:0:
51,192,12597,1,0,0:0:0:0:
153,192,12663,1,0,0:0:0:0:
256,192,13123,1,0,0:0:0:0:
460,192,13584,1,0,0:0:0:0:
358,192,13650,1,0,0:0:0:0:
256,192,14044,1,0,0:0:0:0:
51,192,14505,1,0,0:0:0:0:
153,192,14571,1,0,0:0:0:0:
256,192,15360,1,0,0:0:0:0:
460,192,15623,1,0,0:0:0:0:
358,192,15755,1,0,0:0:0:0:
51,192,16150,1,0,0:0:0:0:
153,192,16216,1,0,0:0:0:0:
256,192,16676,1,0,0:0:0:0:
460,192,17071,1,0,0:0:0:0:
358,192,17202,1,0,0:0:0:0:
256,192,17597,1,0,0:0:0:0:
51,192,18123,1,0,0:0:0:0:
153,192,18189,1,0,0:0:0:0:
256,192,18716,1,0,0:0:0:0:
460,192,19176,1,0,0:0:0:0:
358,192,19242,1,0,0:0:0:0:
256,192,19702,1,0,0:0:0:0:
51,192,20229,1,0,0:0:0:0:
153,192,20294,1,0,0:0:0:0:
256,192,20689,1,0,0:0:0:0:
460,192,21216,1,0,0:0:0:0:
358,192,21676,1,0,0:0:0:0:
256,192,22268,1,0,0:0:0:0:
358,192,24373,1,0,0:0:0:0:
460,192,24900,1,0,0:0:0:0:
153,192,25623,1,0,0:0:0:0:
256,192,28189,1,0,0:0:0:0:
153,192,28255,1,0,0:0:0:0:
460,192,28255,1,0,0:0:0:0:
358,192,28255,1,0,0:0:0:0:
51,192,28255,1,0,0:0:0:0:
256,192,32729,1,0,0:0:0:0:
153,192,32794,1,0,0:0:0:0:
460,192,32794,1,0,0:0:0:0:
358,192,32794,1,0,0:0:0:0:
51,192,32794,1,0,0:0:0:0:
460,192,36808,1,0,0:0:0:0:
358,192,36808,1,0,0:0:0:0:
256,192,37268,1,0,0:0:0:0:
51,192,37860,1,0,0:0:0:0:
153,192,37926,1,0,0:0:0:0:
256,192,38255,1,0,0:0:0:0:
460,192,38716,1,0,0:0:0:0:
358,192,38716,1,0,0:0:0:0:
256,192,39308,1,0,0:0:0:0:
51,192,39768,1,0,0:0:0:0:
153,192,39834,1,0,0:0:0:0:
256,192,40163,1,0,0:0:0:0:
460,192,40623,1,0,0:0:0:0:
358,192,40623,1,0,0:0:0:0:
358,192,41347,1,0,0:0:0:0:
460,192,41347,1,0,0:0:0:0:
153,192,41347,1,0,0:0:0:0:
51,192,41413,1,0,0:0:0:0:
460,192,41742,1,0,0:0:0:0:
358,192,41808,1,0,0:0:0:0:
51,192,41808,1,0,0:0:0:0:
153,192,41808,1,0,0:0:0:0:
358,192,42202,1,0,0:0:0:0:
460,192,42202,1,0,0:0:0:0:
51,192,42202,1,0,0:0:0:0:
153,192,42202,1,0,0:0:0:0:
358,192,42663,1,0,0:0:0:0:
460,192,42663,1,0,0:0:0:0:
51,192,42663,1,0,0:0:0:0:
153,192,42663,1,0,0:0:0:0:
256,192,43387,1,0,0:0:0:0:
460,192,43452,1,0,0:0:0:0:
358,192,43518,1,0,0:0:0:0:
460,192,44702,1,0,0:0:0:0:
358,192,45163,1,0,0:0:0:0:
460,192,45689,1,0,0:0:0:0:
51,192,46150,1,0,0:0:0:0:
153,192,46281,1,0,0:0:0:0:
358,192,46544,1,0,0:0:0:0:
460,192,47202,1,0,0:0:0:0:
358,192,47334,1,0,0:0:0:0:
51,192,47794,1,0,0:0:0:0:
153,192,47794,1,0,0:0:0:0:
256,192,48321,1,0,0:0:0:0:
460,192,48716,1,0,0:0:0:0:
358,192,48781,1,0,0:0:0:0:
256,192,49176,128,0,49966:0:0:0:0:
460,192,50097,1,0,0:0:0:0:
358,192,50229,1,0,0:0:0:0:
51,192,50623,1,0,0:0:0:0:
153,192,50689,1,0,0:0:0:0:
460,192,51150,1,0,0:0:0:0:
358,192,51281,1,0,0:0:0:0:
51,192,51742,1,0,0:0:0:0:
153,192,51808,1,0,0:0:0:0:
51,192,52466,128,0,52992:0:0:0:0:
153,192,52466,128,0,52992:0:0:0:0:
358,192,52466,128,0,53058:0:0:0:0:
460,192,52466,128,0,53058:0:0:0:0:
