osu file format v14

[General]
AudioFilename: audio.mp3
AudioLeadIn: 0
PreviewTime: 33813
Countdown: 0
SampleSet: Soft
StackLeniency: 0.6
Mode: 0
LetterboxInBreaks: 0
WidescreenStoryboard: 1

[Editor]
DistanceSpacing: 1.4
BeatDivisor: 4
GridSize: 8
TimelineZoom: 2.3

[Metadata]
Title:Kani*Do-Luck! (TV Size)
TitleUnicode:カニ☆Do-Luck! (TV Size)
Artist:Aiurabu
ArtistUnicode:あいう♥らぶ
Creator:Azunyan-
Version:Hard!
Source:あいうら
Tags:Aiura opening 上原歩子 Uehara Ayuko 田村奈央 Tamura Nao 岩沢彩生 Iwasawa Saki 飯田友子 Iida Yuuko 天谷奏香 Amaya Kanaka 中島唯 Nakajima Yui crab japanese anime short Xexyz
BeatmapID:1869936
BeatmapSetID:894883

[Difficulty]
HPDrainRate:5
CircleSize:3.4
OverallDifficulty:6.5
ApproachRate:8
SliderMultiplier:1.6
SliderTickRate:1

[Events]
//Background and Video events
0,0,"3.jpg",0,0
Video,-5,"kanikanikanikani.mp4"
//Break Periods
//Storyboard Layer 0 (Background)
//Storyboard Layer 1 (Fail)
//Storyboard Layer 2 (Pass)
//Storyboard Layer 3 (Foreground)
//Storyboard Layer 4 (Overlay)
//Storyboard Sound Samples

[TimingPoints]
673,285.714285714286,4,2,1,45,1,0
673,-133.333333333333,4,2,1,45,0,0
28315,-133.333333333333,4,2,1,5,0,0
28387,-133.333333333333,4,2,1,45,0,0
31673,-133.333333333333,4,2,1,50,0,0
31958,-133.333333333333,4,2,1,60,0,0
32244,-133.333333333333,4,2,1,70,0,0
33815,-100,4,2,1,70,0,1
46244,-100,4,2,1,70,0,1
47530,-125,4,2,1,50,0,0
49958,-133.333333333333,4,2,1,50,0,0
52101,-133.333333333333,4,2,1,50,0,0
54387,-100,4,2,1,50,0,0

[Colours]
Combo1 : 60,255,108
Combo2 : 28,255,255
Combo3 : 255,128,64
Combo4 : 244,74,100

[HitObjects]
456,192,673,6,0,P|462:157|447:115,2,60.0000022888184,8|0|8,0:0|0:0|0:0,0:0:0:0:
272,192,1244,2,0,P|266:227|281:269,2,60.0000022888184,8|8|8,0:0|0:0|0:0,0:0:0:0:
351,353,1815,6,0,L|430:359,1,60.0000022888184,8|0,0:0|0:0,0:0:0:0:
422,264,2101,2,0,L|342:257,1,60.0000022888184,8|0,0:0|0:0,0:0:0:0:
271,250,2387,1,10,0:0:0:0:
271,250,2530,1,10,0:0:0:0:
205,311,2673,1,10,0:0:0:0:
205,311,2816,1,2,0:0:0:0:
130,261,2958,6,0,P|124:226|139:184,2,60.0000022888184,12|0|0,0:0|3:0|3:0,0:0:0:0:
205,311,3387,1,4,0:0:0:0:
271,250,3530,2,0,L|271:162,1,60.0000022888184,0|0,3:0|3:0,0:0:0:0:
221,115,3815,2,0,P|183:114|138:127,1,60.0000022888184,8|0,0:0|3:0,0:0:0:0:
73,138,4101,6,0,L|-14:130,1,60.0000022888184,0|4,3:0|0:0,0:0:0:0:
40,45,4387,2,0,L|127:52,1,60.0000022888184,0|0,3:0|3:0,0:0:0:0:
161,118,4673,2,0,P|194:87|319:120,1,180.000006866455,4|2,0:0|0:0,0:0:0:0:
375,179,5244,6,0,L|380:242,2,60.0000022888184,4|0|8,0:0|0:0|0:0,0:0:0:0:
286,198,5673,1,2,0:0:0:0:
109,233,5958,1,2,3:2:0:0:
109,233,6101,2,0,L|103:296,1,60.0000022888184,10|2,0:0|0:0,0:0:0:0:
182,362,6387,6,0,P|244:344|313:373,1,120.000004577637,2|8,0:0|0:0,0:0:0:0:
380,319,6815,1,0,0:0:0:0:
380,319,6958,2,0,L|391:191,1,120.000004577637,2|8,3:2|0:0,0:0:0:0:
209,207,7530,6,0,L|121:199,1,60.0000022888184,2|2,0:0|0:0,0:0:0:0:
185,127,7815,1,8,0:0:0:0:
345,44,8101,2,0,L|432:51,1,60.0000022888184,2|2,0:0|0:0,0:0:0:0:
365,129,8387,1,8,0:0:0:0:
185,127,8673,6,0,L|57:115,1,120.000004577637,4|8,0:0|0:0,0:0:0:0:
51,199,9101,2,0,P|70:250|50:331,1,120.000004577637,4|8,0:0|0:0,0:0:0:0:
119,379,9530,1,4,0:0:0:0:
273,287,9815,6,0,L|280:199,2,60.0000022888184,2|2|8,0:0|0:0|0:0,0:0:0:0:
269,377,10244,1,2,0:0:0:0:
445,339,10530,1,2,3:2:0:0:
445,339,10673,2,0,P|492:320|501:304,1,60.0000022888184,8|2,0:0|0:0,0:0:0:0:
462,217,10958,6,0,L|473:81,1,120.000004577637,2|8,0:0|0:0,0:0:0:0:
412,29,11387,1,0,0:0:0:0:
412,29,11530,2,0,P|357:8|279:37,1,120.000004577637,2|8,3:2|0:0,0:0:0:0:
167,34,12101,6,0,L|155:161,1,120.000004577637,2|8,0:0|0:0,0:0:0:0:
162,285,12673,2,0,L|249:292,1,60.0000022888184,2|2,0:0|0:0,0:0:0:0:
224,379,12958,2,0,L|283:384,1,60.0000022888184,8|2,0:0|0:0,0:0:0:0:
312,300,13244,6,0,L|441:310,1,120.000004577637,4|8,0:0|0:0,0:0:0:0:
480,232,13673,1,0,0:0:0:0:
389,207,13815,2,0,L|394:147,2,60.0000022888184,8|8|8,0:0|0:0|0:0,0:0:0:0:
299,194,14244,1,8,0:0:0:0:
299,194,14387,6,0,L|171:182,1,120.000004577637,2|2,0:0|0:0,0:0:0:0:
191,93,14815,1,8,0:0:0:0:
191,93,14958,2,0,L|273:100,1,60.0000022888184,2|4,0:0|0:0,0:0:0:0:
394,148,15387,6,0,P|407:115|390:26,1,120.000004577637,2|2,0:0|0:0,0:0:0:0:
310,1,15815,1,8,0:0:0:0:
310,1,15958,1,2,0:0:0:0:
220,8,16101,2,0,L|142:1,1,60.0000022888184,2|4,0:0|0:0,0:0:0:0:
191,93,16387,2,0,L|131:88,1,60.0000022888184,10|4,0:0|0:0,0:0:0:0:
40,82,16673,6,0,P|16:135|32:200,1,120.000004577637,4|8,0:1|0:0,0:0:0:0:
63,370,17244,2,0,L|150:377,1,60.0000022888184,2|0,3:2|3:0,0:0:0:0:
213,350,17530,1,8,0:0:0:0:
213,350,17673,6,0,P|237:288|221:223,1,120.000004577637,2|0,0:0|0:0,0:0:0:0:
139,246,18101,2,0,L|59:239,1,60.0000022888184,8|0,0:0|3:0,0:0:0:0:
118,158,18387,2,0,L|163:92,1,60.0000022888184,8|0,0:0|3:0,0:0:0:0:
203,183,18673,2,0,L|236:255,1,60.0000022888184,8|0,0:0|3:0,0:0:0:0:
287,296,18958,5,4,0:0:0:0:
287,296,19101,2,0,P|334:284|415:299,1,120.000004577637,2|2,0:0|0:0,0:0:0:0:
448,221,19530,2,0,L|459:93,1,120.000004577637,2|0,0:0|0:0,0:0:0:0:
379,54,19958,6,0,L|299:47,1,60.0000022888184,2|0,0:0|3:0,0:0:0:0:
309,138,20244,1,2,0:0:0:0:
309,138,20387,2,0,L|229:131,1,60.0000022888184,8|2,0:0|0:0,0:0:0:0:
158,124,20673,2,0,P|131:173|148:249,1,120.000004577637,2|2,0:0|0:0,0:0:0:0:
205,295,21101,1,4,0:0:0:0:
114,327,21244,6,0,P|58:314|-18:344,1,120.000004577637,4|8,0:0|0:0,0:0:0:0:
41,156,21815,2,0,P|47:113|37:75,1,60.0000022888184,2|0,3:2|3:2,0:0:0:0:
108,32,22101,1,8,0:0:0:0:
108,32,22244,6,0,L|232:21,1,120.000004577637,2|8,0:0|0:0,0:0:0:0:
313,51,22673,2,0,P|327:84|321:120,1,60.0000022888184,8|0,0:0|3:0,0:0:0:0:
282,186,22958,2,0,L|218:191,1,60.0000022888184,8|2,0:0|0:0,0:0:0:0:
259,274,23244,2,0,L|322:268,1,60.0000022888184,8|8,0:0|0:0,0:0:0:0:
409,262,23530,6,0,P|428:224|406:151,2,120.000004577637,4|8|2,0:0|0:0|3:2,0:0:0:0:
257,358,24387,2,0,L|177:364,1,60.0000022888184,8|0,0:0|0:0,0:0:0:0:
216,273,24673,5,4,0:0:0:0:
216,273,24816,2,0,L|136:279,1,60.0000022888184,2|8,0:0|0:0,0:0:0:0:
103,355,25101,1,4,0:0:0:0:
142,173,25387,1,0,3:0:0:0:
142,173,25530,2,0,B|172:171|172:171|201:186,1,60.0000022888184,8|0,0:0|3:0,0:0:0:0:
216,273,25815,6,0,B|343:260,2,120.000004577637,4|8|2,0:0|0:0|3:2,0:0:0:0:
208,92,26673,2,0,L|203:20,1,60.0000022888184,8|0,0:0|0:0,0:0:0:0:
295,9,26958,5,4,0:0:0:0:
295,9,27101,2,0,L|366:3,1,60.0000022888184,2|8,0:0|0:0,0:0:0:0:
432,51,27387,2,0,P|454:111|432:188,1,120.000004577637,4|0,0:0|3:0,0:0:0:0:
361,192,27815,2,0,L|279:200,1,60.0000022888184,8|0,0:0|0:0,0:0:0:0:
313,287,28101,6,0,L|231:295,1,60.0000022888184,4|0,0:1|0:0,0:0:0:0:
188,229,28387,2,0,L|176:101,2,120.000004577637,8|2|8,0:0|0:0|0:0,0:0:0:0:
135,302,29101,1,0,0:0:0:0:
135,302,29244,6,0,L|-9:316,2,120.000004577637,4|8|8,0:1|0:0|0:0,0:0:0:0:
203,360,29958,1,8,0:0:0:0:
203,360,30101,2,0,L|274:354,1,60.0000022888184,10|0,0:0|0:0,0:0:0:0:
353,354,30387,5,8,0:0:0:0:
353,354,30530,1,8,0:0:0:0:
251,205,30815,1,8,0:0:0:0:
251,205,30958,1,8,0:0:0:0:
341,49,31244,1,8,0:0:0:0:
341,49,31387,1,8,0:0:0:0:
162,74,31673,6,0,L|74:66,1,60.0000022888184,8|8,0:0|0:0,0:0:0:0:
46,139,31958,2,0,P|30:188|34:216,1,60.0000022888184,8|8,0:0|0:0,0:0:0:0:
59,281,32244,1,8,0:0:0:0:
59,281,32387,1,8,0:0:0:0:
119,214,32530,5,10,0:0:0:0:
171,22,33530,1,8,0:0:0:0:
123,142,33815,6,0,L|41:134,1,80,0|0,3:0|0:0,0:0:0:0:
70,219,34101,2,0,L|151:226,1,80,8|0,0:0|0:0,0:0:0:0:
204,155,34387,5,0,3:0:0:0:
204,155,34530,1,0,3:0:0:0:
234,233,34673,1,8,0:0:0:0:
234,233,34816,1,0,0:0:0:0:
286,168,34958,6,0,L|365:174,1,80,0|0,3:0|0:0,0:0:0:0:
402,272,35244,2,0,L|322:265,1,80,8|0,0:0|0:0,0:0:0:0:
366,174,35530,2,0,L|445:180,1,80,0|0,3:0|3:0,0:0:0:0:
482,279,35816,2,0,L|402:272,1,80,8|0,0:0|0:0,0:0:0:0:
321,354,36101,6,0,P|264:326|161:360,1,160,4|8,0:1|0:0,0:0:0:0:
59,235,36673,1,2,3:2:0:0:
59,235,36815,2,0,P|46:188|57:137,1,80,2|8,3:2|0:0,0:0:0:0:
92,80,37101,6,0,L|267:64,1,160,4|0,0:1|0:0,0:0:0:0:
300,139,37530,2,0,L|212:146,1,80,8|0,0:0|0:0,0:0:0:0:
184,226,37815,2,0,P|168:283|181:331,1,80,2|2,0:0|0:0,0:0:0:0:
256,279,38101,2,0,P|265:317|288:349,1,80,10|2,0:0|0:0,0:0:0:0:
376,365,38387,6,0,L|471:356,1,80,0|0,3:0|0:0,0:0:0:0:
491,276,38673,2,0,P|502:222|482:168,1,80,8|0,0:0|0:0,0:0:0:0:
450,123,38958,5,0,3:0:0:0:
450,123,39101,1,0,3:0:0:0:
408,201,39244,1,8,0:0:0:0:
408,201,39387,1,0,0:0:0:0:
356,129,39530,6,0,L|347:33,1,80,0|0,3:0|0:0,0:0:0:0:
244,59,39815,2,0,L|251:138,1,80,8|0,0:0|0:0,0:0:0:0:
146,147,40101,2,0,L|139:68,1,80,0|0,3:0|3:0,0:0:0:0:
34,77,40387,2,0,L|41:156,1,80,8|0,0:0|0:0,0:0:0:0:
54,244,40673,6,0,B|94:273|94:273|211:259,1,160,2|8,0:0|0:0,0:0:0:0:
379,243,41244,2,0,P|393:190|373:138,1,80,8|0,0:0|0:0,0:0:0:0:
361,81,41530,1,8,0:0:0:0:
170,42,41815,5,8,0:0:0:0:
117,112,41958,2,0,L|108:207,1,80,6|0,0:0|0:0,0:0:0:0:
204,260,42244,2,0,L|197:180,1,80,6|0,0:0|0:0,0:0:0:0:
300,128,42530,2,0,L|293:207,1,80,6|0,0:0|0:0,0:0:0:0:
288,295,42815,1,6,0:0:0:0:
384,285,42958,6,0,L|390:205,1,80,0|0,3:0|0:0,0:0:0:0:
477,225,43244,2,0,L|483:145,1,80,8|0,0:0|0:0,0:0:0:0:
427,77,43530,5,0,3:0:0:0:
427,77,43673,1,0,3:0:0:0:
341,90,43815,1,8,0:0:0:0:
341,90,43958,1,0,0:0:0:0:
292,163,44101,6,0,L|181:153,1,80,0|0,3:0|0:0,0:0:0:0:
181,56,44387,2,0,L|293:65,1,80,8|0,0:0|0:0,0:0:0:0:
212,156,44673,2,0,L|101:146,1,80,0|0,3:0|3:0,0:0:0:0:
101,49,44959,2,0,L|213:58,1,80,8|0,0:0|0:0,0:0:0:0:
212,156,45244,6,0,P|244:220|226:322,1,160,4|8,0:1|0:0,0:0:0:0:
76,324,45815,1,2,3:2:0:0:
16,271,45958,2,0,L|9:183,1,80,2|8,3:2|0:0,0:0:0:0:
2,102,46244,6,0,P|55:76|175:122,1,160,4|0,0:1|3:0,0:0:0:0:
224,145,46673,2,0,L|304:151,1,80,8|0,0:0|0:0,0:0:0:0:
364,214,46958,2,0,P|362:285|336:314,1,80,2|0,0:0|0:0,0:0:0:0:
298,342,47244,2,0,L|219:335,1,80,10|0,0:0|0:0,0:0:0:0:
138,292,47530,6,0,P|107:225|128:160,1,128,4|2,0:0|0:0,0:0:0:0:
168,100,47958,1,0,0:0:0:0:
168,100,48101,2,0,L|248:91,1,64,8|0,0:0|0:0,0:0:0:0:
303,150,48387,1,10,0:0:0:0:
397,36,48673,6,0,P|442:114|434:172,2,128,8|2|8,0:0|0:0|0:0,0:0:0:0:
310,13,49387,1,0,0:0:0:0:
310,13,49530,2,0,L|222:21,1,64,2|0,0:0|0:0,0:0:0:0:
178,77,49815,5,4,0:1:0:0:
178,77,49958,2,0,P|159:140|188:210,1,120.000004577637,2|2,0:0|0:0,0:0:0:0:
230,280,50387,2,0,P|288:261|357:286,1,120.000004577637,8|2,0:0|0:0,0:0:0:0:
480,158,50958,5,2,0:0:0:0:
435,64,51101,2,0,L|297:51,1,120.000004577637,8|0,0:0|0:0,0:0:0:0:
303,142,51530,2,0,L|165:129,1,120.000004577637,2|10,0:0|0:0,0:0:0:0:
95,123,51958,1,8,0:0:0:0:
95,123,52101,5,4,0:0:0:0:
256,352,53244,5,4,0:0:0:0:
341,172,54387,6,0,L|420:166,2,80,12|0|0,0:1|3:0|3:0,0:0:0:0:
349,254,54815,6,0,L|355:333,1,80,12|0,0:0|3:0,0:0:0:0:
287,376,55101,1,0,3:0:0:0:
208,370,55244,2,0,L|129:364,1,80,12|0,0:1|3:0,0:0:0:0:
50,358,55530,1,0,3:0:0:0:
56,279,55673,2,0,L|62:199,1,80,12|0,0:0|3:0,0:0:0:0:
68,120,55958,1,0,3:0:0:0:
147,129,56101,2,0,L|137:240,1,80,12|0,0:0|3:0,0:0:0:0:
220,215,56387,2,0,L|229:103,1,80,12|0,0:0|3:0,0:0:0:0:
284,78,56673,6,0,L|292:-10,2,80,12|0|0,0:0|3:0|3:0,0:0:0:0:
324,146,57101,2,0,P|336:212|321:247,1,80,12|0,0:1|3:0,0:0:0:0:
319,302,57387,1,0,3:0:0:0:
395,277,57530,2,0,L|483:269,1,80,12|0,0:0|3:0,0:0:0:0:
494,192,57815,1,0,3:0:0:0:
465,117,57958,2,0,L|458:29,1,80,12|0,0:1|3:0,0:0:0:0:
363,22,58244,1,0,3:0:0:0:
284,78,58387,5,10,0:0:0:0:
284,78,58530,1,10,0:0:0:0:
183,42,58673,1,10,0:0:0:0:
183,42,58815,1,10,0:0:0:0:
