osu file format v14

[General]
AudioFilename: audio.mp3
AudioLeadIn: 0
PreviewTime: 33813
Countdown: 0
SampleSet: Soft
StackLeniency: 0.4
Mode: 0
LetterboxInBreaks: 0
WidescreenStoryboard: 1

[Editor]
Bookmarks: 22313
DistanceSpacing: 1.3
BeatDivisor: 4
GridSize: 8
TimelineZoom: 1.7

[Metadata]
Title:Kani*Do-Luck! (TV Size)
TitleUnicode:カニ☆Do-Luck! (TV Size)
Artist:Aiurabu
ArtistUnicode:あいう♥らぶ
Creator:Azunyan-
Version:Extra!
Source:あいうら
Tags:Aiura opening 上原歩子 Uehara Ayuko 田村奈央 Tamura Nao 岩沢彩生 Iwasawa Saki 飯田友子 Iida Yuuko 天谷奏香 Amaya Kanaka 中島唯 Nakajima Yui crab japanese anime short Xexyz
BeatmapID:1869935
BeatmapSetID:894883

[Difficulty]
HPDrainRate:5
CircleSize:3.8
OverallDifficulty:8.7
ApproachRate:9.2
SliderMultiplier:1.8
SliderTickRate:1

[Events]
//Background and Video events
0,0,"3.jpg",0,0
Video,-5,"kanikanikanikani.mp4"
//Break Periods
//Storyboard Layer 0 (Background)
//Storyboard Layer 1 (Fail)
//Storyboard Layer 2 (Pass)
//Storyboard Layer 3 (Foreground)
//Storyboard Layer 4 (Overlay)
//Storyboard Sound Samples

[TimingPoints]
673,285.714285714286,4,2,1,45,1,0
673,-133.333333333333,4,2,1,45,0,0
28315,-133.333333333333,4,2,1,5,0,0
28387,-133.333333333333,4,2,1,45,0,0
31673,-133.333333333333,4,2,1,50,0,0
31958,-133.333333333333,4,2,1,60,0,0
32244,-133.333333333333,4,2,1,70,0,0
33815,-133.333333333333,4,2,1,70,0,0
33887,-90.9090909090909,4,2,1,70,0,1
46244,-100,4,2,1,70,0,1
47530,-133.333333333333,4,2,1,50,0,0
52101,-200,4,2,1,50,0,0
54387,-90.9090909090909,4,2,1,50,0,0

[Colours]
Combo1 : 60,255,108
Combo2 : 28,255,255
Combo3 : 255,128,64
Combo4 : 244,74,100

[HitObjects]
429,98,673,5,8,0:0:0:0:
429,98,815,1,0,0:0:0:0:
279,152,958,2,0,L|347:146,1,67.5000025749208,8|0,0:0|0:0,0:0:0:0:
453,191,1244,1,8,0:0:0:0:
453,191,1386,1,8,0:0:0:0:
303,245,1530,2,0,L|371:240,1,67.5000025749208,8|0,0:0|0:0,0:0:0:0:
207,322,1815,6,0,P|182:353|175:395,1,67.5000025749208,8|0,0:0|0:0,0:0:0:0:
125,274,2101,2,0,P|132:234|118:194,1,67.5000025749208,8|0,0:0|0:0,0:0:0:0:
48,123,2387,1,10,0:0:0:0:
8,244,2530,1,10,0:0:0:0:
48,123,2673,1,10,0:0:0:0:
8,244,2816,1,2,0:0:0:0:
151,115,2958,5,12,0:0:0:0:
151,115,3100,1,0,3:0:0:0:
300,168,3244,2,0,L|233:163,1,67.5000025749208,0|4,3:0|0:0,0:0:0:0:
126,208,3529,1,0,3:0:0:0:
126,208,3673,1,0,3:0:0:0:
275,261,3815,2,0,L|208:256,1,67.5000025749208,8|0,0:0|3:0,0:0:0:0:
372,232,4101,6,0,P|386:268|382:325,1,67.5000025749208,0|4,3:0|0:0,0:0:0:0:
479,225,4387,2,0,P|481:191|494:160,1,67.5000025749208,0|0,3:0|3:0,0:0:0:0:
446,33,4673,2,0,L|379:29,1,67.5000025749208,4|2,0:0|0:0,0:0:0:0:
305,85,4958,1,2,0:0:0:0:
231,21,5101,1,2,0:0:0:0:
130,49,5244,6,0,L|58:42,2,67.5000025749208,4|0|8,0:0|0:0|0:0,0:0:0:0:
131,140,5673,2,0,P|141:183|133:226,1,67.5000025749208,2|0,0:0|3:0,0:0:0:0:
42,214,5958,1,2,3:2:0:0:
42,214,6101,2,0,P|32:171|40:128,1,67.5000025749208,10|2,0:0|0:0,0:0:0:0:
227,83,6387,6,0,L|314:75,1,67.5000025749208,2|0,0:0|0:0,0:0:0:0:
280,198,6673,2,0,L|192:205,1,67.5000025749208,8|0,0:0|0:0,0:0:0:0:
294,77,6958,2,0,L|381:69,1,67.5000025749208,2|0,3:2|3:0,0:0:0:0:
347,192,7244,2,0,L|259:199,1,67.5000025749208,8|0,0:0|0:0,0:0:0:0:
447,145,7530,5,2,0:0:0:0:
447,145,7673,1,2,0:0:0:0:
495,324,7815,2,0,L|490:257,1,67.5000025749208,8|0,0:0|0:0,0:0:0:0:
347,192,8101,1,2,0:0:0:0:
347,192,8244,1,2,0:0:0:0:
395,371,8387,2,0,L|390:304,1,67.5000025749208,8|0,0:0|0:0,0:0:0:0:
171,325,8673,6,0,P|240:289|301:304,1,135.000005149842,4|8,0:0|0:0,0:0:0:0:
75,379,9101,2,0,L|61:227,1,135.000005149842,4|8,0:0|0:0,0:0:0:0:
287,232,9530,2,0,L|294:319,1,67.5000025749208,4|0,0:0|0:0,0:0:0:0:
76,133,9815,6,0,P|102:98|134:79,2,67.5000025749208,2|2|8,0:0|0:0|0:0,0:0:0:0:
156,168,10244,2,0,L|243:175,1,67.5000025749208,2|0,0:0|3:0,0:0:0:0:
289,90,10530,1,2,3:2:0:0:
289,90,10673,2,0,L|221:84,1,67.5000025749208,8|2,0:0|0:0,0:0:0:0:
388,133,10958,6,0,P|397:92|380:46,1,67.5000025749208,2|0,0:0|0:0,0:0:0:0:
289,90,11244,2,0,P|272:128|280:176,1,67.5000025749208,8|0,0:0|0:0,0:0:0:0:
345,216,11530,2,0,L|424:222,1,67.5000025749208,2|0,3:2|3:0,0:0:0:0:
439,319,11815,2,0,L|371:313,1,67.5000025749208,8|0,0:0|0:0,0:0:0:0:
193,299,12101,6,0,P|173:346|171:377,1,67.5000025749208,2|0,0:0|0:0,0:0:0:0:
87,286,12387,2,0,P|80:253|64:223,1,67.5000025749208,8|0,0:0|0:0,0:0:0:0:
57,60,12673,1,2,0:0:0:0:
65,224,12815,1,2,0:0:0:0:
155,86,12958,1,8,0:0:0:0:
2,145,13101,1,2,0:0:0:0:
254,198,13244,6,0,L|321:203,1,67.5000025749208,4|0,0:0|0:0,0:0:0:0:
326,79,13530,2,0,L|258:72,1,67.5000025749208,8|0,0:0|0:0,0:0:0:0:
322,204,13815,1,8,0:0:0:0:
340,60,13958,1,8,0:0:0:0:
434,218,14101,1,8,0:0:0:0:
354,41,14244,1,8,0:0:0:0:
234,178,14387,6,0,L|154:184,2,67.5000025749208,2|2|2,0:0|0:0|0:0,0:0:0:0:
232,300,14815,1,8,0:0:0:0:
336,289,14958,1,2,0:0:0:0:
336,289,15101,2,0,L|412:282,1,67.5000025749208,4|8,0:0|0:0,0:0:0:0:
449,372,15387,6,0,L|295:385,1,135.000005149842,2|2,0:0|0:0,0:0:0:0:
172,372,15815,2,0,P|148:329|149:299,1,67.5000025749208,8|2,0:0|0:0,0:0:0:0:
182,193,16101,2,0,L|188:121,1,67.5000025749208,2|4,0:0|0:0,0:0:0:0:
316,158,16387,2,0,L|309:229,1,67.5000025749208,10|4,0:0|0:0,0:0:0:0:
274,29,16673,6,0,P|349:23|406:62,1,135.000005149842,4|8,0:1|0:0,0:0:0:0:
390,218,17244,1,2,3:2:0:0:
316,158,17387,1,0,3:0:0:0:
228,193,17530,2,0,L|148:186,1,67.5000025749208,8|2,0:0|0:0,0:0:0:0:
69,349,17815,6,0,L|136:354,1,67.5000025749208,0|0,3:0|0:0,0:0:0:0:
228,193,18101,5,8,0:0:0:0:
234,331,18244,1,0,3:0:0:0:
316,158,18387,5,8,0:0:0:0:
326,321,18530,1,0,3:0:0:0:
421,153,18673,5,8,0:0:0:0:
400,308,18816,1,0,3:0:0:0:
228,193,18958,6,0,L|148:187,2,67.5000025749208,4|2|8,0:0|0:0|0:0,0:0:0:0:
204,103,19386,1,2,0:0:0:0:
111,94,19530,1,2,0:0:0:0:
111,94,19673,2,0,L|34:87,1,67.5000025749208,4|0,0:0|0:0,0:0:0:0:
145,0,19958,6,0,L|279:12,1,135.000005149842,2|2,0:0|0:0,0:0:0:0:
335,98,20387,2,0,P|348:124|343:173,1,67.5000025749208,8|2,0:0|0:0,0:0:0:0:
240,256,20673,2,0,P|227:230|232:181,1,67.5000025749208,2|4,0:0|0:0,0:0:0:0:
348,162,20958,2,0,L|435:154,1,67.5000025749208,2|4,0:0|0:0,0:0:0:0:
314,318,21244,6,0,P|258:352|181:333,1,135.000005149842,4|8,0:0|0:0,0:0:0:0:
110,237,21815,1,2,3:2:0:0:
50,163,21958,1,0,3:2:0:0:
144,148,22101,1,8,0:0:0:0:
110,237,22244,6,0,L|121:372,1,135.000005149842,2|8,0:0|0:0,0:0:0:0:
217,276,22673,1,8,0:0:0:0:
316,293,22815,1,0,3:0:0:0:
337,195,22958,2,0,L|332:128,1,67.5000025749208,8|2,0:0|0:0,0:0:0:0:
443,74,23244,1,8,0:0:0:0:
443,74,23315,1,8,0:0:0:0:
443,74,23387,1,8,0:0:0:0:
325,21,23530,6,0,P|281:8|241:12,1,67.5000025749208,4|0,0:0|0:0,0:0:0:0:
170,67,23815,2,0,P|180:111|204:144,1,67.5000025749208,8|0,0:0|0:0,0:0:0:0:
288,178,24101,2,0,P|321:146|337:109,1,67.5000025749208,2|0,3:2|3:0,0:0:0:0:
191,129,24387,2,0,L|103:121,1,67.5000025749208,8|0,0:0|0:0,0:0:0:0:
56,320,24673,5,4,0:0:0:0:
198,258,24815,2,0,P|164:253|132:260,1,67.5000025749208,2|8,0:0|0:0,0:0:0:0:
266,325,25101,2,0,L|401:336,1,135.000005149842,4|0,0:0|3:0,0:0:0:0:
479,271,25530,2,0,L|534:275,2,33.7500012874604,8|0|0,0:0|3:0|3:0,0:0:0:0:
395,152,25815,6,0,L|386:53,1,67.5000025749208,4|0,0:0|0:0,0:0:0:0:
272,55,26101,2,0,L|190:111,1,67.5000025749208,8|0,0:0|0:0,0:0:0:0:
250,210,26387,2,0,L|340:251,1,67.5000025749208,2|0,3:2|3:0,0:0:0:0:
246,333,26673,2,0,P|201:335|168:349,1,67.5000025749208,8|0,0:0|0:0,0:0:0:0:
80,254,26958,5,4,0:0:0:0:
115,81,27101,2,0,P|124:113|122:146,1,67.5000025749208,2|8,0:0|0:0,0:0:0:0:
272,55,27387,2,0,P|325:79|408:64,1,135.000005149842,4|0,0:0|3:0,0:0:0:0:
492,114,27815,2,0,P|503:155|492:204,1,67.5000025749208,8|0,0:0|0:0,0:0:0:0:
413,255,28101,6,0,L|333:248,1,67.5000025749208,4|0,0:1|0:0,0:0:0:0:
184,362,28387,2,0,B|218:374|218:374|267:357,1,67.5000025749208,8|0,0:0|0:0,0:0:0:0:
346,249,28673,2,0,B|339:213|339:213|300:179,1,67.5000025749208,2|0,0:0|0:0,0:0:0:0:
168,166,28958,2,0,B|140:189|140:189|130:240,1,67.5000025749208,8|0,0:0|0:0,0:0:0:0:
316,193,29244,6,0,L|411:201,1,67.5000025749208,4|0,0:1|0:0,0:0:0:0:
501,67,29530,2,0,L|405:58,1,67.5000025749208,8|0,0:0|0:0,0:0:0:0:
299,49,29815,1,8,0:0:0:0:
434,61,29958,1,8,0:0:0:0:
317,130,30101,2,0,L|229:122,1,67.5000025749208,10|0,0:0|0:0,0:0:0:0:
400,137,30387,5,8,0:0:0:0:
416,338,30530,2,0,L|411:271,1,67.5000025749208,8|0,0:0|0:0,0:0:0:0:
317,130,30815,1,8,0:0:0:0:
333,331,30958,2,0,L|328:264,1,67.5000025749208,8|0,0:0|0:0,0:0:0:0:
234,123,31244,1,8,0:0:0:0:
250,324,31387,2,0,L|245:257,1,67.5000025749208,8|0,0:0|0:0,0:0:0:0:
161,367,31673,5,8,0:0:0:0:
168,267,31815,1,8,0:0:0:0:
250,324,31958,1,8,0:0:0:0:
79,310,32101,1,8,0:0:0:0:
176,168,32244,1,8,0:0:0:0:
161,367,32387,1,8,0:0:0:0:
95,112,32530,1,10,0:0:0:0:
256,192,32601,12,8,33530,0:0:0:0:
256,192,33815,5,0,3:0:0:0:
392,192,33958,1,0,0:0:0:0:
252,196,34101,5,8,0:0:0:0:
352,95,34244,1,0,0:0:0:0:
248,200,34387,5,0,3:0:0:0:
256,56,34530,1,0,3:0:0:0:
244,204,34673,5,8,0:0:0:0:
159,95,34816,1,0,0:0:0:0:
140,279,34958,6,0,L|130:382,1,99.0000030212403,0|0,3:0|0:0,0:0:0:0:
314,347,35244,2,0,L|323:243,1,99.0000030212403,8|0,0:0|0:0,0:0:0:0:
148,180,35530,2,0,L|138:283,1,99.0000030212403,0|0,3:0|3:0,0:0:0:0:
322,248,35816,2,0,L|331:144,1,99.0000030212403,8|0,0:0|0:0,0:0:0:0:
151,51,36101,6,0,P|103:39|38:59,1,99.0000030212403,4|0,0:1|0:0,0:0:0:0:
52,178,36387,2,0,P|100:190|165:170,1,99.0000030212403,8|0,0:0|0:0,0:0:0:0:
237,130,36673,1,2,3:2:0:0:
428,139,36815,2,0,L|330:149,1,99.0000030212403,2|8,3:2|0:0,0:0:0:0:
479,339,37101,6,0,P|421:289|283:349,1,198.000006042481,4|0,0:1|0:0,0:0:0:0:
204,381,37530,2,0,L|100:371,1,99.0000030212403,8|0,0:0|0:0,0:0:0:0:
52,178,37815,1,2,0:0:0:0:
105,372,37958,1,2,0:0:0:0:
177,184,38101,1,10,0:0:0:0:
8,294,38244,1,2,0:0:0:0:
209,304,38387,5,0,3:0:0:0:
117,145,38530,1,0,0:0:0:0:
213,300,38673,5,8,0:0:0:0:
228,116,38816,1,0,0:0:0:0:
216,295,38958,5,0,3:0:0:0:
329,155,39101,1,0,3:0:0:0:
219,290,39244,5,8,0:0:0:0:
395,249,39387,1,0,0:0:0:0:
177,184,39530,6,0,L|57:173,1,99.0000030212403,0|0,3:0|0:0,0:0:0:0:
293,82,39815,2,0,L|412:92,1,99.0000030212403,8|0,0:0|0:0,0:0:0:0:
131,93,40101,2,0,L|11:82,1,99.0000030212403,0|0,3:0|3:0,0:0:0:0:
354,0,40387,2,0,L|473:10,1,99.0000030212403,8|0,0:0|0:0,0:0:0:0:
505,152,40673,6,0,P|510:207|498:259,1,99.0000030212403,2|0,0:0|0:0,0:0:0:0:
386,377,40958,2,0,L|266:366,1,99.0000030212403,8|0,0:0|0:0,0:0:0:0:
271,201,41244,2,0,L|390:211,1,99.0000030212403,8|0,0:0|0:0,0:0:0:0:
287,368,41530,2,0,L|167:357,1,99.0000030212403,8|0,0:0|0:0,0:0:0:0:
62,309,41815,5,8,0:0:0:0:
135,65,41958,2,0,L|127:164,1,99.0000030212403,6|0,0:0|0:0,0:0:0:0:
262,102,42244,2,0,L|271:201,1,99.0000030212403,6|0,0:0|0:0,0:0:0:0:
407,139,42530,2,0,L|398:237,1,99.0000030212403,6|0,0:0|0:0,0:0:0:0:
309,331,42815,1,6,0:0:0:0:
177,184,42958,5,0,3:0:0:0:
227,352,43101,1,0,0:0:0:0:
177,164,43244,5,8,0:0:0:0:
119,347,43387,1,0,0:0:0:0:
178,145,43530,5,0,3:0:0:0:
238,375,43673,1,0,3:0:0:0:
178,127,43815,5,8,0:0:0:0:
103,367,43958,1,0,0:0:0:0:
70,148,44101,6,0,L|60:36,1,99.0000030212403,0|0,3:0|0:0,0:0:0:0:
273,58,44387,2,0,L|282:169,1,99.0000030212403,8|0,0:0|0:0,0:0:0:0:
79,247,44673,2,0,L|69:135,1,99.0000030212403,0|0,3:0|3:0,0:0:0:0:
281,157,44959,2,0,L|290:268,1,99.0000030212403,8|0,0:0|0:0,0:0:0:0:
139,364,45244,6,0,P|88:376|28:372,1,99.0000030212403,4|0,0:1|0:0,0:0:0:0:
269,276,45530,2,0,P|320:264|380:268,1,99.0000030212403,8|0,0:0|0:0,0:0:0:0:
427,372,45815,1,2,3:2:0:0:
497,191,45958,2,0,P|505:239|499:288,1,99.0000030212403,2|8,3:2|0:0,0:0:0:0:
432,31,46244,6,0,P|357:57|254:17,1,180,4|0,0:1|3:0,0:0:0:0:
145,18,46673,2,0,P|118:49|110:100,1,90,8|0,0:0|0:0,0:0:0:0:
129,213,46958,2,0,L|137:308,1,90,2|0,0:0|0:0,0:0:0:0:
278,208,47244,2,0,L|269:112,1,90,10|0,0:0|0:0,0:0:0:0:
229,325,47530,6,0,P|269:350|307:350,1,67.5000025749208,4|0,0:0|0:0,0:0:0:0:
392,368,47815,2,0,P|393:319|374:287,1,67.5000025749208,2|0,0:0|0:0,0:0:0:0:
349,204,48102,2,0,P|306:226|287:259,1,67.5000025749208,8|0,0:0|0:0,0:0:0:0:
386,303,48387,2,0,P|434:304|466:285,1,67.5000025749208,10|8,0:0|0:0,0:0:0:0:
471,123,48673,6,0,L|375:114,1,67.5000025749208,8|0,0:0|0:0,0:0:0:0:
344,17,48958,2,0,L|439:25,1,67.5000025749208,2|0,0:0|0:0,0:0:0:0:
403,117,49244,2,0,L|307:108,1,67.5000025749208,8|0,0:0|0:0,0:0:0:0:
276,11,49530,2,0,L|371:19,1,67.5000025749208,2|0,0:0|0:0,0:0:0:0:
234,102,49815,5,4,0:1:0:0:
234,102,49958,2,0,L|144:94,1,67.5000025749208,2|0,0:0|0:0,0:0:0:0:
48,85,50244,1,2,0:0:0:0:
48,85,50387,2,0,P|22:152|43:229,1,135.000005149842,8|2,0:0|0:0,0:0:0:0:
108,348,50958,5,2,0:0:0:0:
178,297,51101,2,0,B|211:280|211:280|321:291,1,135.000005149842,8|0,0:0|0:0,0:0:0:0:
371,212,51530,2,0,L|303:205,1,67.5000025749208,2|0,0:0|0:0,0:0:0:0:
451,140,51815,1,10,0:0:0:0:
451,140,51958,1,8,0:0:0:0:
373,24,52101,6,0,P|265:86|304:205,1,270,4|0,0:0|0:0,0:0:0:0:
394,324,53244,6,0,P|330:265|174:339,1,270,4|0,0:0|0:0,0:0:0:0:
92,248,54387,5,12,0:1:0:0:
66,361,54530,1,0,3:0:0:0:
178,327,54673,1,0,3:0:0:0:
118,135,54815,6,0,L|126:36,1,99.0000030212403,12|0,0:0|3:0,0:0:0:0:
92,248,55101,1,0,3:0:0:0:
302,204,55244,6,0,L|204:214,1,99.0000030212403,12|0,0:1|3:0,0:0:0:0:
118,135,55530,1,0,3:0:0:0:
329,91,55673,6,0,L|231:101,1,99.0000030212403,12|0,0:0|3:0,0:0:0:0:
204,214,55958,1,0,3:0:0:0:
329,91,56101,5,12,0:0:0:0:
276,318,56244,1,0,3:0:0:0:
230,101,56387,1,12,0:0:0:0:
178,327,56530,1,0,3:0:0:0:
428,81,56673,5,12,0:0:0:0:
374,309,56815,1,0,3:0:0:0:
204,214,56958,1,0,3:0:0:0:
400,196,57101,6,0,L|498:187,1,99.0000030212403,12|0,0:1|3:0,0:0:0:0:
302,205,57386,1,0,3:0:0:0:
256,0,57530,5,12,0:0:0:0:
102,143,57673,1,0,3:0:0:0:
338,89,57815,1,0,3:0:0:0:
221,308,57958,2,0,P|203:262|203:213,1,99.0000030212403,12|0,0:1|3:0,0:0:0:0:
260,98,58244,1,0,3:0:0:0:
295,344,58387,5,10,0:0:0:0:
122,166,58529,1,10,0:0:0:0:
367,207,58672,1,10,0:0:0:0:
144,317,58815,1,10,0:0:0:0:
