osu file format v14

[General]
AudioFilename: audio.mp3
AudioLeadIn: 0
PreviewTime: 33744
Countdown: 0
SampleSet: Soft
StackLeniency: 0.7
Mode: 3
LetterboxInBreaks: 0
SpecialStyle: 0
WidescreenStoryboard: 1

[Editor]
DistanceSpacing: 0.8
BeatDivisor: 4
GridSize: 16
TimelineZoom: 1.9

[Metadata]
Title:Kani*Do-Luck! (TV Size)
TitleUnicode:カニ☆Do-Luck! (TV Size)
Artist:Aiurabu (CV: Nakajima Yui, Iida Yuuko, Tamura Nao)
ArtistUnicode:あいう♥らぶ(CV:中島 唯、飯田友子、田村奈央)
Creator:nasucase
Version:Flying Crabs!
Source:あいうら
Tags:aiura opening op 上原歩子 uehara ayuko 岩沢彩生 iwasawa saki 天谷奏香 amaya kanaka anime japanese pop jpop j-pop crab Slowpoke104 PCCG-01348
BeatmapID:3812801
BeatmapSetID:1855396

[Difficulty]
HPDrainRate:8
CircleSize:4
OverallDifficulty:8.5
ApproachRate:5
SliderMultiplier:1.4
SliderTickRate:1

[Events]
//Background and Video events
0,0,"4.jpg",0,0
//Break Periods
//Storyboard Layer 0 (Background)
//Storyboard Layer 1 (Fail)
//Storyboard Layer 2 (Pass)
//Storyboard Layer 3 (Foreground)
//Storyboard Layer 4 (Overlay)
//Storyboard Sound Samples

[TimingPoints]
673,285.714285714286,4,2,22,65,1,0
33815,-100,4,2,22,65,0,1
47530,-100,4,2,22,65,0,0
54387,-100,4,2,22,65,0,1
58815,-100,4,2,22,65,0,0

[HitObjects]
64,192,673,128,2,958:0:0:0:0:
320,192,673,1,0,0:0:0:0:
320,192,815,1,0,0:0:0:0:
192,192,958,1,2,0:0:0:0:
448,192,958,1,0,0:0:0:0:
192,192,1244,1,2,0:0:0:0:
448,192,1244,128,0,1530:0:0:0:0:
192,192,1387,1,8,0:0:0:0:
64,192,1530,1,2,0:0:0:0:
320,192,1530,1,0,0:0:0:0:
192,192,1815,1,2,0:0:0:0:
320,192,1815,128,0,2101:0:0:0:0:
64,192,2101,1,2,0:0:0:0:
448,192,2101,1,0,0:0:0:0:
192,192,2387,1,2,0:0:0:0:
448,192,2387,1,0,0:0:0:0:
64,192,2530,1,2,0:0:0:0:
192,192,2530,1,0,0:0:0:0:
320,192,2673,1,2,0:0:0:0:
448,192,2673,1,0,0:0:0:0:
64,192,2815,1,0,0:0:0:0:
192,192,2815,1,0,0:0:0:0:
64,192,2958,1,4,0:0:0:0:
192,192,2958,1,2,0:0:0:0:
320,192,2958,1,0,0:0:0:0:
448,192,2958,1,0,0:0:0:0:
320,192,3101,1,2,0:0:0:0:
448,192,3101,1,0,0:0:0:0:
64,192,3244,1,2,0:0:0:0:
192,192,3244,1,0,0:0:0:0:
64,192,3387,1,4,0:0:0:0:
192,192,3387,1,2,0:0:0:0:
320,192,3387,1,0,0:0:0:0:
448,192,3387,1,0,0:0:0:0:
64,192,3530,1,2,0:0:0:0:
192,192,3530,1,0,0:0:0:0:
320,192,3673,1,2,0:0:0:0:
448,192,3673,1,0,0:0:0:0:
64,192,3815,1,4,0:0:0:0:
192,192,3815,1,2,0:0:0:0:
320,192,3815,1,0,0:0:0:0:
448,192,3815,1,0,0:0:0:0:
320,192,3958,1,2,0:0:0:0:
448,192,3958,1,0,0:0:0:0:
64,192,4101,1,2,0:0:0:0:
192,192,4101,1,0,0:0:0:0:
64,192,4244,1,4,0:0:0:0:
192,192,4244,1,2,0:0:0:0:
320,192,4244,1,0,0:0:0:0:
448,192,4244,1,0,0:0:0:0:
64,192,4387,1,2,0:0:0:0:
192,192,4387,1,0,0:0:0:0:
320,192,4530,1,2,0:0:0:0:
448,192,4530,1,0,0:0:0:0:
64,192,4673,1,4,0:0:0:0:
192,192,4673,1,2,0:0:0:0:
320,192,4673,1,0,0:0:0:0:
448,192,4673,1,0,0:0:0:0:
64,192,4815,1,2,0:0:0:0:
448,192,4815,1,0,0:0:0:0:
64,192,4958,1,4,0:0:0:0:
192,192,4958,1,2,0:0:0:0:
320,192,4958,1,0,0:0:0:0:
448,192,4958,1,0,0:0:0:0:
192,192,5101,1,2,0:0:0:0:
320,192,5101,1,0,0:0:0:0:
64,192,5244,1,2,0:0:0:0:
192,192,5244,1,4,0:0:0:0:
448,192,5244,1,0,0:0:0:0:
320,192,5387,1,0,0:0:0:0:
64,192,5530,1,8,0:0:0:0:
192,192,5530,1,0,0:0:0:0:
448,192,5530,1,0,0:0:0:0:
320,192,5673,1,0,0:0:0:0:
64,192,5815,1,2,0:0:0:0:
192,192,5815,1,0,0:0:0:0:
320,192,5958,1,2,0:0:0:0:
448,192,5958,1,0,0:0:0:0:
64,192,6101,1,8,0:0:0:0:
192,192,6101,1,0,0:0:0:0:
448,192,6101,1,0,0:0:0:0:
320,192,6244,1,0,0:0:0:0:
64,192,6387,1,2,0:0:0:0:
192,192,6387,128,0,6530:0:0:0:0:
320,192,6530,1,0,0:0:0:0:
64,192,6673,1,8,0:0:0:0:
192,192,6673,1,0,0:0:0:0:
448,192,6673,128,0,6815:0:0:0:0:
320,192,6815,1,2,0:0:0:0:
64,192,6958,128,0,7101:0:0:0:0:
448,192,6958,1,0,0:0:0:0:
192,192,7101,1,2,0:0:0:0:
320,192,7101,1,0,0:0:0:0:
64,192,7244,1,8,0:0:0:0:
320,192,7244,128,0,7387:0:0:0:0:
448,192,7244,1,0,0:0:0:0:
192,192,7387,1,0,0:0:0:0:
64,192,7530,1,2,0:0:0:0:
192,192,7530,128,0,7601:0:0:0:0:
320,192,7673,128,0,7744:0:0:0:0:
64,192,7815,128,8,7958:0:0:0:0:
192,192,7815,1,0,0:0:0:0:
448,192,7815,1,0,0:0:0:0:
320,192,7958,1,0,0:0:0:0:
192,192,8101,1,2,0:0:0:0:
320,192,8101,128,0,8173:0:0:0:0:
192,192,8244,128,2,8315:0:0:0:0:
448,192,8244,1,0,0:0:0:0:
64,192,8387,1,8,0:0:0:0:
320,192,8387,1,0,0:0:0:0:
448,192,8387,128,0,8530:0:0:0:0:
192,192,8530,1,0,0:0:0:0:
64,192,8673,1,4,0:0:0:0:
192,192,8673,128,2,8958:0:0:0:0:
320,192,8673,128,0,8958:0:0:0:0:
64,192,8958,1,8,0:0:0:0:
448,192,8958,1,0,0:0:0:0:
448,192,9101,1,4,0:0:0:0:
192,192,9101,128,2,9387:0:0:0:0:
320,192,9101,128,0,9387:0:0:0:0:
64,192,9387,1,8,0:0:0:0:
448,192,9387,1,0,0:0:0:0:
64,192,9530,1,4,0:0:0:0:
320,192,9530,1,2,0:0:0:0:
448,192,9530,1,0,0:0:0:0:
192,192,9673,1,0,0:0:0:0:
320,192,9673,1,0,0:0:0:0:
64,192,9815,1,2,0:0:0:0:
448,192,9815,1,0,0:0:0:0:
192,192,9958,1,0,0:0:0:0:
64,192,10101,1,8,0:0:0:0:
320,192,10101,1,0,0:0:0:0:
448,192,10101,1,0,0:0:0:0:
192,192,10244,1,0,0:0:0:0:
320,192,10387,1,2,0:0:0:0:
448,192,10387,1,0,0:0:0:0:
64,192,10530,1,2,0:0:0:0:
192,192,10530,1,0,0:0:0:0:
64,192,10673,1,8,0:0:0:0:
320,192,10673,1,0,0:0:0:0:
448,192,10673,1,0,0:0:0:0:
192,192,10815,1,0,0:0:0:0:
320,192,10958,1,2,0:0:0:0:
448,192,10958,128,0,11101:0:0:0:0:
192,192,11101,1,0,0:0:0:0:
64,192,11244,128,8,11387:0:0:0:0:
320,192,11244,1,0,0:0:0:0:
448,192,11244,1,0,0:0:0:0:
192,192,11387,1,2,0:0:0:0:
320,192,11387,1,0,0:0:0:0:
448,192,11530,128,0,11673:0:0:0:0:
192,192,11673,1,2,0:0:0:0:
320,192,11673,1,0,0:0:0:0:
64,192,11815,128,8,11958:0:0:0:0:
320,192,11815,1,0,0:0:0:0:
448,192,11815,1,0,0:0:0:0:
192,192,11958,1,0,0:0:0:0:
192,192,12101,128,2,12244:0:0:0:0:
320,192,12101,128,0,12244:0:0:0:0:
448,192,12101,128,0,12244:0:0:0:0:
64,192,12244,1,0,0:0:0:0:
64,192,12387,128,8,12530:0:0:0:0:
192,192,12387,128,0,12530:0:0:0:0:
320,192,12387,128,0,12530:0:0:0:0:
448,192,12530,1,0,0:0:0:0:
64,192,12673,1,2,0:0:0:0:
320,192,12673,1,0,0:0:0:0:
192,192,12815,1,2,0:0:0:0:
320,192,12815,1,0,0:0:0:0:
64,192,12958,1,8,0:0:0:0:
192,192,12958,1,0,0:0:0:0:
448,192,12958,1,0,0:0:0:0:
320,192,13101,1,0,0:0:0:0:
448,192,13101,1,0,0:0:0:0:
64,192,13244,1,8,0:0:0:0:
192,192,13244,1,0,0:0:0:0:
320,192,13244,1,0,0:0:0:0:
64,192,13387,1,0,0:0:0:0:
192,192,13387,1,0,0:0:0:0:
64,192,13530,1,8,0:0:0:0:
320,192,13530,1,0,0:0:0:0:
448,192,13530,1,0,0:0:0:0:
320,192,13673,1,0,0:0:0:0:
448,192,13673,1,0,0:0:0:0:
64,192,13815,1,8,0:0:0:0:
192,192,13815,1,0,0:0:0:0:
448,192,13815,1,0,0:0:0:0:
192,192,13958,1,8,0:0:0:0:
320,192,13958,1,0,0:0:0:0:
448,192,13958,1,0,0:0:0:0:
64,192,14101,1,8,0:0:0:0:
192,192,14101,1,0,0:0:0:0:
320,192,14101,1,0,0:0:0:0:
64,192,14244,1,8,0:0:0:0:
320,192,14244,1,0,0:0:0:0:
448,192,14244,1,0,0:0:0:0:
64,192,14387,1,4,0:0:0:0:
192,192,14387,1,2,0:0:0:0:
448,192,14387,1,0,0:0:0:0:
448,192,14530,1,0,0:0:0:0:
64,192,14673,1,8,0:0:0:0:
192,192,14673,1,0,0:0:0:0:
192,192,14815,1,0,0:0:0:0:
64,192,14958,1,2,0:0:0:0:
448,192,14958,1,0,0:0:0:0:
64,192,15101,1,4,0:0:0:0:
192,192,15101,128,0,15173:0:0:0:0:
320,192,15101,1,0,0:0:0:0:
320,192,15244,1,2,0:0:0:0:
448,192,15244,1,0,0:0:0:0:
448,192,15387,1,0,0:0:0:0:
64,192,15530,1,2,0:0:0:0:
192,192,15530,1,0,0:0:0:0:
192,192,15673,1,0,0:0:0:0:
64,192,15815,1,8,0:0:0:0:
448,192,15815,1,0,0:0:0:0:
64,192,15958,1,0,0:0:0:0:
320,192,16101,1,2,0:0:0:0:
448,192,16101,1,0,0:0:0:0:
64,192,16244,1,4,0:0:0:0:
192,192,16244,1,0,0:0:0:0:
448,192,16244,128,0,16315:0:0:0:0:
64,192,16387,1,2,0:0:0:0:
192,192,16387,1,0,0:0:0:0:
64,192,16530,128,4,16601:0:0:0:0:
320,192,16530,1,0,0:0:0:0:
448,192,16530,1,0,0:0:0:0:
192,192,16673,1,2,0:0:0:0:
320,192,16673,1,4,0:0:0:0:
448,192,16673,128,0,16958:0:0:0:0:
192,192,16815,1,0,0:0:0:0:
64,192,16958,1,8,0:0:0:0:
320,192,16958,1,0,0:0:0:0:
64,192,17101,1,0,0:0:0:0:
320,192,17244,128,2,17530:0:0:0:0:
448,192,17244,1,0,0:0:0:0:
64,192,17387,1,2,0:0:0:0:
192,192,17387,1,0,0:0:0:0:
64,192,17530,1,8,0:0:0:0:
448,192,17530,1,0,0:0:0:0:
192,192,17673,128,0,18387:0:0:0:0:
64,192,17815,1,2,0:0:0:0:
320,192,17815,1,0,0:0:0:0:
64,192,17958,1,0,0:0:0:0:
320,192,18101,1,8,0:0:0:0:
448,192,18101,1,2,0:0:0:0:
448,192,18244,1,0,0:0:0:0:
64,192,18387,1,8,0:0:0:0:
320,192,18387,1,0,0:0:0:0:
192,192,18530,1,0,0:0:0:0:
448,192,18530,1,0,0:0:0:0:
64,192,18673,1,8,0:0:0:0:
320,192,18673,1,0,0:0:0:0:
64,192,18815,1,0,0:0:0:0:
192,192,18815,1,0,0:0:0:0:
192,192,18958,1,4,0:0:0:0:
320,192,18958,1,2,0:0:0:0:
448,192,18958,1,0,0:0:0:0:
320,192,19101,1,0,0:0:0:0:
64,192,19244,1,8,0:0:0:0:
192,192,19244,1,0,0:0:0:0:
192,192,19387,1,0,0:0:0:0:
64,192,19530,1,2,0:0:0:0:
320,192,19530,1,0,0:0:0:0:
192,192,19673,128,4,19744:0:0:0:0:
320,192,19673,1,0,0:0:0:0:
448,192,19673,1,0,0:0:0:0:
64,192,19815,1,2,0:0:0:0:
448,192,19815,1,0,0:0:0:0:
192,192,19958,1,0,0:0:0:0:
64,192,20101,1,2,0:0:0:0:
320,192,20101,1,0,0:0:0:0:
64,192,20244,1,0,0:0:0:0:
192,192,20387,1,8,0:0:0:0:
320,192,20387,1,0,0:0:0:0:
448,192,20387,1,0,0:0:0:0:
448,192,20530,1,0,0:0:0:0:
64,192,20673,1,2,0:0:0:0:
192,192,20673,1,0,0:0:0:0:
64,192,20815,128,4,20887:0:0:0:0:
320,192,20815,1,0,0:0:0:0:
448,192,20815,1,0,0:0:0:0:
320,192,20958,1,2,0:0:0:0:
448,192,20958,1,0,0:0:0:0:
64,192,21101,1,4,0:0:0:0:
192,192,21101,1,0,0:0:0:0:
448,192,21101,128,0,21173:0:0:0:0:
64,192,21244,128,2,21530:0:0:0:0:
192,192,21244,1,4,0:0:0:0:
320,192,21244,1,0,0:0:0:0:
320,192,21387,1,0,0:0:0:0:
192,192,21530,1,8,0:0:0:0:
448,192,21530,1,0,0:0:0:0:
448,192,21673,1,0,0:0:0:0:
64,192,21815,1,2,0:0:0:0:
192,192,21815,128,0,22101:0:0:0:0:
320,192,21958,1,2,0:0:0:0:
448,192,21958,1,0,0:0:0:0:
64,192,22101,1,8,0:0:0:0:
448,192,22101,1,0,0:0:0:0:
320,192,22244,128,0,22958:0:0:0:0:
64,192,22387,1,2,0:0:0:0:
448,192,22387,1,0,0:0:0:0:
64,192,22530,1,8,0:0:0:0:
192,192,22530,1,0,0:0:0:0:
192,192,22673,1,8,0:0:0:0:
448,192,22673,1,0,0:0:0:0:
64,192,22815,1,2,0:0:0:0:
448,192,22815,1,0,0:0:0:0:
64,192,22958,1,8,0:0:0:0:
192,192,22958,1,0,0:0:0:0:
192,192,23101,1,0,0:0:0:0:
320,192,23101,1,0,0:0:0:0:
64,192,23244,1,8,0:0:0:0:
448,192,23244,1,0,0:0:0:0:
192,192,23315,1,8,0:0:0:0:
320,192,23315,1,0,0:0:0:0:
64,192,23387,1,8,0:0:0:0:
448,192,23387,1,0,0:0:0:0:
192,192,23530,1,4,0:0:0:0:
320,192,23530,1,2,0:0:0:0:
448,192,23530,1,0,0:0:0:0:
192,192,23673,1,0,0:0:0:0:
64,192,23815,1,8,0:0:0:0:
320,192,23815,1,0,0:0:0:0:
448,192,23815,1,0,0:0:0:0:
64,192,23958,1,0,0:0:0:0:
320,192,24101,1,2,0:0:0:0:
448,192,24101,1,0,0:0:0:0:
320,192,24244,1,2,0:0:0:0:
448,192,24244,1,0,0:0:0:0:
64,192,24387,1,8,0:0:0:0:
192,192,24387,1,0,0:0:0:0:
448,192,24387,1,0,0:0:0:0:
320,192,24530,1,0,0:0:0:0:
64,192,24673,128,2,24958:0:0:0:0:
192,192,24673,128,4,24958:0:0:0:0:
448,192,24673,1,0,0:0:0:0:
320,192,24815,1,0,0:0:0:0:
448,192,24815,1,0,0:0:0:0:
320,192,24958,1,8,0:0:0:0:
448,192,24958,1,0,0:0:0:0:
64,192,25101,1,4,0:0:0:0:
192,192,25101,128,2,25387:0:0:0:0:
320,192,25101,128,0,25387:0:0:0:0:
64,192,25387,1,2,0:0:0:0:
448,192,25387,1,0,0:0:0:0:
64,192,25530,1,8,0:0:0:0:
192,192,25530,1,0,0:0:0:0:
448,192,25530,1,0,0:0:0:0:
192,192,25815,1,4,0:0:0:0:
320,192,25815,1,2,0:0:0:0:
448,192,25815,1,0,0:0:0:0:
192,192,25958,1,0,0:0:0:0:
64,192,26101,1,8,0:0:0:0:
320,192,26101,1,0,0:0:0:0:
448,192,26101,1,0,0:0:0:0:
64,192,26244,1,0,0:0:0:0:
192,192,26387,1,2,0:0:0:0:
320,192,26387,1,0,0:0:0:0:
192,192,26530,1,2,0:0:0:0:
320,192,26530,1,0,0:0:0:0:
64,192,26673,1,8,0:0:0:0:
192,192,26673,1,0,0:0:0:0:
448,192,26673,1,0,0:0:0:0:
320,192,26815,1,0,0:0:0:0:
64,192,26958,1,4,0:0:0:0:
320,192,26958,128,2,27244:0:0:0:0:
448,192,26958,128,0,27244:0:0:0:0:
64,192,27101,1,2,0:0:0:0:
192,192,27101,1,0,0:0:0:0:
64,192,27244,1,8,0:0:0:0:
192,192,27244,1,0,0:0:0:0:
192,192,27387,128,4,27673:0:0:0:0:
320,192,27387,128,2,27673:0:0:0:0:
448,192,27387,1,0,0:0:0:0:
64,192,27673,1,2,0:0:0:0:
448,192,27673,1,0,0:0:0:0:
64,192,27815,1,8,0:0:0:0:
320,192,27815,1,0,0:0:0:0:
448,192,27815,1,0,0:0:0:0:
192,192,28101,1,4,0:0:0:0:
320,192,28101,1,2,0:0:0:0:
448,192,28101,1,0,0:0:0:0:
192,192,28244,1,0,0:0:0:0:
64,192,28387,128,8,28530:0:0:0:0:
320,192,28387,1,0,0:0:0:0:
448,192,28387,1,0,0:0:0:0:
448,192,28530,1,0,0:0:0:0:
64,192,28673,1,2,0:0:0:0:
320,192,28673,128,0,28815:0:0:0:0:
192,192,28815,1,2,0:0:0:0:
448,192,28815,1,0,0:0:0:0:
64,192,28958,128,8,29101:0:0:0:0:
192,192,28958,1,0,0:0:0:0:
448,192,28958,1,0,0:0:0:0:
320,192,29101,1,0,0:0:0:0:
192,192,29244,128,2,29387:0:0:0:0:
448,192,29244,1,0,0:0:0:0:
320,192,29387,1,0,0:0:0:0:
64,192,29530,1,8,0:0:0:0:
320,192,29530,1,0,0:0:0:0:
448,192,29530,128,0,29673:0:0:0:0:
192,192,29673,1,0,0:0:0:0:
64,192,29815,1,2,0:0:0:0:
320,192,29815,1,0,0:0:0:0:
448,192,29815,1,0,0:0:0:0:
64,192,29958,1,2,0:0:0:0:
320,192,29958,1,0,0:0:0:0:
192,192,30101,1,8,0:0:0:0:
320,192,30101,1,0,0:0:0:0:
448,192,30101,1,0,0:0:0:0:
192,192,30244,1,2,0:0:0:0:
448,192,30244,1,0,0:0:0:0:
64,192,30387,1,8,0:0:0:0:
192,192,30387,1,4,0:0:0:0:
320,192,30387,1,0,0:0:0:0:
64,192,30530,1,2,0:0:0:0:
192,192,30530,1,4,0:0:0:0:
320,192,30530,1,0,0:0:0:0:
64,192,30673,1,0,0:0:0:0:
192,192,30815,1,8,0:0:0:0:
320,192,30815,1,0,0:0:0:0:
448,192,30815,1,0,0:0:0:0:
192,192,30958,1,2,0:0:0:0:
320,192,30958,1,8,0:0:0:0:
448,192,30958,1,4,0:0:0:0:
448,192,31101,1,0,0:0:0:0:
64,192,31244,1,8,0:0:0:0:
192,192,31244,1,0,0:0:0:0:
320,192,31244,1,0,0:0:0:0:
64,192,31387,1,2,0:0:0:0:
192,192,31387,1,8,0:0:0:0:
320,192,31387,1,4,0:0:0:0:
192,192,31530,1,0,0:0:0:0:
64,192,31673,1,8,0:0:0:0:
320,192,31673,1,0,0:0:0:0:
448,192,31673,1,0,0:0:0:0:
64,192,31815,1,8,0:0:0:0:
192,192,31815,1,0,0:0:0:0:
448,192,31815,1,0,0:0:0:0:
64,192,31958,1,8,0:0:0:0:
192,192,31958,1,0,0:0:0:0:
320,192,31958,1,0,0:0:0:0:
192,192,32101,1,8,0:0:0:0:
320,192,32101,1,0,0:0:0:0:
448,192,32101,1,0,0:0:0:0:
64,192,32244,1,8,0:0:0:0:
320,192,32244,1,0,0:0:0:0:
448,192,32244,1,0,0:0:0:0:
64,192,32387,1,8,0:0:0:0:
192,192,32387,1,0,0:0:0:0:
448,192,32387,1,0,0:0:0:0:
64,192,32530,1,8,0:0:0:0:
192,192,32530,1,0,0:0:0:0:
320,192,32530,1,0,0:0:0:0:
320,192,32673,1,8,0:0:0:0:
448,192,32673,128,0,33530:0:0:0:0:
64,192,32815,1,2,0:0:0:0:
64,192,32958,1,2,0:0:0:0:
64,192,33101,1,8,0:0:0:0:
320,192,33101,1,0,0:0:0:0:
192,192,33244,1,2,0:0:0:0:
192,192,33387,1,2,0:0:0:0:
64,192,33530,1,8,0:0:0:0:
192,192,33530,1,4,0:0:0:0:
320,192,33530,1,0,0:0:0:0:
64,192,33815,1,2,0:0:0:0:
192,192,33815,1,4,0:0:0:0:
320,192,33815,1,0,0:0:0:0:
448,192,33815,1,0,0:0:0:0:
192,192,33958,1,0,0:0:0:0:
448,192,33958,1,0,0:0:0:0:
64,192,34101,1,8,0:0:0:0:
320,192,34101,1,0,0:0:0:0:
448,192,34101,1,0,0:0:0:0:
64,192,34244,1,0,0:0:0:0:
320,192,34244,1,0,0:0:0:0:
192,192,34387,1,2,0:0:0:0:
448,192,34387,1,0,0:0:0:0:
192,192,34530,1,2,0:0:0:0:
448,192,34530,1,0,0:0:0:0:
64,192,34673,1,8,0:0:0:0:
192,192,34673,1,0,0:0:0:0:
320,192,34673,1,0,0:0:0:0:
64,192,34815,1,0,0:0:0:0:
320,192,34815,1,0,0:0:0:0:
320,192,34958,1,2,0:0:0:0:
448,192,34958,1,0,0:0:0:0:
320,192,35101,1,0,0:0:0:0:
448,192,35101,1,0,0:0:0:0:
64,192,35244,1,8,0:0:0:0:
192,192,35244,1,0,0:0:0:0:
448,192,35244,1,0,0:0:0:0:
64,192,35387,1,0,0:0:0:0:
192,192,35387,1,0,0:0:0:0:
320,192,35530,1,2,0:0:0:0:
448,192,35530,1,0,0:0:0:0:
320,192,35673,1,2,0:0:0:0:
448,192,35673,1,0,0:0:0:0:
64,192,35815,1,8,0:0:0:0:
192,192,35815,1,0,0:0:0:0:
448,192,35815,1,0,0:0:0:0:
64,192,35958,1,0,0:0:0:0:
192,192,35958,1,0,0:0:0:0:
192,192,36101,128,2,36387:0:0:0:0:
448,192,36101,1,0,0:0:0:0:
64,192,36244,1,0,0:0:0:0:
64,192,36387,1,8,0:0:0:0:
320,192,36387,1,0,0:0:0:0:
448,192,36387,128,0,36673:0:0:0:0:
320,192,36530,1,0,0:0:0:0:
64,192,36673,128,2,36958:0:0:0:0:
192,192,36673,1,0,0:0:0:0:
320,192,36815,1,2,0:0:0:0:
448,192,36815,1,0,0:0:0:0:
192,192,36958,1,8,0:0:0:0:
320,192,36958,1,0,0:0:0:0:
448,192,36958,1,0,0:0:0:0:
64,192,37101,1,2,0:0:0:0:
192,192,37101,128,4,37387:0:0:0:0:
320,192,37101,128,0,37387:0:0:0:0:
64,192,37387,1,2,0:0:0:0:
448,192,37387,1,0,0:0:0:0:
64,192,37530,1,8,0:0:0:0:
192,192,37530,1,0,0:0:0:0:
448,192,37530,1,0,0:0:0:0:
320,192,37673,1,2,0:0:0:0:
64,192,37815,1,0,0:0:0:0:
448,192,37815,1,0,0:0:0:0:
192,192,37958,1,2,0:0:0:0:
320,192,37958,1,0,0:0:0:0:
64,192,38101,1,8,0:0:0:0:
320,192,38101,1,0,0:0:0:0:
448,192,38101,1,0,0:0:0:0:
192,192,38244,1,0,0:0:0:0:
448,192,38244,1,0,0:0:0:0:
64,192,38387,1,2,0:0:0:0:
320,192,38387,1,4,0:0:0:0:
448,192,38387,1,0,0:0:0:0:
64,192,38530,1,0,0:0:0:0:
320,192,38530,1,0,0:0:0:0:
64,192,38673,1,8,0:0:0:0:
192,192,38673,1,0,0:0:0:0:
448,192,38673,1,0,0:0:0:0:
192,192,38815,1,0,0:0:0:0:
448,192,38815,1,0,0:0:0:0:
64,192,38958,1,2,0:0:0:0:
320,192,38958,1,0,0:0:0:0:
64,192,39101,1,2,0:0:0:0:
320,192,39101,1,0,0:0:0:0:
192,192,39244,1,8,0:0:0:0:
320,192,39244,1,0,0:0:0:0:
448,192,39244,1,0,0:0:0:0:
192,192,39387,1,0,0:0:0:0:
448,192,39387,1,0,0:0:0:0:
64,192,39530,1,2,0:0:0:0:
192,192,39530,1,0,0:0:0:0:
64,192,39673,1,0,0:0:0:0:
192,192,39673,1,0,0:0:0:0:
64,192,39815,1,8,0:0:0:0:
320,192,39815,1,0,0:0:0:0:
448,192,39815,1,0,0:0:0:0:
320,192,39958,1,0,0:0:0:0:
448,192,39958,1,0,0:0:0:0:
64,192,40101,1,2,0:0:0:0:
192,192,40101,1,0,0:0:0:0:
64,192,40244,1,2,0:0:0:0:
192,192,40244,1,0,0:0:0:0:
64,192,40387,1,8,0:0:0:0:
320,192,40387,1,0,0:0:0:0:
448,192,40387,1,0,0:0:0:0:
320,192,40530,1,0,0:0:0:0:
448,192,40530,1,0,0:0:0:0:
64,192,40673,1,2,0:0:0:0:
320,192,40673,128,0,40958:0:0:0:0:
448,192,40815,1,0,0:0:0:0:
64,192,40958,128,8,41244:0:0:0:0:
192,192,40958,1,0,0:0:0:0:
448,192,40958,1,0,0:0:0:0:
320,192,41101,1,0,0:0:0:0:
192,192,41244,1,2,0:0:0:0:
448,192,41244,128,0,41530:0:0:0:0:
64,192,41387,1,2,0:0:0:0:
320,192,41387,1,0,0:0:0:0:
64,192,41530,1,8,0:0:0:0:
192,192,41530,128,0,41815:0:0:0:0:
320,192,41530,1,0,0:0:0:0:
448,192,41673,1,0,0:0:0:0:
64,192,41815,1,2,0:0:0:0:
320,192,41815,1,0,0:0:0:0:
64,192,41958,1,8,0:0:0:0:
192,192,41958,1,2,0:0:0:0:
448,192,41958,1,0,0:0:0:0:
64,192,42244,1,8,0:0:0:0:
192,192,42244,1,2,0:0:0:0:
448,192,42244,1,0,0:0:0:0:
64,192,42530,1,8,0:0:0:0:
320,192,42530,1,2,0:0:0:0:
448,192,42530,1,0,0:0:0:0:
64,192,42815,1,8,0:0:0:0:
320,192,42815,1,2,0:0:0:0:
448,192,42815,1,0,0:0:0:0:
192,192,42958,1,4,0:0:0:0:
320,192,42958,1,2,0:0:0:0:
448,192,42958,1,0,0:0:0:0:
192,192,43101,1,0,0:0:0:0:
320,192,43101,1,0,0:0:0:0:
64,192,43244,1,8,0:0:0:0:
192,192,43244,1,0,0:0:0:0:
448,192,43244,1,0,0:0:0:0:
64,192,43387,1,0,0:0:0:0:
448,192,43387,1,0,0:0:0:0:
192,192,43530,1,2,0:0:0:0:
320,192,43530,1,0,0:0:0:0:
192,192,43673,1,2,0:0:0:0:
320,192,43673,1,0,0:0:0:0:
64,192,43815,1,8,0:0:0:0:
320,192,43815,1,0,0:0:0:0:
448,192,43815,1,0,0:0:0:0:
64,192,43958,1,0,0:0:0:0:
448,192,43958,1,0,0:0:0:0:
64,192,44101,1,2,0:0:0:0:
192,192,44101,1,0,0:0:0:0:
64,192,44244,1,0,0:0:0:0:
192,192,44244,1,0,0:0:0:0:
192,192,44387,1,8,0:0:0:0:
320,192,44387,1,0,0:0:0:0:
448,192,44387,1,0,0:0:0:0:
320,192,44530,1,0,0:0:0:0:
448,192,44530,1,0,0:0:0:0:
64,192,44673,1,2,0:0:0:0:
192,192,44673,1,0,0:0:0:0:
64,192,44815,1,2,0:0:0:0:
192,192,44815,1,0,0:0:0:0:
192,192,44958,1,8,0:0:0:0:
320,192,44958,1,0,0:0:0:0:
448,192,44958,1,0,0:0:0:0:
320,192,45101,1,0,0:0:0:0:
448,192,45101,1,0,0:0:0:0:
64,192,45244,128,2,45530:0:0:0:0:
320,192,45244,1,0,0:0:0:0:
448,192,45387,1,0,0:0:0:0:
192,192,45530,1,8,0:0:0:0:
320,192,45530,128,0,45815:0:0:0:0:
448,192,45530,1,0,0:0:0:0:
64,192,45673,1,0,0:0:0:0:
192,192,45815,1,2,0:0:0:0:
448,192,45815,1,0,0:0:0:0:
192,192,45958,1,2,0:0:0:0:
320,192,45958,1,0,0:0:0:0:
64,192,46101,1,8,0:0:0:0:
320,192,46101,1,0,0:0:0:0:
448,192,46101,1,0,0:0:0:0:
64,192,46244,128,4,46530:0:0:0:0:
192,192,46244,128,2,46530:0:0:0:0:
448,192,46244,1,0,0:0:0:0:
320,192,46530,1,2,0:0:0:0:
448,192,46530,1,0,0:0:0:0:
64,192,46673,1,8,0:0:0:0:
192,192,46673,1,0,0:0:0:0:
192,192,46815,1,2,0:0:0:0:
448,192,46815,1,0,0:0:0:0:
320,192,46958,128,0,47101:0:0:0:0:
64,192,47101,1,2,0:0:0:0:
192,192,47101,1,0,0:0:0:0:
64,192,47244,1,4,0:0:0:0:
320,192,47244,1,2,0:0:0:0:
448,192,47244,128,0,47387:0:0:0:0:
64,192,47530,1,2,0:0:0:0:
192,192,47530,1,4,0:0:0:0:
320,192,47530,128,0,47673:0:0:0:0:
192,192,47815,128,0,47958:0:0:0:0:
64,192,47958,1,2,0:0:0:0:
448,192,47958,1,0,0:0:0:0:
64,192,48101,1,8,0:0:0:0:
320,192,48101,1,0,0:0:0:0:
448,192,48101,128,0,48244:0:0:0:0:
64,192,48387,128,0,48530:0:0:0:0:
192,192,48530,1,0,0:0:0:0:
320,192,48601,1,0,0:0:0:0:
192,192,48673,128,2,48815:0:0:0:0:
448,192,48673,1,0,0:0:0:0:
320,192,48815,1,8,0:0:0:0:
64,192,48958,128,0,49101:0:0:0:0:
192,192,49101,1,2,0:0:0:0:
448,192,49101,1,0,0:0:0:0:
64,192,49244,1,8,0:0:0:0:
320,192,49244,128,0,49387:0:0:0:0:
448,192,49244,1,0,0:0:0:0:
64,192,49387,1,0,0:0:0:0:
192,192,49530,1,2,0:0:0:0:
448,192,49530,128,0,49673:0:0:0:0:
64,192,49673,1,0,0:0:0:0:
64,192,49815,1,4,0:0:0:0:
192,192,49815,1,2,0:0:0:0:
448,192,49815,1,0,0:0:0:0:
192,192,49958,128,0,50244:0:0:0:0:
320,192,49958,1,0,0:0:0:0:
448,192,50101,1,0,0:0:0:0:
320,192,50244,128,2,50387:0:0:0:0:
448,192,50244,1,0,0:0:0:0:
64,192,50387,1,8,0:0:0:0:
192,192,50387,1,0,0:0:0:0:
320,192,50530,1,2,0:0:0:0:
448,192,50530,1,0,0:0:0:0:
192,192,50673,1,0,0:0:0:0:
192,192,50815,1,0,0:0:0:0:
64,192,50887,1,0,0:0:0:0:
320,192,50958,1,2,0:0:0:0:
448,192,50958,1,0,0:0:0:0:
64,192,51101,1,8,0:0:0:0:
192,192,51101,1,0,0:0:0:0:
448,192,51101,1,0,0:0:0:0:
320,192,51244,1,0,0:0:0:0:
192,192,51387,1,2,0:0:0:0:
448,192,51387,1,0,0:0:0:0:
64,192,51530,1,8,0:0:0:0:
192,192,51530,1,0,0:0:0:0:
448,192,51530,1,0,0:0:0:0:
320,192,51673,1,0,0:0:0:0:
192,192,51815,1,2,0:0:0:0:
320,192,51815,1,0,0:0:0:0:
64,192,51958,1,2,0:0:0:0:
448,192,51958,1,0,0:0:0:0:
64,192,52101,128,4,52244:0:0:0:0:
192,192,52101,1,2,0:0:0:0:
320,192,52101,128,0,53101:0:0:0:0:
448,192,52101,128,0,53101:0:0:0:0:
192,192,52387,128,0,52530:0:0:0:0:
64,192,52673,128,0,52815:0:0:0:0:
192,192,52958,128,0,53101:0:0:0:0:
64,192,53244,128,4,54101:0:0:0:0:
192,192,53244,128,2,54101:0:0:0:0:
320,192,53244,1,0,0:0:0:0:
448,192,53244,128,0,53387:0:0:0:0:
320,192,53530,128,0,53673:0:0:0:0:
448,192,53815,128,0,53958:0:0:0:0:
320,192,54101,1,8,0:0:0:0:
448,192,54101,1,0,0:0:0:0:
64,192,54387,1,8,0:0:0:0:
192,192,54387,1,4,0:0:0:0:
320,192,54387,1,2,0:0:0:0:
448,192,54387,1,0,0:0:0:0:
320,192,54530,1,2,0:0:0:0:
448,192,54530,1,0,0:0:0:0:
320,192,54673,1,2,0:0:0:0:
448,192,54673,1,0,0:0:0:0:
64,192,54815,1,8,0:0:0:0:
192,192,54815,1,4,0:0:0:0:
320,192,54815,1,2,0:0:0:0:
448,192,54815,1,0,0:0:0:0:
64,192,54958,1,2,0:0:0:0:
192,192,54958,1,0,0:0:0:0:
64,192,55101,1,2,0:0:0:0:
192,192,55101,1,0,0:0:0:0:
64,192,55244,1,8,0:0:0:0:
192,192,55244,1,4,0:0:0:0:
320,192,55244,1,2,0:0:0:0:
448,192,55244,1,0,0:0:0:0:
320,192,55387,1,2,0:0:0:0:
448,192,55387,1,0,0:0:0:0:
320,192,55530,1,2,0:0:0:0:
448,192,55530,1,0,0:0:0:0:
64,192,55673,1,8,0:0:0:0:
192,192,55673,1,4,0:0:0:0:
320,192,55673,1,2,0:0:0:0:
448,192,55673,1,0,0:0:0:0:
64,192,55815,1,2,0:0:0:0:
192,192,55815,1,0,0:0:0:0:
64,192,55958,1,2,0:0:0:0:
192,192,55958,1,0,0:0:0:0:
64,192,56101,1,4,0:0:0:0:
192,192,56101,1,8,0:0:0:0:
320,192,56101,1,2,0:0:0:0:
448,192,56101,1,0,0:0:0:0:
64,192,56244,1,2,0:0:0:0:
448,192,56244,1,0,0:0:0:0:
64,192,56387,1,4,0:0:0:0:
192,192,56387,1,8,0:0:0:0:
320,192,56387,1,2,0:0:0:0:
448,192,56387,1,0,0:0:0:0:
192,192,56530,1,2,0:0:0:0:
320,192,56530,1,0,0:0:0:0:
64,192,56673,1,4,0:0:0:0:
192,192,56673,1,8,0:0:0:0:
320,192,56673,1,2,0:0:0:0:
448,192,56673,1,0,0:0:0:0:
320,192,56815,1,2,0:0:0:0:
448,192,56815,1,0,0:0:0:0:
320,192,56958,1,2,0:0:0:0:
448,192,56958,1,0,0:0:0:0:
64,192,57101,1,8,0:0:0:0:
192,192,57101,1,2,0:0:0:0:
448,192,57101,1,0,0:0:0:0:
64,192,57244,1,2,0:0:0:0:
192,192,57244,1,0,0:0:0:0:
64,192,57387,1,2,0:0:0:0:
192,192,57387,1,0,0:0:0:0:
64,192,57530,1,8,0:0:0:0:
192,192,57530,1,4,0:0:0:0:
320,192,57530,1,2,0:0:0:0:
448,192,57530,1,0,0:0:0:0:
320,192,57673,1,2,0:0:0:0:
448,192,57673,1,0,0:0:0:0:
320,192,57815,1,2,0:0:0:0:
448,192,57815,1,0,0:0:0:0:
64,192,57958,1,8,0:0:0:0:
192,192,57958,1,2,0:0:0:0:
448,192,57958,1,0,0:0:0:0:
64,192,58101,1,2,0:0:0:0:
192,192,58101,1,0,0:0:0:0:
64,192,58244,1,2,0:0:0:0:
192,192,58244,1,0,0:0:0:0:
192,192,58387,1,8,0:0:0:0:
320,192,58387,1,2,0:0:0:0:
448,192,58387,1,0,0:0:0:0:
64,192,58530,1,8,0:0:0:0:
320,192,58530,1,2,0:0:0:0:
448,192,58530,1,0,0:0:0:0:
64,192,58673,1,8,0:0:0:0:
192,192,58673,1,2,0:0:0:0:
448,192,58673,1,0,0:0:0:0:
64,192,58815,128,8,58958:0:0:0:0:
192,192,58815,128,2,58958:0:0:0:0:
320,192,58815,128,0,58958:0:0:0:0:
448,192,58815,128,0,58958:0:0:0:0:
