osu file format v14

[General]
AudioFilename: audio.mp3
AudioLeadIn: 0
PreviewTime: 35592
Countdown: 0
SampleSet: Soft
StackLeniency: 0.7
Mode: 0
LetterboxInBreaks: 0
WidescreenStoryboard: 0

[Editor]
DistanceSpacing: 1.3
BeatDivisor: 2
GridSize: 4
TimelineZoom: 1

[Metadata]
Title:Kani*Do-Luck!
TitleUnicode:カニ☆Do-Luck!
Artist:Aiu Rabu
ArtistUnicode:あいう♥らぶ
Creator:xChorse
Version:Normal
Source:あいうら
Tags:crabs steve jobs apple thighs aiurabu love think nani aiura opening
BeatmapID:1270805
BeatmapSetID:601556

[Difficulty]
HPDrainRate:4
CircleSize:3.2
OverallDifficulty:4.5
ApproachRate:5
SliderMultiplier:0.600000005960464
SliderTickRate:1

[Events]
//Background and Video events
0,0,"bgnormal.jpg",0,0
//Break Periods
//Storyboard Layer 0 (Background)
//Storyboard Layer 1 (Fail)
//Storyboard Layer 2 (Pass)
//Storyboard Layer 3 (Foreground)
//Storyboard Sound Samples

[TimingPoints]
2450,285.714285714286,4,2,1,65,1,0
35592,-100,4,2,1,65,0,1
49307,-100,4,2,1,65,0,0
56164,-100,4,2,1,65,0,1
60592,-100,4,2,1,65,0,0

[Colours]
Combo1 : 142,153,249
Combo2 : 225,113,0
Combo3 : 241,168,58
Combo4 : 243,208,101

[HitObjects]
207,287,2450,6,0,P|161:296|117:282,2,90.0000008940696,8|8|8,0:0|0:0|0:0,0:0:0:0:
271,242,3592,2,0,L|267:177,1,60.0000005960464,4|8,0:0|0:0,0:0:0:0:
205,133,4164,2,0,L|208:73,1,60.0000005960464,8|8,0:0|0:0,0:0:0:0:
282,49,4735,6,0,P|339:62|375:53,2,90.0000008940696,4|8|8,0:0|0:0|0:0,0:0:0:0:
207,73,5878,1,4,0:0:0:0:
151,128,6164,1,8,0:0:0:0:
178,201,6450,2,0,L|175:261,1,60.0000005960464,4|8,0:0|0:0,0:0:0:0:
123,319,7021,6,0,P|66:332|30:323,2,90.0000008940696,4|4|8,0:0|0:0|0:0,0:0:0:0:
198,337,8164,2,0,L|258:340,1,60.0000005960464,4|8,0:0|0:0,0:0:0:0:
309,281,8735,2,0,L|369:278,1,60.0000005960464,4|8,0:0|0:0,0:0:0:0:
434,235,9307,5,4,0:0:0:0:
383,87,9878,1,4,0:0:0:0:
248,166,10450,6,0,L|188:163,1,60.0000005960464,4|8,0:0|0:0,0:0:0:0:
171,138,10878,2,0,L|111:141,1,60.0000005960464,4|8,0:0|0:0,0:0:0:0:
87,123,11307,2,0,L|27:120,1,60.0000005960464,8|4,0:0|0:0,0:0:0:0:
8,195,11878,5,8,0:0:0:0:
65,248,12164,2,0,P|70:280|65:316,1,60.0000005960464,4|8,0:0|0:0,0:0:0:0:
125,359,12735,2,0,P|155:361|185:356,1,60.0000005960464,4|8,0:0|0:0,0:0:0:0:
254,320,13307,2,0,L|314:323,1,60.0000005960464,4|8,0:0|0:0,0:0:0:0:
388,299,13878,5,4,0:0:0:0:
419,146,14450,1,4,0:0:0:0:
301,43,15021,2,0,P|256:34|212:41,2,90.0000008940696,4|4|8,0:0|0:0|0:0,0:0:0:0:
368,81,16164,6,0,B|403:86|427:75|427:75|460:86|495:81,1,120.000001192093,4|8,0:0|0:0,0:0:0:0:
429,184,17164,2,0,B|424:219|435:243|435:243|455:294|434:352,1,150.000001490116,4|4,0:0|0:0,0:0:0:0:
371,367,18164,1,8,0:0:0:0:
304,326,18450,6,0,B|245:316|245:316|184:327,2,120.000001192093,4|4|4,0:0|0:0|0:0,0:0:0:0:
363,275,19878,1,8,0:0:0:0:
402,207,20164,2,0,L|399:147,1,60.0000005960464,8|8,0:0|0:0,0:0:0:0:
344,90,20735,6,0,B|309:85|285:96|285:96|252:85|217:90,1,120.000001192093,4|8,0:0|0:0,0:0:0:0:
128,153,21735,2,0,B|139:186|124:227|124:227|112:268|129:305,1,150.000001490116,4|4,0:0|0:0,0:0:0:0:
186,350,22735,1,8,0:0:0:0:
263,355,23021,6,0,L|323:352,1,60.0000005960464,4|8,0:0|0:0,0:0:0:0:
386,306,23592,2,0,P|433:315|484:299,2,90.0000008940696,4|4|8,0:0|0:0|0:0,0:0:0:0:
341,242,24735,2,0,L|338:182,1,60.0000005960464,8|8,0:0|0:0,0:0:0:0:
285,124,25307,6,0,P|251:130|203:119,1,60.0000005960464,4|8,0:0|0:0,0:0:0:0:
149,113,25878,2,0,P|119:110|89:116,1,60.0000005960464,4|8,0:0|0:0,0:0:0:0:
36,173,26450,6,0,L|33:233,1,60.0000005960464,4|8,0:0|0:0,0:0:0:0:
8,250,26878,2,0,L|11:310,1,60.0000005960464,4|0,0:0|0:0,0:0:0:0:
36,327,27307,1,8,0:0:0:0:
110,303,27592,6,0,P|144:297|192:308,1,60.0000005960464,4|8,0:0|0:0,0:0:0:0:
239,333,28164,2,0,P|268:335|298:329,1,60.0000005960464,4|8,0:0|0:0,0:0:0:0:
362,284,28735,6,0,L|365:224,1,60.0000005960464,4|8,0:0|0:0,0:0:0:0:
390,208,29164,2,0,L|387:148,1,60.0000005960464,4|4,0:0|0:0,0:0:0:0:
362,131,29592,1,8,0:0:0:0:
291,164,29878,6,0,P|262:166|232:160,1,60.0000005960464,4|8,0:0|0:0,0:0:0:0:
178,102,30450,1,4,0:0:0:0:
115,55,30735,1,8,2:0:0:0:
54,104,31021,2,0,P|47:133|49:163,1,60.0000005960464,4|8,2:0|2:0,0:0:0:0:
96,224,31592,2,0,P|98:253|92:283,1,60.0000005960464,4|8,2:0|0:0,0:0:0:0:
76,359,32164,6,0,L|136:356,1,60.0000005960464,4|8,0:0|0:0,0:0:0:0:
194,304,32735,2,0,L|254:307,1,60.0000005960464,4|8,0:0|0:0,0:0:0:0:
319,349,33307,2,0,P|377:360|426:339,2,90.0000008940696,6|2|2,0:0|0:0|0:0,0:0:0:0:
264,329,35592,6,0,B|262:293|262:293|269:245,1,60.0000005960464,4|8,0:0|0:0,0:0:0:0:
323,217,36164,2,0,B|325:181|325:181|321:157,1,60.0000005960464,4|8,0:0|0:0,0:0:0:0:
260,108,36735,2,0,B|236:111|236:111|200:109,1,60.0000005960464,4|8,0:0|0:0,0:0:0:0:
145,52,37307,2,0,B|121:48|121:48|85:50,1,60.0000005960464,4|8,0:0|0:0,0:0:0:0:
61,124,37878,6,0,P|73:181|47:246,1,120.000001192093,4|4,0:0|0:0,0:0:0:0:
143,312,38878,2,0,P|162:264|204:236,1,90.0000008940696,4|8,0:0|0:0,0:0:0:0:
259,203,39592,1,4,0:0:0:0:
327,240,39878,1,8,0:0:0:0:
376,300,40164,6,0,P|405:305|434:299,1,60.0000005960464,4|8,0:0|0:0,0:0:0:0:
476,232,40735,2,0,P|482:202|476:173,1,60.0000005960464,4|8,0:0|0:0,0:0:0:0:
414,124,41307,2,0,P|384:129|355:123,1,60.0000005960464,4|8,0:0|0:0,0:0:0:0:
286,86,41878,2,0,P|279:56|285:27,1,60.0000005960464,4|8,0:0|0:0,0:0:0:0:
204,24,42450,6,0,P|158:47|83:25,1,120.000001192093,4|4,0:0|0:0,0:0:0:0:
17,13,43307,1,8,0:0:0:0:
38,87,43592,2,0,L|27:197,2,90.0000008940696,4|8|8,0:0|0:0|0:0,0:0:0:0:
91,30,44735,6,0,L|175:28,1,60.0000005960464,4|8,0:0|0:0,0:0:0:0:
216,71,45307,2,0,L|275:72,1,60.0000005960464,4|8,0:0|0:0,0:0:0:0:
335,123,45878,2,0,L|333:182,1,60.0000005960464,4|8,0:0|0:0,0:0:0:0:
268,227,46450,2,0,L|269:286,1,60.0000005960464,4|8,0:0|0:0,0:0:0:0:
327,338,47021,6,0,P|384:350|449:324,1,120.000001192093,4|4,0:0|0:0,0:0:0:0:
429,213,48021,2,0,P|421:154|444:106,1,90.0000008940696,4|8,0:0|0:0,0:0:0:0:
475,62,48735,1,4,0:0:0:0:
410,17,49021,1,8,0:0:0:0:
345,60,49307,6,0,P|289:81|218:47,1,120.000001192093,4|8,0:0|0:0,0:0:0:0:
168,20,50164,1,0,0:0:0:0:
109,71,50450,2,0,P|80:123|96:191,1,120.000001192093,4|8,0:0|0:0,0:0:0:0:
148,231,51307,1,0,0:0:0:0:
224,214,51592,2,0,B|283:207|283:207|365:217,2,120.000001192093,4|4|8,0:0|0:0|0:0,0:0:0:0:
101,310,53307,5,4,0:0:0:0:
173,339,53592,1,0,0:0:0:0:
250,329,53878,2,0,P|309:317|386:343,1,120.000001192093,6|0,0:0|0:0,0:0:0:0:
441,351,54735,1,0,0:0:0:0:
493,292,55021,2,0,P|507:234|495:175,1,120.000001192093,6|0,0:0|0:0,0:0:0:0:
442,118,55878,1,0,0:0:0:0:
367,96,56164,6,0,L|307:93,1,60.0000005960464,4|0,0:0|0:0,0:0:0:0:
289,68,56593,2,0,L|229:71,1,60.0000005960464,8|0,0:0|0:0,0:0:0:0:
202,82,57021,2,0,P|198:140|180:170,1,90.0000008940696,8|8,0:0|0:0,0:0:0:0:
91,240,57878,1,8,0:0:0:0:
133,305,58164,1,8,0:0:0:0:
210,313,58450,6,0,L|270:316,1,60.0000005960464,4|0,0:0|0:0,0:0:0:0:
287,341,58879,2,0,L|347:338,1,60.0000005960464,8|0,0:0|0:0,0:0:0:0:
375,327,59307,2,0,P|379:269|397:239,1,90.0000008940696,8|8,0:0|0:0,0:0:0:0:
340,138,60164,2,0,L|280:141,1,60.0000005960464,8|0,0:0|0:0,0:0:0:0:
253,155,60592,1,8,0:0:0:0:
