osu file format v14

[General]
AudioFilename: audio.mp3
AudioLeadIn: 0
PreviewTime: 35592
Countdown: 0
SampleSet: Soft
StackLeniency: 0.7
Mode: 0
LetterboxInBreaks: 0
WidescreenStoryboard: 0

[Editor]
Bookmarks: 60460
DistanceSpacing: 1.5
BeatDivisor: 16
GridSize: 32
TimelineZoom: 1.6

[Metadata]
Title:Kani*Do-Luck!
TitleUnicode:カニ☆Do-Luck!
Artist:Aiu Rabu
ArtistUnicode:あいう♥らぶ
Creator:xChorse
Version:Insane
Source:あいうら
Tags:crabs steve jobs apple thighs aiurabu love think nani aiura opening
BeatmapID:1270804
BeatmapSetID:601556

[Difficulty]
HPDrainRate:5.5
CircleSize:3.8
OverallDifficulty:7
ApproachRate:8.7
SliderMultiplier:1.20000000596046
SliderTickRate:1

[Events]
//Background and Video events
0,0,"bginsane.jpg",0,0
//Break Periods
//Storyboard Layer 0 (Background)
//Storyboard Layer 1 (Fail)
//Storyboard Layer 2 (Pass)
//Storyboard Layer 3 (Foreground)
//Storyboard Sound Samples

[TimingPoints]
2450,285.714285714286,4,2,1,65,1,0
35592,-100,4,2,1,65,0,1
49307,-100,4,2,1,65,0,0
56164,-100,4,2,1,65,0,1
60592,-100,4,2,1,65,0,0

[Colours]
Combo1 : 142,153,249
Combo2 : 225,113,0
Combo3 : 241,168,58
Combo4 : 243,208,101

[HitObjects]
86,117,2450,5,8,0:0:0:0:
71,193,2592,1,0,0:0:0:0:
117,255,2735,2,0,L|176:247,1,60.000000298023,8|0,0:0|0:0,0:0:0:0:
227,188,3021,1,8,0:0:0:0:
255,115,3164,1,0,0:0:0:0:
178,128,3306,1,8,0:0:0:0:
274,261,3450,6,0,P|335:270|390:231,1,120.000000596046
414,144,3878,1,8,0:0:0:0:
315,179,4021,1,0,0:0:0:0:
458,213,4164,2,0,P|482:190|494:157,1,60.000000298023,8|8,0:0|0:0,0:0:0:0:
411,78,4450,2,0,L|413:138,1,60.000000298023,8|0,0:0|0:0,0:0:0:0:
315,179,4735,5,4,0:0:0:0:
333,78,4878,1,0,0:0:0:0:
414,144,5021,1,8,0:0:0:0:
286,256,5164,2,0,P|253:234|248:134,1,120.000000596046,4|0,0:0|0:0,0:0:0:0:
333,78,5592,1,8,0:0:0:0:
235,159,5735,6,0,P|196:166|121:99,1,120.000000596046,4|0,0:0|0:0,0:0:0:0:
96,35,6164,1,8,0:0:0:0:
203,85,6307,1,0,0:0:0:0:
52,104,6450,2,0,P|28:81|16:48,1,60.000000298023,4|0,0:0|0:0,0:0:0:0:
201,25,6735,2,0,L|203:105,1,60.000000298023,8|0,0:0|0:0,0:0:0:0:
220,185,7021,5,4,0:0:0:0:
124,233,7164,1,0,0:0:0:0:
130,125,7307,1,8,0:0:0:0:
288,135,7450,2,0,P|303:192|278:246,1,120.000000596046,4|0,0:0|0:0,0:0:0:0:
230,76,7878,2,0,P|254:59|284:53,1,60.000000298023,8|0,0:0|0:0,0:0:0:0:
384,94,8164,6,0,L|388:232,1,120.000000596046,4|8,0:0|0:0,0:0:0:0:
288,135,8592,1,0,0:0:0:0:
288,135,8735,2,0,L|284:272,1,120.000000596046,4|8,0:0|0:0,0:0:0:0:
177,274,9164,1,0,0:0:0:0:
88,211,9307,6,0,P|82:166|97:130,1,60.000000298023,4|0,0:0|0:0,0:0:0:0:
177,96,9592,2,0,P|183:141|168:177,1,60.000000298023,8|0,0:0|0:0,0:0:0:0:
110,45,9878,2,0,P|145:17|184:12,1,60.000000298023,4|0,0:0|0:0,0:0:0:0:
310,52,10164,2,0,P|274:79|235:84,1,60.000000298023,8|0,0:0|0:0,0:0:0:0:
397,43,10450,6,0,P|421:100|388:170,1,120.000000596046,4|8,0:0|0:0,0:0:0:0:
284,254,10878,2,0,L|164:250,1,120.000000596046,4|8,0:0|0:0,0:0:0:0:
96,164,11307,1,8,0:0:0:0:
203,147,11450,1,8,0:0:0:0:
52,233,11592,6,0,P|28:210|16:177,1,60.000000298023,4|0,0:0|0:0,0:0:0:0:
74,92,11878,1,8,0:0:0:0:
203,147,12021,2,0,L|199:284,1,120.000000596046,4|0,0:0|0:0,0:0:0:0:
109,327,12450,1,8,0:0:0:0:
52,233,12592,1,0,0:0:0:0:
200,267,12735,6,0,L|202:347,1,60.000000298023,4|0,0:0|0:0,0:0:0:0:
295,269,13021,2,0,L|297:210,1,60.000000298023,8|0,0:0|0:0,0:0:0:0:
154,136,13307,2,0,L|155:195,1,60.000000298023,4|0,0:0|0:0,0:0:0:0:
250,139,13592,2,0,L|252:80,1,60.000000298023,8|0,0:0|0:0,0:0:0:0:
52,233,13878,6,0,P|84:282|139:304,2,120.000000596046,4|8|4,0:0|0:0|0:0,0:0:0:0:
48,112,14592,1,0,0:0:0:0:
155,195,14735,2,0,P|191:199|233:189,1,60.000000298023,8|0,0:0|0:0,0:0:0:0:
296,133,15021,6,0,L|298:74,1,60.000000298023,4|0,0:0|0:0,0:0:0:0:
210,19,15307,2,0,L|208:78,1,60.000000298023,8|0,0:0|0:0,0:0:0:0:
295,140,15592,1,4,0:0:0:0:
374,69,15735,2,0,L|418:67,2,30.0000001490115,8|8|8,0:0|0:0|0:0,0:0:0:0:
154,135,16164,6,0,P|149:167|154:194,1,60.000000298023,4|0,0:0|0:0,0:0:0:0:
258,255,16450,2,0,P|263:225|258:196,1,60.000000298023,8|0,0:0|0:0,0:0:0:0:
214,84,16735,1,4,0:0:0:0:
179,276,16878,2,0,P|191:303|214:324,1,60.000000298023,2|8,0:0|0:0,0:0:0:0:
343,259,17164,6,0,L|339:139,1,120.000000596046,4|0,0:0|0:0,0:0:0:0:
423,282,17592,2,0,P|410:309|388:329,1,60.000000298023,8|0,0:0|0:0,0:0:0:0:
281,351,17878,1,4,0:0:0:0:
343,259,18021,1,2,0:0:0:0:
213,323,18164,1,8,0:0:0:0:
343,259,18307,1,2,0:0:0:0:
167,264,18450,6,0,L|47:267,1,120.000000596046,4|8,0:0|0:0,0:0:0:0:
107,356,18878,1,0,0:0:0:0:
258,255,19021,2,0,P|282:201|267:143,1,120.000000596046,4|8,0:0|0:0,0:0:0:0:
67,196,19450,2,0,L|187:193,1,120.000000596046,4|0,0:0|0:0,0:0:0:0:
157,88,19878,6,0,L|98:90,1,60.000000298023,8|0,0:0|0:0,0:0:0:0:
267,144,20164,2,0,L|326:142,1,60.000000298023,8|0,0:0|0:0,0:0:0:0:
137,61,20450,2,0,L|78:63,1,60.000000298023,8|0,0:0|0:0,0:0:0:0:
187,194,20735,5,4,0:0:0:0:
267,144,20878,1,0,0:0:0:0:
111,134,21021,2,0,P|96:161|91:189,1,60.000000298023,8|0,0:0|0:0,0:0:0:0:
138,294,21307,1,4,0:0:0:0:
284,230,21450,2,0,L|286:171,1,60.000000298023,2|0,0:0|0:0,0:0:0:0:
360,91,21735,6,0,P|430:104|485:72,1,120.000000596046,4|0,0:0|0:0,0:0:0:0:
263,25,22164,2,0,L|265:84,1,60.000000298023,8|0,0:0|0:0,0:0:0:0:
332,170,22450,1,4,0:0:0:0:
411,11,22592,1,2,0:0:0:0:
265,84,22736,1,8,0:0:0:0:
411,11,22879,1,2,0:0:0:0:
332,170,23021,6,0,L|328:290,1,120.000000596046,4|8,0:0|0:0,0:0:0:0:
417,352,23450,1,0,0:0:0:0:
328,290,23592,2,0,P|270:275|215:296,1,120.000000596046,4|8,0:0|0:0,0:0:0:0:
118,345,24021,2,0,L|114:225,1,120.000000596046,4|0,0:0|0:0,0:0:0:0:
208,185,24450,6,0,P|237:179|266:184,1,60.000000298023,8|0,0:0|0:0,0:0:0:0:
328,290,24736,2,0,P|298:295|269:290,1,60.000000298023,8|0,0:0|0:0,0:0:0:0:
114,225,25021,2,0,L|112:166,1,60.000000298023,8|0,0:0|0:0,0:0:0:0:
267,184,25307,6,0,P|310:146|316:87,1,120.000000596046,4|8,0:0|0:0,0:0:0:0:
159,246,25878,2,0,P|159:304|200:346,1,120.000000596046,4|8,0:0|0:0,0:0:0:0:
234,106,26450,5,4,0:0:0:0:
267,184,26592,1,0,0:0:0:0:
316,87,26735,1,8,0:0:0:0:
155,126,26878,2,0,L|159:246,1,120.000000596046,4|0,0:0|0:0,0:0:0:0:
71,101,27307,2,0,P|83:73|105:53,1,60.000000298023,8|0,0:0|0:0,0:0:0:0:
267,184,27592,6,0,L|271:304,1,120.000000596046,4|8,0:0|0:0,0:0:0:0:
159,246,28021,1,0,0:0:0:0:
319,375,28164,2,0,P|341:355|352:328,1,60.000000298023,4|0,0:0|0:0,0:0:0:0:
344,219,28450,1,8,0:0:0:0:
271,304,28592,1,0,0:0:0:0:
424,257,28735,6,0,P|432:224|429:196,1,60.000000298023,4|0,0:0|0:0,0:0:0:0:
382,100,29021,1,8,0:0:0:0:
266,184,29164,2,0,P|207:177|169:133,1,120.000000596046,4|4,0:0|0:0,0:0:0:0:
176,25,29592,1,8,0:0:0:0:
241,100,29735,1,0,0:0:0:0:
73,45,29878,1,4,0:0:0:0:
245,105,30164,5,8,0:0:0:0:
410,134,30450,1,4,0:0:0:0:
381,300,30735,1,8,2:0:0:0:
216,271,31021,1,4,2:0:0:0:
333,85,31307,5,8,2:0:0:0:
430,222,31593,1,4,2:0:0:0:
292,319,31878,1,8,0:0:0:0:
195,182,32164,5,4,0:0:0:0:
195,182,32307,1,8,0:0:0:0:
333,85,32592,5,4,0:0:0:0:
333,85,32735,1,8,0:0:0:0:
430,222,33021,5,4,0:0:0:0:
430,222,33164,1,8,0:0:0:0:
292,319,33450,5,0,0:0:0:0:
292,319,33592,2,0,L|233:321,1,60.000000298023,2|0,0:0|0:0,0:0:0:0:
136,184,33878,2,0,L|195:182,1,60.000000298023,2|0,0:0|0:0,0:0:0:0:
126,334,34164,2,0,L|67:336,1,60.000000298023,2|0,0:0|0:0,0:0:0:0:
66,336,35592,5,4,0:0:0:0:
97,251,35735,1,0,0:0:0:0:
61,168,35878,2,0,P|56:136|62:98,1,60.000000298023,8|0,0:0|0:0,0:0:0:0:
133,57,36164,1,4,0:0:0:0:
42,9,36307,1,0,0:0:0:0:
133,57,36450,2,0,L|192:55,1,60.000000298023,8|0,0:0|0:0,0:0:0:0:
269,102,36735,6,0,P|271:131|263:160,1,60.000000298023,4|0,0:0|0:0,0:0:0:0:
173,241,37021,2,0,P|170:211|178:182,1,60.000000298023,8|0,0:0|0:0,0:0:0:0:
387,231,37307,2,0,P|373:257|352:279,1,60.000000298023,4|0,0:0|0:0,0:0:0:0:
234,303,37593,2,0,P|247:276|268:254,1,60.000000298023,8|0,0:0|0:0,0:0:0:0:
462,312,37878,6,0,L|466:192,1,120.000000596046,4|8,0:0|0:0,0:0:0:0:
407,107,38307,1,0,0:0:0:0:
311,142,38450,2,0,P|267:146|214:124,1,60.000000298023,4|0,0:0|0:0,0:0:0:0:
200,54,38735,1,8,0:0:0:0:
384,191,38878,2,0,L|380:311,1,120.000000596046,4|0,0:0|0:0,0:0:0:0:
296,251,39307,2,0,P|266:247|236:252,1,60.000000298023,8|0,0:0|0:0,0:0:0:0:
147,301,39592,1,4,0:0:0:0:
147,301,39735,1,0,0:0:0:0:
98,211,39878,2,0,P|93:181|97:152,1,60.000000298023,8|0,0:0|0:0,0:0:0:0:
142,59,40164,5,4,0:0:0:0:
232,107,40307,1,0,0:0:0:0:
322,60,40450,2,0,P|354:55|392:61,1,60.000000298023,8|0,0:0|0:0,0:0:0:0:
453,129,40735,1,4,0:0:0:0:
480,30,40878,1,0,0:0:0:0:
453,129,41021,2,0,L|451:188,1,60.000000298023,8|0,0:0|0:0,0:0:0:0:
348,236,41307,6,0,P|336:262|315:284,1,60.000000298023,4|0,0:0|0:0,0:0:0:0:
197,308,41593,2,0,P|210:281|231:259,1,60.000000298023,8|0,0:0|0:0,0:0:0:0:
232,107,41879,2,0,P|234:136|226:165,1,60.000000298023,4|0,0:0|0:0,0:0:0:0:
136,246,42165,2,0,P|133:216|141:187,1,60.000000298023,8|0,0:0|0:0,0:0:0:0:
303,77,42450,6,0,P|310:142|284:219,1,120.000000596046,4|8,0:0|0:0,0:0:0:0:
231,259,42878,1,0,0:0:0:0:
141,187,43021,2,0,L|137:67,1,120.000000596046,4|8,0:0|0:0,0:0:0:0:
235,9,43450,1,0,0:0:0:0:
303,77,43592,5,4,0:0:0:0:
235,9,43735,1,8,0:0:0:0:
177,210,44021,1,8,0:0:0:0:
137,67,44307,1,8,0:0:0:0:
177,210,44592,1,0,0:0:0:0:
91,260,44735,5,4,0:0:0:0:
90,157,44878,1,0,0:0:0:0:
177,210,45021,2,0,P|206:212|236:207,1,60.000000298023,8|0,0:0|0:0,0:0:0:0:
329,165,45307,1,4,0:0:0:0:
236,207,45450,1,0,0:0:0:0:
329,165,45592,2,0,L|388:163,1,60.000000298023,8|0,0:0|0:0,0:0:0:0:
328,79,45878,6,0,P|289:88|260:114,1,60.000000298023,4|0,0:0|0:0,0:0:0:0:
389,248,46164,2,0,P|428:239|457:213,1,60.000000298023,8|0,0:0|0:0,0:0:0:0:
236,207,46450,2,0,P|206:234|194:271,1,60.000000298023,4|0,0:0|0:0,0:0:0:0:
351,292,46736,2,0,P|380:264|392:227,1,60.000000298023,8|0,0:0|0:0,0:0:0:0:
273,99,47021,6,0,L|153:95,1,120.000000596046,4|8,0:0|0:0,0:0:0:0:
236,207,47450,1,0,0:0:0:0:
357,74,47592,2,0,P|345:46|323:26,2,60.000000298023,4|0|8,0:0|0:0|0:0,0:0:0:0:
355,210,48021,2,0,L|235:206,1,120.000000596046,4|0,0:0|0:0,0:0:0:0:
177,120,48450,1,8,0:0:0:0:
280,112,48592,1,0,0:0:0:0:
235,206,48735,2,0,P|172:223|118:204,1,120.000000596046,4|8,0:0|0:0,0:0:0:0:
119,34,49307,6,0,P|182:17|236:36,1,120.000000596046,4|0,0:0|0:0,0:0:0:0:
371,147,49878,1,8,0:0:0:0:
351,265,50164,1,0,0:0:0:0:
232,245,50450,5,4,0:0:0:0:
254,127,50735,1,0,0:0:0:0:
371,147,51021,1,8,0:0:0:0:
351,265,51307,1,0,0:0:0:0:
232,245,51592,6,0,L|166:242,1,60.000000298023,4|0,0:0|0:0,0:0:0:0:
115,323,52021,2,0,B|118:271|73:244|73:244|146:197|109:97|40:91,1,300.000001490115,4|8,0:0|0:0,0:0:0:0:
39,90,53307,5,4,0:0:0:0:
56,106,53592,1,0,0:0:0:0:
73,122,53878,2,0,B|126:92|189:121|189:121|258:157|326:108,1,240.000001192092,6|0,0:0|0:0,0:0:0:0:
472,86,55021,2,0,P|472:169|330:201,1,240.000001192092,6|0,0:0|0:0,0:0:0:0:
340,208,56164,6,0,L|281:210,1,60.000000298023,4|0,0:0|0:0,0:0:0:0:
257,109,56450,1,0,0:0:0:0:
419,229,56592,2,0,P|406:256|384:276,1,60.000000298023,8|0,0:0|0:0,0:0:0:0:
280,210,56878,1,0,0:0:0:0:
356,140,57021,1,8,0:0:0:0:
235,278,57164,2,0,P|213:258|201:231,1,60.000000298023,0|0,0:0|0:0,0:0:0:0:
356,140,57450,6,0,L|415:142,1,60.000000298023,8|0,0:0|0:0,0:0:0:0:
419,229,57735,1,0,0:0:0:0:
280,210,57878,1,8,0:0:0:0:
391,316,58021,1,0,0:0:0:0:
280,210,58164,1,8,0:0:0:0:
309,357,58307,1,0,0:0:0:0:
280,210,58450,6,0,L|282:151,1,60.000000298023,4|0,0:0|0:0,0:0:0:0:
347,71,58735,1,0,0:0:0:0:
282,150,58878,2,0,P|252:151|222:146,1,60.000000298023,8|0,0:0|0:0,0:0:0:0:
145,78,59164,1,0,0:0:0:0:
82,159,59307,1,8,0:0:0:0:
82,159,59450,6,0,L|84:218,1,60.000000298023,8|0,0:0|0:0,0:0:0:0:
168,275,59735,2,0,L|166:216,1,60.000000298023,8|0,0:0|0:0,0:0:0:0:
244,161,60021,1,4,0:0:0:0:
244,161,60164,2,0,L|246:220,1,60.000000298023,8|0,0:0|0:0,0:0:0:0:
330,277,60450,2,0,L|328:218,1,60.000000298023,8|0,0:0|0:0,0:0:0:0:
