osu file format v14

[General]
AudioFilename: audio.mp3
AudioLeadIn: 0
PreviewTime: 35592
Countdown: 0
SampleSet: Soft
StackLeniency: 0.7
Mode: 0
LetterboxInBreaks: 0
WidescreenStoryboard: 0

[Editor]
DistanceSpacing: 1
BeatDivisor: 4
GridSize: 4
TimelineZoom: 1

[Metadata]
Title:Kani*Do-Luck!
TitleUnicode:カニ☆Do-Luck!
Artist:Aiu Rabu
ArtistUnicode:あいう♥らぶ
Creator:xChorse
Version:Easy
Source:あいうら
Tags:crabs steve jobs apple thighs aiurabu love think nani aiura opening
BeatmapID:1270801
BeatmapSetID:601556

[Difficulty]
HPDrainRate:3
CircleSize:3
OverallDifficulty:3
ApproachRate:3.5
SliderMultiplier:0.400000005960464
SliderTickRate:1

[Events]
//Background and Video events
0,0,"bgeasy.jpg",0,0
//Break Periods
//Storyboard Layer 0 (Background)
//Storyboard Layer 1 (Fail)
//Storyboard Layer 2 (Pass)
//Storyboard Layer 3 (Foreground)
//Storyboard Sound Samples

[TimingPoints]
2450,285.714285714286,4,2,1,65,1,0
35592,-100,4,2,1,65,0,1
49307,-100,4,2,1,65,0,0
56164,-100,4,2,1,65,0,1
60592,-100,4,2,1,65,0,0

[Colours]
Combo1 : 253,192,138
Combo2 : 110,199,235
Combo3 : 255,128,192
Combo4 : 141,29,233

[HitObjects]
443,255,2450,6,0,B|451:214|434:176|434:176|447:134|430:94,1,160.000002384186,4|0,0:0|0:0,0:0:0:0:
275,65,4735,2,0,B|267:106|284:144|284:144|271:186|286:221,1,160.000002384186,4|0,0:0|0:0,0:0:0:0:
443,255,7021,6,0,L|449:336,2,80.0000011920928,4|8|4,0:0|0:0|0:0,0:0:0:0:
394,191,8735,1,8,0:0:0:0:
331,240,9307,6,0,P|292:249|248:240,1,80.0000011920928,4|8,0:0|0:0,0:0:0:0:
187,196,10450,2,0,L|185:134,2,60.0000008940696,4|4|8,0:0|0:0|0:0,0:0:0:0:
153,217,11592,6,0,P|113:223|75:214,1,80.0000011920928,4|8,0:0|0:0,0:0:0:0:
33,146,12735,1,4,0:0:0:0:
47,67,13307,1,8,0:0:0:0:
124,47,13878,6,0,B|162:58|202:42|202:42|246:55|284:42,1,160.000002384186,4|4,0:0|0:0,0:0:0:0:
360,30,15592,1,8,0:0:0:0:
424,77,16164,6,8,L|419:236,1,160.000002384186,4|4,0:0|0:0,0:0:0:0:
365,296,17878,1,8,0:0:0:0:
289,269,18450,6,0,P|295:234|287:184,2,80.0000011920928,4|4|8,0:0|0:0|0:0,0:0:0:0:
210,286,20164,2,0,L|129:291,1,80.0000011920928,8|4,0:0|0:0,0:0:0:0:
69,239,21307,5,8,0:0:0:0:
37,165,21879,1,4,0:0:0:0:
86,101,22450,2,0,P|116:108|178:101,1,80.0000011920928,8|4,0:0|0:0,0:0:0:0:
241,126,23592,6,0,P|248:156|248:190,2,60.0000008940696,8|4|4,0:0|0:0|0:0,0:0:0:0:
278,110,24735,2,0,L|359:105,1,80.0000011920928,8|4,0:0|0:0,0:0:0:0:
432,76,25878,1,8,0:0:0:0:
440,156,26450,6,0,B|433:196|433:196|441:241,1,80.0000011920928,4|8,0:0|0:0,0:0:0:0:
466,310,27592,1,4,0:0:0:0:
397,351,28164,1,8,0:0:0:0:
331,305,28735,6,0,B|291:298|291:298|246:306,1,80.0000011920928,4|8,0:0|0:0,0:0:0:0:
175,328,29878,2,0,P|116:280|127:195,1,160.000002384186,4|4,0:0|2:0,0:0:0:0:
178,146,31592,5,8,2:0:0:0:
248,107,32164,2,0,P|243:68|248:20,2,80.0000011920928,4|8|4,0:0|0:0|0:0,0:0:0:0:
236,149,33592,2,0,L|189:155,2,40.0000005960464,2|2|2,0:0|0:0|0:0,0:0:0:0:
305,162,35592,6,0,B|344:168|344:168|383:158|383:158|432:166,1,120.000001788139,4|8,0:0|0:0,0:0:0:0:
454,189,36735,2,0,B|460:228|460:228|450:267|450:267|458:316,1,120.000001788139,4|8,0:0|0:0,0:0:0:0:
431,338,37878,6,0,P|382:349|341:337,1,80.0000011920928,4|8,0:0|0:0,0:0:0:0:
285,300,39021,1,4,0:0:0:0:
210,329,39592,1,8,0:0:0:0:
139,290,40164,6,0,B|133:262|141:232|141:232|152:199|141:162,1,120.000001788139,4|8,0:0|0:0,0:0:0:0:
141,131,41307,2,0,B|169:137|199:129|199:129|232:118|269:129,1,120.000001788139,4|8,0:0|0:0,0:0:0:0:
298,135,42450,6,0,P|347:146|388:134,1,80.0000011920928,4|8,0:0|0:0,0:0:0:0:
442,96,43592,1,4,0:0:0:0:
484,163,44164,1,8,0:0:0:0:
442,231,44735,6,0,B|403:225|403:225|364:235|364:235|315:227,1,120.000001788139,4|8,0:0|0:0,0:0:0:0:
287,245,45878,2,0,B|248:239|248:239|209:249|209:249|160:241,1,120.000001788139,4|8,0:0|0:0,0:0:0:0:
132,227,47021,6,0,P|136:177|151:129,1,100.000001490116,4|8,0:0|0:0,0:0:0:0:
184,107,48021,2,0,B|223:110|223:110|252:107,1,60.0000008940696,4|8,0:0|0:0,0:0:0:0:
281,121,48735,1,4,0:0:0:0:
350,81,49307,5,4,0:0:0:0:
419,120,49878,1,8,0:0:0:0:
459,190,50450,2,0,P|465:247|455:281,1,80.0000011920928,4|8,0:0|0:0,0:0:0:0:
399,321,51592,6,0,L|309:322,1,80.0000011920928,4|4,0:0|0:0,0:0:0:0:
250,279,52735,2,0,L|170:278,1,80.0000011920928,8|8,0:0|0:0,0:0:0:0:
99,239,53878,6,0,P|79:187|107:116,1,120.000001788139,6|0,0:0|0:0,0:0:0:0:
130,106,55021,2,0,P|182:126|253:98,1,120.000001788139,6|0,0:0|0:0,0:0:0:0:
280,98,56164,6,0,P|319:106|370:93,2,80.0000011920928,4|8|4,0:0|0:0|0:0,0:0:0:0:
209,59,57878,1,8,0:0:0:0:
138,98,58450,2,0,P|99:106|48:93,2,80.0000011920928,4|8|4,0:0|0:0|0:0,0:0:0:0:
209,59,60164,6,0,L|268:58,1,60.0000008940696,8|8,0:0|0:0,0:0:0:0:
