osu file format v14

[General]
AudioFilename: audio.mp3
AudioLeadIn: 0
PreviewTime: 35592
Countdown: 0
SampleSet: Soft
StackLeniency: 0.7
Mode: 0
LetterboxInBreaks: 0
WidescreenStoryboard: 0

[Editor]
DistanceSpacing: 1.7
BeatDivisor: 4
GridSize: 32
TimelineZoom: 1.5

[Metadata]
Title:Kani*Do-Luck!
TitleUnicode:カニ☆Do-Luck!
Artist:Aiu Rabu
ArtistUnicode:あいう♥らぶ
Creator:xChorse
Version:Crabing
Source:あいうら
Tags:crabs steve jobs apple thighs aiurabu love think nani aiura opening
BeatmapID:1270800
BeatmapSetID:601556

[Difficulty]
HPDrainRate:6
CircleSize:4.2
OverallDifficulty:9
ApproachRate:9.4
SliderMultiplier:1.60000000596046
SliderTickRate:1

[Events]
//Background and Video events
0,0,"bgcrab.jpg",0,0
//Break Periods
//Storyboard Layer 0 (Background)
//Storyboard Layer 1 (Fail)
//Storyboard Layer 2 (Pass)
//Storyboard Layer 3 (Foreground)
//Storyboard Sound Samples

[TimingPoints]
2450,285.714285714286,4,2,1,65,1,0
35592,-100,4,2,1,65,0,1
49307,-133.333333333333,4,2,1,65,0,0
51592,-200,4,2,1,65,0,0
56164,-100,4,2,1,65,0,1
60592,-100,4,2,1,65,0,0

[Colours]
Combo1 : 243,188,148
Combo2 : 150,75,75
Combo3 : 251,193,87
Combo4 : 210,104,89

[HitObjects]
339,249,2450,5,8,0:0:0:0:
418,338,2592,1,0,0:0:0:0:
376,176,2735,2,0,P|342:167|292:182,1,80.000000298023,8|0,0:0|0:0,0:0:0:0:
223,271,3021,1,8,0:0:0:0:
299,177,3164,1,0,0:0:0:0:
291,336,3307,1,8,0:0:0:0:
202,172,3450,6,0,B|223:126|193:78|193:78|225:101|267:90,1,160.000000596046,0|0,0:0|0:0,0:0:0:0:
117,132,3878,1,8,0:0:0:0:
238,19,4021,1,0,0:0:0:0:
241,244,4164,2,0,P|203:254|165:245,1,80.000000298023,8|8,0:0|0:0,0:0:0:0:
117,132,4450,1,8,0:0:0:0:
289,92,4592,1,0,0:0:0:0:
91,215,4735,5,6,0:0:0:0:
142,46,4878,1,0,0:0:0:0:
263,175,5021,1,8,0:0:0:0:
91,215,5164,1,2,0:0:0:0:
258,255,5307,2,0,L|263:175,1,80.000000298023,4|0,0:0|0:0,0:0:0:0:
8,148,5592,1,10,0:0:0:0:
89,331,5735,6,0,P|157:366|225:330,1,160.000000596046,4|2,0:0|0:0,0:0:0:0:
298,180,6164,1,8,0:0:0:0:
225,329,6307,1,0,0:0:0:0:
370,305,6450,1,4,0:0:0:0:
156,284,6592,1,0,0:0:0:0:
298,180,6735,1,10,0:0:0:0:
140,284,6878,1,0,0:0:0:0:
370,305,7021,6,0,L|464:298,1,80.000000298023,6|0,0:0|0:0,0:0:0:0:
487,175,7307,1,8,0:0:0:0:
285,261,7450,2,0,P|231:228|232:132,1,160.000000596046,4|0,0:0|0:0,0:0:0:0:
320,62,7878,1,8,0:0:0:0:
298,180,8021,1,0,0:0:0:0:
399,103,8164,6,0,P|410:64|397:18,1,80.000000298023,4|0,0:0|0:0,0:0:0:0:
266,5,8450,1,8,0:0:0:0:
227,138,8592,1,0,0:0:0:0:
399,103,8735,2,0,L|493:96,1,80.000000298023,4|0,0:0|0:0,0:0:0:0:
298,180,9021,2,0,L|218:174,1,80.000000298023,8|0,0:0|0:0,0:0:0:0:
114,111,9307,5,4,0:0:0:0:
131,234,9450,1,0,0:0:0:0:
228,66,9592,2,0,L|307:60,1,80.000000298023,8|0,0:0|0:0,0:0:0:0:
453,206,9878,1,4,0:0:0:0:
453,94,10021,1,0,0:0:0:0:
356,262,10164,2,0,L|276:256,1,80.000000298023,8|0,0:0|0:0,0:0:0:0:
146,177,10450,6,0,P|179:123|198:184,1,160.000000596046,6|8,0:0|0:0,0:0:0:0:
269,204,10878,2,0,P|273:118|214:59,1,160.000000596046,6|8,0:0|0:0,0:0:0:0:
90,55,11307,1,10,0:0:0:0:
74,56,11379,1,8,0:0:0:0:
58,57,11450,1,8,0:0:0:0:
189,209,11592,6,0,L|269:204,1,80.000000298023,4|0,0:0|0:0,0:0:0:0:
227,65,11878,1,8,0:0:0:0:
95,202,12021,2,0,P|125:279|211:303,1,160.000000596046,4|0,0:0|0:0,0:0:0:0:
282,210,12450,1,8,0:0:0:0:
312,325,12592,1,0,0:0:0:0:
199,205,12735,6,0,P|211:166|251:132,1,80.000000298023,4|0,0:0|0:0,0:0:0:0:
359,210,13021,2,0,P|320:219|282:210,1,80.000000298023,8|0,0:0|0:0,0:0:0:0:
336,100,13307,2,0,L|415:94,1,80.000000298023,4|0,0:0|0:0,0:0:0:0:
312,325,13592,2,0,L|218:332,1,80.000000298023,8|0,0:0|0:0,0:0:0:0:
176,111,13878,6,0,L|336:100,1,160.000000596046,4|8,0:0|0:0,0:0:0:0:
282,210,14307,1,0,0:0:0:0:
105,155,14450,2,0,P|94:117|107:64,1,80.000000298023,4|0,0:0|0:0,0:0:0:0:
240,7,14735,1,8,0:0:0:0:
336,101,14878,1,0,0:0:0:0:
105,155,15021,6,0,L|11:162,1,80.000000298023,4|0,0:0|0:0,0:0:0:0:
208,179,15307,1,8,0:0:0:0:
105,58,15450,1,0,0:0:0:0:
87,282,15592,1,4,0:0:0:0:
211,139,15735,1,8,0:0:0:0:
212,119,15807,1,8,0:0:0:0:
213,99,15878,1,8,0:0:0:0:
216,96,16164,5,6,0:0:0:0:
129,154,16307,1,0,0:0:0:0:
292,176,16450,2,0,L|371:170,1,80.000000298023,8|0,0:0|0:0,0:0:0:0:
333,56,16735,1,4,0:0:0:0:
225,222,16878,2,0,P|254:248|292:258,1,80.000000298023,2|8,0:0|0:0,0:0:0:0:
452,165,17164,6,0,L|292:176,1,160.000000596046,4|0,0:0|0:0,0:0:0:0:
253,50,17592,2,0,L|347:57,1,80.000000298023,8|0,0:0|0:0,0:0:0:0:
371,170,17878,1,4,0:0:0:0:
399,7,18021,1,2,0:0:0:0:
371,170,18164,1,8,0:0:0:0:
473,27,18307,1,2,0:0:0:0:
427,230,18450,6,0,P|356:251|292:191,1,160.000000596046,6|8,0:0|0:0,0:0:0:0:
216,109,18878,1,0,0:0:0:0:
124,186,19021,2,0,P|114:231|195:211,1,160.000000596046,4|8,0:0|0:0,0:0:0:0:
60,155,19450,6,0,P|43:238|100:316,1,160.000000596046,4|0,0:0|0:0,0:0:0:0:
194,221,19878,1,8,0:0:0:0:
296,310,20021,1,0,0:0:0:0:
194,221,20164,1,8,0:0:0:0:
232,361,20307,1,0,0:0:0:0:
263,177,20450,2,0,P|225:145|162:146,1,80.000000298023,8|0,0:0|0:0,0:0:0:0:
62,154,20735,5,6,0:0:0:0:
194,221,20878,1,0,0:0:0:0:
62,154,21021,2,0,L|56:74,1,80.000000298023,8|0,0:0|0:0,0:0:0:0:
171,38,21307,1,4,0:0:0:0:
101,226,21450,2,0,P|63:236|25:227,1,80.000000298023,2|0,0:0|0:0,0:0:0:0:
184,179,21735,6,0,P|193:254|137:316,1,160.000000596046,4|0,0:0|0:0,0:0:0:0:
24,227,22164,2,0,L|18:147,1,80.000000298023,8|0,0:0|0:0,0:0:0:0:
97,55,22450,1,4,0:0:0:0:
211,102,22593,1,2,0:0:0:0:
97,55,22735,1,8,0:0:0:0:
282,64,22879,1,2,0:0:0:0:
19,147,23021,6,0,P|17:232|103:274,1,160.000000596046,6|8,0:0|0:0,0:0:0:0:
192,287,23450,1,0,0:0:0:0:
293,224,23592,2,0,L|282:64,1,160.000000596046,4|8,0:0|0:0,0:0:0:0:
374,224,24021,2,0,P|334:295|247:292,1,160.000000596046,4|0,0:0|0:0,0:0:0:0:
156,217,24450,1,8,0:0:0:0:
293,224,24592,1,0,0:0:0:0:
186,315,24735,1,8,0:0:0:0:
229,170,24877,1,0,0:0:0:0:
186,315,25021,2,0,L|183:354,3,40.0000001490115,8|0|0|0,0:0|0:0|0:0|0:0,0:0:0:0:
161,298,25307,6,0,L|150:138,1,160.000000596046,6|8,0:0|0:0,0:0:0:0:
255,81,25735,1,0,0:0:0:0:
314,185,25878,2,0,P|399:187|452:98,1,160.000000596046,4|8,0:0|0:0,0:0:0:0:
466,16,26307,1,0,0:0:0:0:
358,100,26450,5,6,0:0:0:0:
466,16,26592,1,0,0:0:0:0:
255,81,26735,1,8,0:0:0:0:
446,135,26878,2,0,L|435:295,1,160.000000596046,6|0,0:0|0:0,0:0:0:0:
324,248,27307,1,8,0:0:0:0:
435,294,27450,1,0,0:0:0:0:
260,321,27592,6,0,P|228:253|262:175,1,160.000000596046,6|8,0:0|0:0,0:0:0:0:
375,145,28021,1,0,0:0:0:0:
258,178,28164,2,0,L|178:183,1,80.000000298023,4|0,0:0|0:0,0:0:0:0:
64,63,28450,1,8,0:0:0:0:
178,183,28592,1,0,0:0:0:0:
185,63,28735,5,6,0:0:0:0:
57,183,28878,1,0,0:0:0:0:
124,3,29021,1,8,0:0:0:0:
184,189,29164,2,0,L|173:349,1,160.000000596046,6|4,0:0|0:0,0:0:0:0:
285,358,29592,1,8,0:0:0:0:
176,354,29735,1,0,0:0:0:0:
340,260,29878,6,0,B|339:258|381:252|423:257|423:257|367:238,1,120.000000447034,4|0,0:0|0:0,0:0:0:0:
332,255,30164,2,0,L|338:175,1,80.000000298023,8|0,0:0|0:0,0:0:0:0:
184,189,30450,2,0,L|178:269,1,80.000000298023,4|0,0:0|0:0,0:0:0:0:
318,236,30735,2,0,L|324:156,1,80.000000298023,8|0,0:0|0:0,0:0:0:0:
170,170,31021,2,0,L|164:250,1,80.000000298023,4|0,0:0|0:0,0:0:0:0:
304,217,31307,2,0,L|310:137,1,80.000000298023,8|0,0:0|0:0,0:0:0:0:
156,151,31592,2,0,L|150:231,1,80.000000298023,4|0,0:0|0:0,0:0:0:0:
170,24,31878,1,8,0:0:0:0:
170,24,32163,5,4,0:0:0:0:
427,151,32307,1,8,0:0:0:0:
440,78,32592,5,4,0:0:0:0:
170,170,32735,1,8,0:0:0:0:
157,97,33021,5,4,0:0:0:0:
440,224,33164,1,8,0:0:0:0:
442,226,33450,5,0,0:0:0:0:
321,324,33592,2,0,P|284:335|245:327,1,80.000000298023,2|0,0:0|0:0,0:0:0:0:
170,170,33878,2,0,P|199:196|211:234,1,80.000000298023,2|0,0:0|0:0,0:0:0:0:
111,376,34164,2,0,P|119:338|146:309,1,80.000000298023,2|0,0:0|0:0,0:0:0:0:
256,192,34450,12,2,35307,0:0:0:0:
342,206,35592,5,6,0:0:0:0:
330,71,35735,1,0,0:0:0:0:
170,206,35878,1,8,0:0:0:0:
182,71,36021,1,0,0:0:0:0:
367,242,36164,1,4,0:0:0:0:
344,58,36307,1,0,0:0:0:0:
144,242,36450,1,8,0:0:0:0:
167,58,36593,1,0,0:0:0:0:
392,315,36735,6,0,P|427:290|439:231,1,80.000000298023,4|0,0:0|0:0,0:0:0:0:
123,174,37021,2,0,P|88:199|76:258,1,80.000000298023,8|0,0:0|0:0,0:0:0:0:
350,137,37307,2,0,L|344:58,1,80.000000298023,4|0,0:0|0:0,0:0:0:0:
144,242,37592,2,0,L|150:321,1,80.000000298023,8|0,0:0|0:0,0:0:0:0:
365,291,37878,6,0,P|399:268|350:155,1,160.000000596046,4|8,0:0|0:0,0:0:0:0:
261,182,38307,1,0,0:0:0:0:
413,345,38450,2,0,P|444:322|479:262,1,80.000000298023,4|0,0:0|0:0,0:0:0:0:
480,169,38735,1,8,0:0:0:0:
261,182,38878,6,0,L|101:171,1,160.000000596046,6|0,0:0|0:0,0:0:0:0:
137,286,39307,1,8,0:0:0:0:
86,169,39450,1,0,0:0:0:0:
69,331,39592,2,0,P|102:361|170:359,1,80.000000298023,4|0,0:0|0:0,0:0:0:0:
328,219,39878,2,0,P|295:189|227:191,1,80.000000298023,8|0,0:0|0:0,0:0:0:0:
137,286,40164,5,6,0:0:0:0:
112,66,40307,1,0,0:0:0:0:
174,300,40450,1,8,0:0:0:0:
227,72,40593,1,0,0:0:0:0:
206,323,40735,1,4,0:0:0:0:
341,105,40878,1,0,0:0:0:0:
231,354,41021,1,8,0:0:0:0:
426,190,41164,1,0,0:0:0:0:
137,286,41307,6,0,L|58:280,1,80.000000298023,4|0,0:0|0:0,0:0:0:0:
275,155,41592,2,0,L|354:161,1,80.000000298023,8|0,0:0|0:0,0:0:0:0:
227,72,41878,2,0,P|197:98|182:135,1,80.000000298023,4|0,0:0|0:0,0:0:0:0:
401,243,42164,2,0,P|431:217|447:181,1,80.000000298023,8|0,0:0|0:0,0:0:0:0:
275,155,42450,6,0,L|264:315,1,160.000000596046,4|8,0:0|0:0,0:0:0:0:
374,361,42878,1,0,0:0:0:0:
264,314,43021,2,0,P|224:304|154:335,1,80.000000298023,4|0,0:0|0:0,0:0:0:0:
44,239,43307,2,0,P|84:249|154:218,1,80.000000298023,8|0,0:0|0:0,0:0:0:0:
275,155,43592,5,4,0:0:0:0:
53,92,43735,1,10,0:0:0:0:
280,307,44021,5,10,0:0:0:0:
58,363,44307,1,10,0:0:0:0:
275,155,44592,1,10,0:0:0:0:
137,358,44735,5,6,0:0:0:0:
129,112,44878,1,0,0:0:0:0:
280,307,45021,1,8,0:0:0:0:
44,239,45164,1,0,0:0:0:0:
297,131,45307,1,4,0:0:0:0:
137,358,45450,1,0,0:0:0:0:
120,81,45592,1,8,0:0:0:0:
311,314,45735,1,0,0:0:0:0:
44,239,45878,6,0,L|38:160,1,80.000000298023,4|0,0:0|0:0,0:0:0:0:
268,75,46164,2,0,L|274:154,1,80.000000298023,8|0,0:0|0:0,0:0:0:0:
99,298,46450,2,0,P|57:318|1:309,1,80.000000298023,4|0,0:0|0:0,0:0:0:0:
17,79,46735,2,0,P|57:80|92:100,1,80.000000298023,8|0,0:0|0:0,0:0:0:0:
263,314,47021,6,0,L|274:154,1,160.000000596046,4|8,0:0|0:0,0:0:0:0:
163,201,47449,1,0,0:0:0:0:
345,166,47592,2,0,L|351:87,1,80.000000298023,4|0,0:0|0:0,0:0:0:0:
198,33,47878,1,8,0:0:0:0:
348,247,48021,6,0,P|419:201|410:117,1,160.000000596046,6|0,0:0|0:0,0:0:0:0:
277,27,48450,2,0,L|198:33,1,80.000000298023,8|0,0:0|0:0,0:0:0:0:
148,143,48735,2,0,L|227:137,1,80.000000298023,4|0,0:0|0:0,0:0:0:0:
277,247,49021,1,10,0:0:0:0:
277,247,49307,6,0,B|300:290|300:290|296:247|322:193,1,120.000005024671,6|0,0:0|0:0,0:0:0:0:
262,110,49878,2,0,B|239:67|239:67|243:110|217:164,1,120.000005024671,8|0,0:0|0:0,0:0:0:0:
374,183,50450,6,0,B|416:160|416:160|373:164|345:149,1,120.000005024671,4|0,0:0|0:0,0:0:0:0:
166,174,51021,2,0,B|123:196|123:196|166:192|193:206,1,120.000005024671,8|0,0:0|0:0,0:0:0:0:
392,99,51592,6,0,L|388:138,1,40.0000001490115,6|0,0:0|0:0,0:0:0:0:
307,171,52021,2,0,B|349:187|357:236|357:236|407:192|470:214,1,200.000000745057,4|8,0:0|0:0,0:0:0:0:
277,244,53307,5,0,0:0:0:0:
375,210,53592,1,0,0:0:0:0:
428,300,53878,5,6,0:0:0:0:
431,315,54164,1,0,0:0:0:0:
434,330,54450,1,0,0:0:0:0:
438,345,54735,1,0,0:0:0:0:
277,244,55021,5,6,0:0:0:0:
274,259,55307,1,0,0:0:0:0:
271,274,55593,1,0,0:0:0:0:
267,289,55878,1,0,0:0:0:0:
291,164,56164,6,0,L|370:158,1,80.000000298023,6|0,0:0|0:0,0:0:0:0:
317,49,56450,1,4,0:0:0:0:
219,203,56592,2,0,P|256:238|319:241,1,80.000000298023,10|0,0:0|0:0,0:0:0:0:
394,156,56878,1,4,0:0:0:0:
169,53,57021,1,10,0:0:0:0:
413,170,57164,6,0,L|407:249,1,80.000000298023,4|0,0:0|0:0,0:0:0:0:
219,203,57450,2,0,L|213:124,1,80.000000298023,10|0,0:0|0:0,0:0:0:0:
435,188,57735,1,4,0:0:0:0:
198,201,57878,1,10,0:0:0:0:
335,295,58021,1,4,0:0:0:0:
239,59,58164,1,10,0:0:0:0:
341,301,58307,1,4,0:0:0:0:
233,53,58450,6,0,P|183:42|127:71,1,80.000000298023,6|0,0:0|0:0,0:0:0:0:
28,141,58735,1,4,0:0:0:0:
183,203,58878,2,0,L|262:197,1,80.000000298023,8|0,0:0|0:0,0:0:0:0:
325,91,59164,1,4,0:0:0:0:
168,215,59307,1,10,0:0:0:0:
394,134,59450,6,0,P|405:84|377:28,1,80.000000298023,10|0,0:0|0:0,0:0:0:0:
162,135,59735,2,0,L|168:214,1,80.000000298023,8|0,0:0|0:0,0:0:0:0:
283,301,60021,1,4,0:0:0:0:
55,147,60164,1,8,0:0:0:0:
320,222,60307,1,8,0:0:0:0:
51,244,60450,1,8,0:0:0:0:
298,141,60592,1,10,0:0:0:0:
