osu file format v14

[General]
AudioFilename: audio.mp3
AudioLeadIn: 0
PreviewTime: 35592
Countdown: 0
SampleSet: Soft
StackLeniency: 0.7
Mode: 0
LetterboxInBreaks: 0
WidescreenStoryboard: 0

[Editor]
DistanceSpacing: 1.5
BeatDivisor: 4
GridSize: 4
TimelineZoom: 1

[Metadata]
Title:Kani*Do-Luck!
TitleUnicode:カニ☆Do-Luck!
Artist:Aiu Rabu
ArtistUnicode:あいう♥らぶ
Creator:xChorse
Version:Hard
Source:あいうら
Tags:crabs steve jobs apple thighs aiurabu love think nani aiura opening
BeatmapID:1270803
BeatmapSetID:601556

[Difficulty]
HPDrainRate:5
CircleSize:3.4
OverallDifficulty:6
ApproachRate:7.3
SliderMultiplier:1.00000000596046
SliderTickRate:1

[Events]
//Background and Video events
0,0,"bghard.jpg",0,0
//Break Periods
//Storyboard Layer 0 (Background)
//Storyboard Layer 1 (Fail)
//Storyboard Layer 2 (Pass)
//Storyboard Layer 3 (Foreground)
//Storyboard Sound Samples

[TimingPoints]
2450,285.714285714286,4,2,1,65,1,0
35592,-100,4,2,1,65,0,1
49307,-100,4,2,1,65,0,0
56164,-100,4,2,1,65,0,1
60592,-100,4,2,1,65,0,0

[Colours]
Combo1 : 148,37,68
Combo2 : 242,210,102
Combo3 : 231,136,67
Combo4 : 160,3,117

[HitObjects]
342,293,2450,6,0,L|338:221,2,50.000000298023,8|0|8,0:0|0:0|0:0,0:0:0:0:
212,286,3021,2,0,L|208:214,2,50.000000298023,8|0|8,0:0|0:0|0:0,0:0:0:0:
116,200,3592,5,4,0:0:0:0:
93,68,3878,1,8,0:0:0:0:
222,50,4164,2,0,L|280:44,1,50.000000298023,8|8,0:0|0:0,0:0:0:0:
341,96,4450,2,0,L|390:101,1,50.000000298023,8|0,0:0|0:0,0:0:0:0:
457,49,4735,6,0,P|473:79|475:95,1,50.000000298023,4|0,0:0|0:0,0:0:0:0:
474,180,5021,1,8,0:0:0:0:
437,257,5164,2,0,P|391:282|311:266,1,100.000000596046,4|0,0:0|0:0,0:0:0:0:
277,228,5592,1,8,0:0:0:0:
207,277,5735,2,0,L|75:272,1,100.000000596046,4|8,0:0|0:0,0:0:0:0:
59,151,6307,5,0,0:0:0:0:
107,81,6450,2,0,L|165:75,1,50.000000298023,4|0,0:0|0:0,0:0:0:0:
226,127,6736,2,0,L|275:132,1,50.000000298023,8|0,0:0|0:0,0:0:0:0:
344,80,7021,6,0,L|402:74,1,50.000000298023,4|0,0:0|0:0,0:0:0:0:
471,109,7307,1,8,0:0:0:0:
409,167,7450,2,0,P|388:224|404:286,1,100.000000596046,4|0,0:0|0:0,0:0:0:0:
446,327,7878,1,8,0:0:0:0:
366,356,8021,1,0,0:0:0:0:
299,303,8164,2,0,L|177:313,1,100.000000596046,4|8,0:0|0:0,0:0:0:0:
111,214,8735,2,0,L|233:224,1,100.000000596046,4|8,0:0|0:0,0:0:0:0:
51,284,9307,5,4,0:0:0:0:
23,242,9450,1,0,0:0:0:0:
22,193,9592,1,8,0:0:0:0:
181,130,9878,1,4,0:0:0:0:
209,172,10021,1,0,0:0:0:0:
210,222,10163,1,8,0:0:0:0:
152,339,10450,6,0,L|274:349,1,100.000000596046,4|8,0:0|0:0,0:0:0:0:
329,313,10878,2,0,P|348:261|330:195,1,100.000000596046,4|8,0:0|0:0,0:0:0:0:
292,147,11307,1,8,0:0:0:0:
209,172,11450,1,0,0:0:0:0:
129,142,11592,6,0,P|124:108|130:63,1,50.000000298023,4|0,0:0|0:0,0:0:0:0:
174,23,11878,1,8,0:0:0:0:
256,44,12021,2,0,L|355:35,1,100.000000596046,4|0,0:0|0:0,0:0:0:0:
440,45,12450,1,8,0:0:0:0:
410,124,12592,1,0,0:0:0:0:
456,195,12735,6,0,P|461:244|443:290,1,100.000000596046,4|8,0:0|0:0,0:0:0:0:
332,359,13307,2,0,L|340:259,1,100.000000596046,4|8,0:0|0:0,0:0:0:0:
226,195,13878,6,0,L|234:294,1,100.000000596046,4|8,0:0|0:0,0:0:0:0:
344,224,14450,1,4,0:0:0:0:
352,139,14592,1,0,0:0:0:0:
283,88,14735,2,0,L|215:83,1,50.000000298023,8|0,0:0|0:0,0:0:0:0:
150,62,15021,6,0,P|153:121|112:177,1,100.000000596046,4|8,0:0|0:0,0:0:0:0:
65,206,15450,1,0,0:0:0:0:
120,270,15592,2,0,L|169:266,1,50.000000298023,4|8,0:0|0:0,0:0:0:0:
226,195,15878,1,8,0:0:0:0:
344,224,16164,6,0,P|375:229|431:209,1,50.000000298023,4|0,0:0|0:0,0:0:0:0:
468,186,16450,1,8,0:0:0:0:
474,101,16592,1,0,0:0:0:0:
404,51,16735,2,0,L|305:60,1,100.000000596046,4|8,0:0|0:0,0:0:0:0:
218,60,17164,2,0,L|119:51,1,100.000000596046,4|0,0:0|0:0,0:0:0:0:
50,102,17592,1,8,0:0:0:0:
94,174,17735,1,0,0:0:0:0:
37,237,17878,2,0,P|32:286|50:332,1,100.000000596046,4|8,0:0|0:0,0:0:0:0:
179,352,18450,6,0,L|296:349,1,100.000000596046,4|8,0:0|0:0,0:0:0:0:
375,262,19021,2,0,L|275:259,1,100.000000596046,4|8,0:0|0:0,0:0:0:0:
148,230,19592,1,4,0:0:0:0:
177,102,19878,1,8,0:0:0:0:
305,131,20164,1,8,0:0:0:0:
275,259,20450,1,8,0:0:0:0:
148,230,20735,6,0,P|123:225|98:227,1,50.000000298023,4|0,0:0|0:0,0:0:0:0:
42,292,21021,1,8,0:0:0:0:
95,358,21164,1,0,0:0:0:0:
179,347,21307,2,0,L|278:344,1,100.000000596046,4|8,0:0|0:0,0:0:0:0:
356,305,21735,2,0,P|367:247|326:182,1,100.000000596046,4|0,0:0|0:0,0:0:0:0:
292,149,22164,1,8,0:0:0:0:
208,166,22307,1,0,0:0:0:0:
129,132,22450,2,0,P|118:74|159:9,1,100.000000596046,4|8,0:0|0:0,0:0:0:0:
261,28,23021,6,0,L|360:30,1,100.000000596046,4|8,0:0|0:0,0:0:0:0:
391,151,23592,2,0,L|291:148,1,100.000000596046,4|8,0:0|0:0,0:0:0:0:
206,166,24021,2,0,L|106:163,1,100.000000596046,4|0,0:0|0:0,0:0:0:0:
37,215,24450,1,8,0:0:0:0:
59,296,24592,1,0,0:0:0:0:
136,261,24735,2,0,P|202:250|251:273,1,100.000000596046,8|8,0:0|0:0,0:0:0:0:
350,315,25307,6,0,P|398:326|446:314,1,100.000000596046,4|8,0:0|0:0,0:0:0:0:
445,184,25878,2,0,P|396:172|348:184,1,100.000000596046,4|8,0:0|0:0,0:0:0:0:
226,210,26450,2,0,L|231:259,1,50.000000298023,4|0,0:0|0:0,0:0:0:0:
228,344,26735,1,8,0:0:0:0:
142,340,26878,2,0,P|90:347|36:315,1,100.000000596046,4|0,0:0|0:0,0:0:0:0:
105,260,27307,1,8,0:0:0:0:
200,126,27592,6,0,P|151:114|103:126,1,100.000000596046,4|8,0:0|0:0,0:0:0:0:
105,260,28164,2,0,P|154:272|202:260,1,100.000000596046,4|8,0:0|0:0,0:0:0:0:
329,181,28735,2,0,L|323:230,1,50.000000298023,4|0,0:0|0:0,0:0:0:0:
327,315,29020,1,8,0:0:0:0:
413,311,29164,2,0,P|465:318|519:286,1,100.000000596046,4|4,0:0|0:0,0:0:0:0:
450,231,29592,1,8,0:0:0:0:
329,181,29878,6,0,L|229:178,1,100.000000596046,4|8,0:0|0:0,0:0:0:0:
72,79,30450,1,4,0:0:0:0:
101,207,30736,1,8,2:0:0:0:
229,178,31022,1,4,2:0:0:0:
199,50,31308,1,8,2:0:0:0:
72,79,31592,2,0,P|67:113|74:167,1,50.000000298023,4|0,2:0|2:0,0:0:0:0:
101,207,31878,2,0,P|105:231|105:256,1,50.000000298023,8|0,0:0|0:0,0:0:0:0:
103,342,32164,5,4,0:0:0:0:
103,342,32307,1,8,0:0:0:0:
225,298,32592,1,4,0:0:0:0:
225,298,32735,1,8,0:0:0:0:
347,342,33021,1,4,0:0:0:0:
347,342,33164,1,8,0:0:0:0:
469,298,33450,5,0,0:0:0:0:
469,298,33592,2,0,P|473:273|473:248,1,50.000000298023,2|0,0:0|0:0,0:0:0:0:
394,217,33878,2,0,P|389:192|389:167,1,50.000000298023,2|0,0:0|0:0,0:0:0:0:
469,136,34164,2,0,P|473:111|473:86,1,50.000000298023,2|0,0:0|0:0,0:0:0:0:
473,86,35592,6,0,L|394:78,1,50.000000298023,4|0,0:0|0:0,0:0:0:0:
339,162,35878,2,0,L|418:170,1,50.000000298023,8|0,0:0|0:0,0:0:0:0:
473,248,36164,2,0,L|394:240,1,50.000000298023,4|0,0:0|0:0,0:0:0:0:
339,324,36450,2,0,L|418:332,1,50.000000298023,8|0,0:0|0:0,0:0:0:0:
323,234,36735,6,0,P|289:248|261:278,1,50.000000298023,4|0,0:0|0:0,0:0:0:0:
207,303,37021,2,0,P|183:295|162:280,1,50.000000298023,8|0,0:0|0:0,0:0:0:0:
110,213,37307,2,0,P|144:199|172:169,1,50.000000298023,4|0,0:0|0:0,0:0:0:0:
226,144,37593,2,0,P|249:151|270:166,1,50.000000298023,8|0,0:0|0:0,0:0:0:0:
323,234,37878,6,0,P|372:250|430:229,1,100.000000596046,4|8,0:0|0:0,0:0:0:0:
475,120,38450,2,0,L|469:71,1,50.000000298023,4|0,0:0|0:0,0:0:0:0:
392,32,38735,1,8,0:0:0:0:
312,63,38878,2,0,L|212:60,1,100.000000596046,4|0,0:0|0:0,0:0:0:0:
136,100,39307,1,8,0:0:0:0:
111,181,39450,1,0,0:0:0:0:
161,248,39592,2,0,P|185:247|210:243,1,50.000000298023,4|0,0:0|0:0,0:0:0:0:
273,185,39878,2,0,P|297:185|322:189,1,50.000000298023,8|0,0:0|0:0,0:0:0:0:
398,229,40164,6,0,L|403:179,1,50.000000298023,4|0,0:0|0:0,0:0:0:0:
488,168,40450,2,0,L|482:217,1,50.000000298023,8|0,0:0|0:0,0:0:0:0:
437,102,40735,2,0,L|443:53,1,50.000000298023,4|0,0:0|0:0,0:0:0:0:
358,64,41021,2,0,L|353:114,1,50.000000298023,8|0,0:0|0:0,0:0:0:0:
335,193,41307,6,0,P|312:186|291:171,1,50.000000298023,4|0,0:0|0:0,0:0:0:0:
219,125,41592,2,0,P|196:132|176:146,1,50.000000298023,8|0,0:0|0:0,0:0:0:0:
123,215,41878,2,0,P|146:222|167:237,1,50.000000298023,4|0,0:0|0:0,0:0:0:0:
239,283,42164,2,0,P|262:276|283:261,1,50.000000298023,8|0,0:0|0:0,0:0:0:0:
335,193,42450,6,0,P|382:180|429:196,1,100.000000596046,4|8,0:0|0:0,0:0:0:0:
484,316,43021,2,0,L|384:313,1,100.000000596046,4|8,0:0|0:0,0:0:0:0:
282,261,43592,1,4,0:0:0:0:
212,312,43735,2,0,P|160:320|103:294,2,100.000000596046,8|8|8,0:0|0:0|0:0,0:0:0:0:
233,183,44592,1,8,0:0:0:0:
184,113,44735,6,0,L|134:107,1,50.000000298023,4|0,0:0|0:0,0:0:0:0:
178,34,45021,2,0,L|227:39,1,50.000000298023,8|0,0:0|0:0,0:0:0:0:
325,114,45307,2,0,L|276:109,1,50.000000298023,4|0,0:0|0:0,0:0:0:0:
232,182,45593,2,0,L|282:188,1,50.000000298023,8|0,0:0|0:0,0:0:0:0:
219,259,45878,6,0,P|196:251|176:237,1,50.000000298023,4|0,0:0|0:0,0:0:0:0:
103,191,46164,2,0,P|80:198|60:212,1,50.000000298023,8|0,0:0|0:0,0:0:0:0:
8,280,46450,2,0,P|31:288|51:302,1,50.000000298023,4|0,0:0|0:0,0:0:0:0:
123,349,46736,2,0,P|147:341|167:327,1,50.000000298023,8|0,0:0|0:0,0:0:0:0:
219,259,47021,6,0,L|319:262,1,100.000000596046,4|8,0:0|0:0,0:0:0:0:
420,180,47592,1,4,0:0:0:0:
420,180,47735,1,8,0:0:0:0:
316,100,48021,2,0,B|281:86|240:97|240:97|219:88|219:88|189:97|156:83,1,150.000000894069,4|8,0:0|0:0,0:0:0:0:
42,62,48735,1,4,0:0:0:0:
85,185,49021,1,8,0:0:0:0:
214,194,49307,6,0,L|314:191,1,100.000000596046,4|0,0:0|0:0,0:0:0:0:
409,279,49878,2,0,L|309:276,1,100.000000596046,8|0,0:0|0:0,0:0:0:0:
214,194,50450,1,4,0:0:0:0:
243,66,50736,1,0,0:0:0:0:
371,95,51022,1,8,0:0:0:0:
341,223,51308,1,0,0:0:0:0:
214,194,51592,6,0,P|189:189|164:191,1,50.000000298023,4|0,0:0|0:0,0:0:0:0:
56,263,52021,2,0,B|66:302|54:342|54:342|143:299|228:348,1,250.000001490115,4|8,0:0|0:0,0:0:0:0:
218,343,53307,2,0,L|318:340,1,100.000000596046,4|0,0:0|0:0,0:0:0:0:
447,340,53878,6,0,P|465:291|446:240,1,100.000000596046,6|0,0:0|0:0,0:0:0:0:
322,246,54450,2,0,P|304:292|318:340,1,100.000000596046
451,246,55021,2,0,P|469:197|450:146,1,100.000000596046,6|0,0:0|0:0,0:0:0:0:
352,73,55592,1,0,0:0:0:0:
230,118,55878,1,0,0:0:0:0:
271,239,56164,6,0,L|320:244,1,50.000000298023,4|0,0:0|0:0,0:0:0:0:
366,171,56450,1,0,0:0:0:0:
411,242,56592,2,0,P|400:290|357:329,1,100.000000596046,8|0,0:0|0:0,0:0:0:0:
279,327,57021,1,8,0:0:0:0:
200,295,57164,2,0,P|148:285|100:303,2,100.000000596046,0|8|0,0:0|0:0|0:0,0:0:0:0:
271,239,57878,2,0,L|276:189,1,50.000000298023,8|0,0:0|0:0,0:0:0:0:
195,160,58164,2,0,L|190:110,1,50.000000298023,8|0,0:0|0:0,0:0:0:0:
250,49,58450,6,0,P|285:60|310:80,1,50.000000298023,4|0,0:0|0:0,0:0:0:0:
361,121,58735,1,0,0:0:0:0:
438,86,58878,2,0,P|445:136|411:191,1,100.000000596046,8|0,0:0|0:0,0:0:0:0:
349,221,59307,1,8,0:0:0:0:
269,190,59450,2,8,L|168:188,1,100.000000596046
30,287,60021,5,4,0:0:0:0:
90,349,60164,2,0,L|140:354,1,50.000000298023,8|8,0:0|0:0,0:0:0:0:
176,276,60450,2,0,L|126:270,1,50.000000298023,8|8,0:0|0:0,0:0:0:0:
