osu file format v14

[General]
AudioFilename: audio.mp3
AudioLeadIn: 0
PreviewTime: 35592
Countdown: 0
SampleSet: Soft
StackLeniency: 0.6
Mode: 0
LetterboxInBreaks: 0
WidescreenStoryboard: 0

[Editor]
DistanceSpacing: 1.5
BeatDivisor: 2
GridSize: 8
TimelineZoom: 1.4

[Metadata]
Title:Kani*Do-Luck!
TitleUnicode:カニ☆Do-Luck!
Artist:Aiu Rabu
ArtistUnicode:あいう♥らぶ
Creator:xChorse
Version:Extra
Source:あいうら
Tags:crabs steve jobs apple thighs aiurabu love think nani aiura opening
BeatmapID:1270802
BeatmapSetID:601556

[Difficulty]
HPDrainRate:6
CircleSize:4
OverallDifficulty:8.6
ApproachRate:9.2
SliderMultiplier:1.40000000596046
SliderTickRate:1

[Events]
//Background and Video events
0,0,"bgextra.jpg",0,0
//Break Periods
//Storyboard Layer 0 (Background)
//Storyboard Layer 1 (Fail)
//Storyboard Layer 2 (Pass)
//Storyboard Layer 3 (Foreground)
//Storyboard Sound Samples

[TimingPoints]
2450,285.714285714286,4,2,1,65,1,0
35592,-100,4,2,1,65,0,1
49307,-133.333333333333,4,2,1,65,0,0
52021,-200,4,2,1,65,0,0
56164,-100,4,2,1,65,0,1
60592,-100,4,2,1,65,0,0

[Colours]
Combo1 : 142,153,249
Combo2 : 225,113,0
Combo3 : 241,168,58
Combo4 : 243,208,101

[HitObjects]
327,235,2450,5,8,0:0:0:0:
303,336,2592,1,0,0:0:0:0:
403,266,2735,2,0,P|408:225|387:180,1,70.000000298023,8|0,0:0|0:0,0:0:0:0:
318,130,3021,1,8,0:0:0:0:
327,235,3164,1,0,0:0:0:0:
408,104,3307,1,8,0:0:0:0:
314,239,3450,6,0,L|167:243,1,140.000000596046
66,289,3878,1,8,0:0:0:0:
164,244,4021,1,0,0:0:0:0:
130,340,4164,2,0,P|104:361|59:369,1,70.000000298023,8|8,0:0|0:0,0:0:0:0:
2,238,4450,2,0,P|27:216|72:208,1,70.000000298023,8|8,0:0|0:0,0:0:0:0:
207,239,4735,5,4,0:0:0:0:
66,289,4878,1,0,0:0:0:0:
229,315,5021,1,8,0:0:0:0:
151,185,5164,1,0,0:0:0:0:
253,319,5307,2,0,P|284:308|313:272,1,70.000000298023,4|0,0:0|0:0,0:0:0:0:
260,156,5592,1,8,0:0:0:0:
136,210,5735,6,0,L|132:70,1,140.000000596046,4|0,0:0|0:0,0:0:0:0:
247,54,6164,1,8,0:0:0:0:
260,156,6307,1,0,0:0:0:0:
147,45,6450,1,4,0:0:0:0:
136,210,6592,1,0,0:0:0:0:
309,99,6735,1,8,0:0:0:0:
84,124,6878,1,0,0:0:0:0:
227,249,7021,6,0,L|296:247,1,70.000000298023,4|0,0:0|0:0,0:0:0:0:
254,154,7307,1,8,0:0:0:0:
377,260,7450,2,0,P|340:316|246:309,1,140.000000596046,4|0,0:0|0:0,0:0:0:0:
172,289,7878,1,8,0:0:0:0:
296,247,8021,1,0,0:0:0:0:
132,358,8164,6,0,P|103:333|91:304,1,70.000000298023,4|0,0:0|0:0,0:0:0:0:
119,202,8450,1,8,0:0:0:0:
172,289,8592,1,0,0:0:0:0:
109,192,8735,2,0,L|107:122,1,70.000000298023,4|0,0:0|0:0,0:0:0:0:
216,96,9021,2,0,L|214:165,1,70.000000298023,8|0,0:0|0:0,0:0:0:0:
296,83,9307,5,4,0:0:0:0:
296,83,9450,1,0,0:0:0:0:
117,132,9592,2,0,L|119:202,1,70.000000298023,8|0,0:0|0:0,0:0:0:0:
232,260,9878,1,4,0:0:0:0:
232,260,10021,1,0,0:0:0:0:
358,142,10164,2,0,L|356:72,1,70.000000298023,8|0,0:0|0:0,0:0:0:0:
439,189,10450,6,0,P|394:229|313:224,1,140.000000596046,4|8,0:0|0:0,0:0:0:0:
235,120,10878,2,0,L|232:260,1,140.000000596046,4|8,0:0|0:0,0:0:0:0:
151,81,11307,2,0,L|147:47,2,35.0000001490115,8|8|8,0:0|0:0|0:0,0:0:0:0:
235,120,11592,6,0,L|304:118,1,70.000000298023,4|0,0:0|0:0,0:0:0:0:
393,37,11878,1,8,0:0:0:0:
485,113,12021,2,0,P|493:177|430:234,1,140.000000596046,4|0,0:0|0:0,0:0:0:0:
328,222,12450,1,8,0:0:0:0:
415,154,12592,1,0,0:0:0:0:
305,221,12735,6,0,L|235:219,1,70.000000298023,4|0,0:0|0:0,0:0:0:0:
249,121,13021,2,0,L|318:119,1,70.000000298023,8|0,0:0|0:0,0:0:0:0:
177,159,13307,2,0,P|168:123|176:86,1,70.000000298023,4|0,0:0|0:0,0:0:0:0:
310,51,13592,2,0,P|322:83|318:118,1,70.000000298023,8|0,0:0|0:0,0:0:0:0:
188,240,13878,6,0,L|48:244,1,140.000000596046,4|8,0:0|0:0,0:0:0:0:
116,324,14307,1,0,0:0:0:0:
259,280,14450,2,0,P|269:236|260:203,1,70.000000298023,4|0,0:0|0:0,0:0:0:0:
198,130,14735,1,8,0:0:0:0:
188,240,14878,1,0,0:0:0:0:
280,132,15021,6,0,L|282:62,1,70.000000298023,4|0,0:0|0:0,0:0:0:0:
178,39,15307,1,8,0:0:0:0:
281,62,15450,1,0,0:0:0:0:
107,117,15592,1,4,0:0:0:0:
281,62,15735,2,0,L|315:66,2,35.0000001490115,8|8|8,0:0|0:0|0:0,0:0:0:0:
281,62,16164,6,0,P|274:101|281:135,1,70.000000298023,4|0,0:0|0:0,0:0:0:0:
358,212,16450,1,8,0:0:0:0:
383,110,16592,1,0,0:0:0:0:
279,130,16735,1,4,0:0:0:0:
358,293,16878,2,0,P|402:281|428:252,1,70.000000298023,2|8,0:0|0:0,0:0:0:0:
270,207,17164,6,0,L|130:211,1,140.000000596046,4|0,0:0|0:0,0:0:0:0:
92,309,17592,2,0,L|161:307,1,70.000000298023,8|0,0:0|0:0,0:0:0:0:
253,360,17878,1,4,0:0:0:0:
161,306,18021,1,2,0:0:0:0:
270,207,18164,1,8,0:0:0:0:
161,306,18307,1,2,0:0:0:0:
272,191,18450,6,0,L|268:51,1,140.000000596046,4|8,0:0|0:0,0:0:0:0:
162,45,18878,1,0,0:0:0:0:
70,98,19021,2,0,P|62:162|125:219,1,140.000000596046,4|8,0:0|0:0,0:0:0:0:
213,237,19450,2,0,L|353:233,1,140.000000596046,4|0,0:0|0:0,0:0:0:0:
419,151,19878,5,8,0:0:0:0:
352,233,20021,1,0,0:0:0:0:
314,133,20164,1,8,0:0:0:0:
441,235,20307,1,0,0:0:0:0:
306,121,20450,2,0,L|237:119,1,70.000000298023,8|0,0:0|0:0,0:0:0:0:
139,140,20735,5,4,0:0:0:0:
213,237,20878,1,0,0:0:0:0:
67,178,21021,2,0,P|58:142|66:105,1,70.000000298023,8|0,0:0|0:0,0:0:0:0:
131,21,21307,1,4,0:0:0:0:
238,49,21450,2,0,L|236:119,1,70.000000298023,2|0,0:0|0:0,0:0:0:0:
177,232,21735,6,0,P|109:230|66:178,1,140.000000596046,4|0,0:0|0:0,0:0:0:0:
142,87,22164,2,0,L|144:157,1,70.000000298023,8|0,0:0|0:0,0:0:0:0:
192,268,22450,1,4,0:0:0:0:
243,130,22592,1,2,0:0:0:0:
192,268,22735,1,8,0:0:0:0:
243,130,22879,1,2,0:0:0:0:
306,324,23021,6,0,P|373:322|416:269,1,140.000000596046,4|8,0:0|0:0,0:0:0:0:
445,160,23450,1,0,0:0:0:0:
385,67,23592,2,0,L|245:71,1,140.000000596046,4|8,0:0|0:0,0:0:0:0:
166,140,24021,2,0,P|122:193|54:194,1,140.000000596046,4|0,0:0|0:0,0:0:0:0:
86,119,24450,6,0,P|94:85|89:50,1,70.000000298023,8|0,0:0|0:0,0:0:0:0:
40,213,24735,2,0,P|34:247|43:280,1,70.000000298023,8|0,0:0|0:0,0:0:0:0:
130,340,25021,2,0,L|164:336,3,35.0000001490115,8|0|0|0,0:0|0:0|0:0|0:0,0:0:0:0:
165,354,25307,6,0,L|305:358,1,140.000000596046,4|8,0:0|0:0,0:0:0:0:
382,287,25735,1,0,0:0:0:0:
320,199,25878,2,0,P|332:133|390:97,1,140.000000596046,4|8,0:0|0:0,0:0:0:0:
493,122,26307,1,0,0:0:0:0:
400,178,26450,5,4,0:0:0:0:
458,45,26592,1,0,0:0:0:0:
481,207,26735,1,8,0:0:0:0:
320,199,26878,2,0,L|180:195,1,140.000000596046,4|0,0:0|0:0,0:0:0:0:
96,129,27307,1,8,0:0:0:0:
84,235,27450,1,0,0:0:0:0:
182,109,27592,6,0,P|149:57|71:44,1,140.000000596046,4|8,0:0|0:0,0:0:0:0:
21,175,28021,1,0,0:0:0:0:
180,195,28164,2,0,L|249:193,1,70.000000298023,4|0,0:0|0:0,0:0:0:0:
336,110,28450,1,8,0:0:0:0:
249,192,28592,1,0,0:0:0:0:
408,148,28735,6,0,P|417:114|411:80,1,70.000000298023,4|0,0:0|0:0,0:0:0:0:
284,12,29021,1,8,0:0:0:0:
181,111,29164,2,4,L|177:251,1,140.000000596046,4|4,0:0|0:0,0:0:0:0:
262,312,29592,1,8,0:0:0:0:
166,354,29735,1,0,0:0:0:0:
249,192,29878,5,4,0:0:0:0:
257,187,30164,2,0,P|296:181|341:194,1,70.000000298023,8|0,0:0|0:0,0:0:0:0:
185,245,30450,2,0,P|146:251|101:238,1,70.000000298023,4|0,0:0|0:0,0:0:0:0:
265,204,30735,2,0,P|303:215|339:246,1,70.000000298023,8|0,2:0|2:0,0:0:0:0:
176,227,31021,2,0,P|138:216|102:185,1,70.000000298023,4|0,2:0|2:0,0:0:0:0:
266,224,31307,2,0,P|296:250|314:293,1,70.000000298023,8|0,2:0|2:0,0:0:0:0:
175,207,31592,2,0,P|145:181|127:138,1,70.000000298023,4|0,2:0|2:0,0:0:0:0:
135,49,31878,1,8,0:0:0:0:
127,54,32164,5,4,0:0:0:0:
184,142,32307,1,8,0:0:0:0:
214,60,32592,5,4,0:0:0:0:
120,201,32735,1,8,0:0:0:0:
100,116,33021,5,4,0:0:0:0:
222,299,33164,1,8,0:0:0:0:
408,202,33450,5,0,0:0:0:0:
408,202,33592,2,0,L|406:132,1,70.000000298023,2|0,0:0|0:0,0:0:0:0:
305,78,33878,2,0,L|303:148,1,70.000000298023,2|0,0:0|0:0,0:0:0:0:
198,202,34164,2,0,L|196:132,1,70.000000298023,2|0,0:0|0:0,0:0:0:0:
256,192,34450,12,0,35307,0:0:0:0:
190,135,35592,5,4,0:0:0:0:
281,202,35736,1,0,0:0:0:0:
261,95,35878,1,8,0:0:0:0:
211,246,36021,1,0,0:0:0:0:
192,52,36164,1,4,0:0:0:0:
283,285,36307,1,0,0:0:0:0:
263,11,36450,1,8,0:0:0:0:
137,203,36592,1,0,0:0:0:0:
261,95,36735,6,0,L|330:93,1,70.000000298023,4|0,0:0|0:0,0:0:0:0:
353,287,37021,2,0,L|284:285,1,70.000000298023,8|0,0:0|0:0,0:0:0:0:
370,23,37307,2,0,P|399:49|410:78,1,70.000000298023,4|0,0:0|0:0,0:0:0:0:
221,164,37592,2,0,P|192:138|181:109,1,70.000000298023,8|0,0:0|0:0,0:0:0:0:
427,252,37878,6,0,P|427:320|376:365,1,140.000000596046,4|8,0:0|0:0,0:0:0:0:
255,353,38307,1,0,0:0:0:0:
224,233,38450,2,0,L|222:163,1,70.000000298023,4|0,0:0|0:0,0:0:0:0:
116,108,38735,1,8,0:0:0:0:
30,218,38878,6,0,L|34:358,1,140.000000596046,4|0,0:0|0:0,0:0:0:0:
135,328,39307,1,8,0:0:0:0:
33,357,39450,1,0,0:0:0:0:
206,366,39592,2,0,P|215:332|210:298,1,70.000000298023,4|0,0:0|0:0,0:0:0:0:
116,108,39878,2,0,P|111:142|119:176,1,70.000000298023,8|0,0:0|0:0,0:0:0:0:
263,107,40164,5,4,0:0:0:0:
263,272,40307,1,0,0:0:0:0:
352,122,40450,1,8,0:0:0:0:
204,190,40592,1,0,0:0:0:0:
327,42,40735,1,4,0:0:0:0:
263,272,40878,1,0,0:0:0:0:
412,59,41021,1,8,0:0:0:0:
162,100,41163,1,0,0:0:0:0:
373,250,41307,6,0,L|442:252,1,70.000000298023,4|0,0:0|0:0,0:0:0:0:
204,190,41592,2,0,L|135:192,1,70.000000298023,8|0,0:0|0:0,0:0:0:0:
412,59,41878,2,0,L|481:61,1,70.000000298023,4|0,0:0|0:0,0:0:0:0:
163,101,42164,2,0,L|94:103,1,70.000000298023,8|0,0:0|0:0,0:0:0:0:
263,272,42450,6,0,P|304:211|295:148,1,140.000000596046,4|8,0:0|0:0,0:0:0:0:
204,190,42878,1,0,0:0:0:0:
349,77,43021,2,0,L|418:75,1,70.000000298023,4|0,0:0|0:0,0:0:0:0:
442,252,43307,2,0,L|373:250,1,70.000000298023,8|0,0:0|0:0,0:0:0:0:
204,190,43592,5,4,0:0:0:0:
419,75,43735,1,8,0:0:0:0:
416,316,44021,5,8,0:0:0:0:
436,50,44307,1,8,0:0:0:0:
204,190,44592,1,8,0:0:0:0:
237,291,44735,5,4,0:0:0:0:
116,119,44878,1,0,0:0:0:0:
314,187,45021,1,8,0:0:0:0:
114,248,45164,1,0,0:0:0:0:
240,81,45307,1,4,0:0:0:0:
161,311,45450,1,0,0:0:0:0:
165,58,45592,1,8,0:0:0:0:
309,264,45735,1,0,0:0:0:0:
73,322,45878,6,0,P|48:297|35:265,1,70.000000298023,4|0,0:0|0:0,0:0:0:0:
240,81,46164,2,0,P|264:105|277:137,1,70.000000298023,8|0,0:0|0:0,0:0:0:0:
14,149,46450,2,0,L|12:80,1,70.000000298023,4|0,0:0|0:0,0:0:0:0:
246,264,46735,2,0,L|248:333,1,70.000000298023,8|0,0:0|0:0,0:0:0:0:
396,340,47021,6,0,P|437:279|428:216,1,140.000000596046,4|8,0:0|0:0,0:0:0:0:
337,258,47449,1,0,0:0:0:0:
281,168,47592,2,0,L|283:99,1,70.000000298023,4|0,0:0|0:0,0:0:0:0:
384,66,47878,1,8,0:0:0:0:
246,264,48021,2,0,P|190:215|182:152,1,140.000000596046,4|0,0:0|0:0,0:0:0:0:
283,98,48450,2,0,L|352:100,1,70.000000298023,8|0,0:0|0:0,0:0:0:0:
182,153,48735,2,0,L|113:151,1,70.000000298023,4|0,0:0|0:0,0:0:0:0:
38,74,49021,1,8,0:0:0:0:
38,74,49307,6,0,B|62:64|88:72|88:72|117:81|141:73,1,105.000004452467,4|0,0:0|0:0,0:0:0:0:
283,98,49878,2,0,B|307:106|336:97|336:97|362:89|391:100,1,105.000004452467,8|0,0:0|0:0,0:0:0:0:
370,246,50450,6,0,P|314:267|257:243,1,105.000004452467,4|0,0:0|0:0,0:0:0:0:
258,154,51021,2,0,P|313:132|370:156,1,105.000004452467,8|0,0:0|0:0,0:0:0:0:
272,255,51592,6,0,L|203:253,1,52.5000022262334,4|0,0:0|0:0,0:0:0:0:
118,222,52021,2,0,B|102:187|116:152|116:152|111:132|111:132|134:84|110:41,1,175.000000745057,4|8,0:0|0:0,0:0:0:0:
115,52,53307,2,0,L|186:49,1,70.000000298023,4|0,0:0|0:0,0:0:0:0:
282,88,53878,6,0,B|334:72|382:108|382:108|430:72|482:88,1,210.000000894069,6|0,0:0|0:0,0:0:0:0:
480,202,55021,2,0,B|428:218|380:182|380:182|332:218|280:202,1,210.000000894069,6|0,0:0|0:0,0:0:0:0:
282,202,56164,6,0,L|213:200,1,70.000000298023,4|0,0:0|0:0,0:0:0:0:
125,139,56450,1,4,0:0:0:0:
325,270,56592,2,0,P|350:243|362:207,1,70.000000298023,8|0,0:0|0:0,0:0:0:0:
370,79,56878,1,4,0:0:0:0:
282,202,57021,1,8,0:0:0:0:
448,117,57164,6,0,L|446:48,1,70.000000298023,4|0,0:0|0:0,0:0:0:0:
282,202,57450,2,0,L|284:271,1,70.000000298023,8|0,0:0|0:0,0:0:0:0:
367,336,57735,1,4,0:0:0:0:
319,131,57878,2,0,P|283:121|246:130,1,70.000000298023,8|0,0:0|0:0,0:0:0:0:
88,210,58164,2,0,P|124:219|161:211,1,70.000000298023,8|0,0:0|0:0,0:0:0:0:
129,87,58450,6,0,L|60:85,1,70.000000298023,4|0,0:0|0:0,0:0:0:0:
11,233,58735,1,4,0:0:0:0:
203,117,58878,2,0,P|208:83|200:50,1,70.000000298023,8|0,0:0|0:0,0:0:0:0:
48,56,59164,1,4,0:0:0:0:
155,213,59307,1,8,0:0:0:0:
319,131,59450,6,0,L|321:62,1,70.000000298023,8|0,0:0|0:0,0:0:0:0:
155,213,59735,2,0,L|157:282,1,70.000000298023,8|0,0:0|0:0,0:0:0:0:
269,357,60021,1,4,0:0:0:0:
177,144,60164,1,8,0:0:0:0:
374,262,60307,1,8,0:0:0:0:
145,283,60450,1,8,0:0:0:0:
319,131,60592,1,8,0:0:0:0:
