osu file format v14

[General]
AudioFilename: audio.mp3
AudioLeadIn: 0
PreviewTime: -1
Countdown: 1
SampleSet: Soft
StackLeniency: 0.7
Mode: 0
LetterboxInBreaks: 0
WidescreenStoryboard: 0

[Editor]
DistanceSpacing: 2.3
BeatDivisor: 4
GridSize: 4
TimelineZoom: 1

[Metadata]
Title:Kani*Do-Luck! (TV Size)
TitleUnicode:Kani*Do-Luck! (TV Size)
Artist:Aiu Love
ArtistUnicode:Aiu Love
Creator:Polarni
Version:Hard
Source:Aiura
Tags:
BeatmapID:993273
BeatmapSetID:463867

[Difficulty]
HPDrainRate:6
CircleSize:5
OverallDifficulty:6
ApproachRate:7
SliderMultiplier:1.4
SliderTickRate:1

[Events]
//Background and Video events
0,0,"aiura.jpg",0,0
//Break Periods
//Storyboard Layer 0 (Background)
//Storyboard Layer 1 (Fail)
//Storyboard Layer 2 (Pass)
//Storyboard Layer 3 (Foreground)
//Storyboard Sound Samples

[TimingPoints]
620,571.646341463415,4,2,0,100,1,0
12052,-66.6666666666667,4,2,0,100,0,1
31631,-133.333333333333,4,2,0,100,0,1
33775,-133.333333333333,4,2,0,100,0,0
36062,-100,4,2,0,100,0,0
38348,-133.333333333333,4,2,0,100,0,0
40635,-100,4,2,0,100,0,0
42921,-133.333333333333,4,2,0,100,0,0
45208,-100,4,2,0,100,0,0
51496,-66.6666666666667,4,2,0,100,0,0
54354,-100,4,2,0,100,0,0

[HitObjects]
152,224,620,6,0,L|160:144,1,70
320,156,1191,2,0,L|388:216,1,70
160,220,2906,6,0,L|168:128,1,70
328,152,3478,2,0,L|328:252,1,70
140,192,4621,6,0,L|296:192,1,140
200,228,5478,5,0,0:0:0:0:
244,72,5764,1,0,0:0:0:0:
380,160,6050,1,0,0:0:0:0:
276,284,6336,2,0,L|372:280,3,70
408,132,7479,5,8,0:0:0:0:
88,172,8051,1,8,0:0:0:0:
408,152,8623,6,0,B|456:204|352:160|420:224|464:240|448:244|404:288,1,140
128,136,9766,5,0,0:0:0:0:
268,56,10052,2,0,L|264:140,1,70
424,100,10623,1,0,0:0:0:0:
264,112,10909,1,0,0:0:0:0:
200,260,11195,1,0,0:0:0:0:
360,252,11481,1,0,0:0:0:0:
240,148,11767,1,0,0:0:0:0:
64,312,12052,6,2,L|80:204,2,105.000004005432
292,232,12910,1,8,0:0:0:0:
96,92,13196,2,2,L|324:92,1,210.000008010865
112,264,14339,5,0,0:0:0:0:
260,72,14625,1,0,0:0:0:0:
404,264,14911,2,0,L|276:264,1,105.000004005432
116,104,15482,1,0,0:0:0:0:
356,104,15768,1,0,0:0:0:0:
116,104,16054,1,0,0:0:0:0:
244,308,16340,1,0,0:0:0:0:
456,192,16626,2,0,L|336:192,2,105.000004005432
216,192,17483,1,8,0:0:0:0:
456,192,17769,2,0,L|236:192,1,210.000008010865
444,88,18912,5,0,0:0:0:0:
224,192,19198,2,0,L|88:192,1,105.000004005432
360,192,19770,1,0,0:0:0:0:
160,328,20055,1,0,0:0:0:0:
132,88,20341,1,0,0:0:0:0:
228,308,20627,1,0,0:0:0:0:
316,84,20913,1,0,0:0:0:0:
364,320,21199,2,8,B|500:328|312:396|516:184|548:260|312:264|364:260|452:208,2,210.000008010865
180,164,22628,1,0,0:0:0:0:
404,76,22914,1,0,0:0:0:0:
360,312,23200,1,0,0:0:0:0:
176,160,23485,6,0,L|88:84,1,105.000004005432
340,96,24057,1,0,0:0:0:0:
112,172,24343,1,0,0:0:0:0:
352,204,24629,2,8,L|232:256,2,105.000004005432
132,112,25772,5,0,0:0:0:0:
316,272,26058,1,0,0:0:0:0:
440,64,26344,1,0,0:0:0:0:
204,120,26629,1,0,0:0:0:0:
80,192,26915,2,8,L|168:276,2,105.000004005432
308,104,27773,1,0,0:0:0:0:
164,300,28059,1,0,0:0:0:0:
404,280,28344,6,0,L|404:156,1,105.000004005432
164,128,28916,1,0,0:0:0:0:
348,284,29202,1,0,0:0:0:0:
428,56,29488,1,0,0:0:0:0:
196,112,29773,1,0,0:0:0:0:
408,232,30059,1,0,0:0:0:0:
184,324,30345,5,8,0:0:0:0:
448,56,30917,1,8,0:0:0:0:
72,100,31488,5,8,0:0:0:0:
112,144,31631,1,4,0:0:0:0:
152,188,31774,1,4,0:0:0:0:
200,224,31917,1,4,0:0:0:0:
256,248,32060,1,4,0:0:0:0:
316,252,32203,1,4,0:0:0:0:
376,244,32346,1,4,0:0:0:0:
432,220,32489,1,4,0:0:0:0:
464,168,32632,1,4,0:0:0:0:
256,192,32775,12,0,33775,0:0:0:0:
208,188,33918,5,0,0:0:0:0:
268,188,34061,1,0,0:0:0:0:
328,188,34204,1,0,0:0:0:0:
388,188,34347,1,0,0:0:0:0:
448,188,34490,1,0,0:0:0:0:
388,188,34632,1,0,0:0:0:0:
328,188,34775,1,0,0:0:0:0:
268,188,34918,5,0,0:0:0:0:
208,192,35061,1,0,0:0:0:0:
148,192,35204,1,0,0:0:0:0:
148,132,35347,1,0,0:0:0:0:
148,72,35490,1,0,0:0:0:0:
208,72,35633,1,0,0:0:0:0:
268,76,35776,1,0,0:0:0:0:
328,76,35919,1,0,0:0:0:0:
408,84,36062,6,4,L|372:156,2,70
248,88,36919,1,8,0:0:0:0:
96,144,37205,2,4,L|156:220,2,70
248,96,38062,1,8,0:0:0:0:
368,72,38348,5,0,0:0:0:0:
368,132,38491,1,0,0:0:0:0:
368,192,38634,1,0,0:0:0:0:
368,252,38777,1,0,0:0:0:0:
368,312,38920,1,0,0:0:0:0:
308,312,39063,1,0,0:0:0:0:
248,312,39206,1,0,0:0:0:0:
188,316,39349,1,0,0:0:0:0:
188,256,39491,5,0,0:0:0:0:
188,196,39634,1,0,0:0:0:0:
248,196,39777,1,0,0:0:0:0:
308,196,39920,1,0,0:0:0:0:
368,196,40063,1,0,0:0:0:0:
368,136,40206,1,0,0:0:0:0:
368,76,40349,1,0,0:0:0:0:
308,76,40492,1,0,0:0:0:0:
228,76,40635,6,4,L|144:96,2,70
384,112,41492,1,8,0:0:0:0:
252,200,41778,2,4,L|160:196,2,70
412,196,42636,1,8,0:0:0:0:
412,76,42921,5,0,0:0:0:0:
352,76,43064,1,0,0:0:0:0:
292,76,43207,1,0,0:0:0:0:
232,76,43350,1,0,0:0:0:0:
172,76,43493,1,0,0:0:0:0:
172,136,43636,1,0,0:0:0:0:
172,196,43779,1,0,0:0:0:0:
112,196,43922,1,0,0:0:0:0:
52,196,44065,5,0,0:0:0:0:
52,256,44208,1,0,0:0:0:0:
112,256,44350,1,0,0:0:0:0:
172,256,44493,1,0,0:0:0:0:
232,256,44636,1,0,0:0:0:0:
292,256,44779,1,0,0:0:0:0:
352,256,44922,1,0,0:0:0:0:
352,196,45065,1,0,0:0:0:0:
352,116,45208,6,4,L|272:112,2,70
196,164,46065,1,8,0:0:0:0:
340,240,46351,1,8,0:0:0:0:
184,284,46637,1,8,0:0:0:0:
140,128,46923,6,4,L|288:120,1,140
400,228,47780,1,0,0:0:0:0:
240,240,48066,2,0,L|128:128,1,140
300,104,48924,1,8,0:0:0:0:
272,260,49209,1,8,0:0:0:0:
120,204,49495,1,8,0:0:0:0:
160,48,49781,2,2,L|276:136,2,140
444,328,51496,5,0,0:0:0:0:
52,48,52068,1,0,0:0:0:0:
476,280,52639,1,0,0:0:0:0:
36,80,53211,1,0,0:0:0:0:
464,300,53783,1,0,0:0:0:0:
180,144,54354,6,2,L|260:108,2,70
336,180,55212,2,0,L|252:204,1,70
136,108,55783,1,8,0:0:0:0:
200,256,56069,1,8,0:0:0:0:
356,212,56355,2,2,L|280:152,1,70
144,132,56927,1,8,0:0:0:0:
264,240,57212,1,8,0:0:0:0:
104,220,57498,2,0,L|188:176,2,70
264,200,58356,2,4,L|288:164,3,35
