osu file format v14

[General]
AudioFilename: audio.ogg
AudioLeadIn: 0
PreviewTime: 121754
Countdown: 0
SampleSet: Soft
StackLeniency: 0.7
Mode: 0
LetterboxInBreaks: 0
WidescreenStoryboard: 0

[Editor]
Bookmarks: 15370,30139,59677,89216,92908,107677,122447,151985,166754,181524,196293,211062,240601,270139
DistanceSpacing: 0.4
BeatDivisor: 4
GridSize: 16
TimelineZoom: 1.460001

[Metadata]
Title:Twilight
TitleUnicode:トワイライト
Artist:Aitsuki Nakuru
ArtistUnicode:藍月なくる
Creator:Judge1st
Version:Flashback
Source:
Tags:feryquitous nacollection nacollection4 8th album japanese pop jpop j-pop female vocal vocals vocalist
BeatmapID:4492928
BeatmapSetID:2135242

[Difficulty]
HPDrainRate:5
CircleSize:4.4
OverallDifficulty:8.2
ApproachRate:8.7
SliderMultiplier:1.8
SliderTickRate:1

[Events]
//Background and Video events
0,0,"twlghtF.png",0,0
Video,-1352,"twilight.mp4"
//Break Periods
2,196283,206725
//Storyboard Layer 0 (Background)
//Storyboard Layer 1 (Fail)
//Storyboard Layer 2 (Pass)
//Storyboard Layer 3 (Foreground)
//Storyboard Layer 4 (Overlay)
//Storyboard Sound Samples

[TimingPoints]
601,461.538461538462,4,2,0,65,1,0
13293,-100,4,2,0,65,0,0
13985,-133.333333333333,4,2,0,65,0,0
15370,-90.9090909090909,4,2,0,70,0,0
28062,-83.3333333333333,4,2,0,70,0,0
28524,-100,4,2,0,70,0,0
28754,-90.9090909090909,4,2,0,70,0,0
28985,-71.4285714285714,4,2,0,70,0,0
29677,-100,4,2,0,70,0,0
30139,-66.6666666666667,4,2,0,80,0,0
30601,-76.9230769230769,4,2,0,80,0,0
31524,-83.3333333333333,4,2,0,80,0,0
33831,-76.9230769230769,4,2,0,80,0,0
44908,-66.6666666666667,4,2,0,80,0,0
45831,-76.9230769230769,4,2,0,80,0,0
46754,-71.4285714285714,4,2,0,80,0,0
47447,-76.9230769230769,4,2,0,80,0,0
50216,-66.6666666666667,4,2,0,80,0,0
50677,-76.9230769230769,4,2,0,80,0,0
59677,-66.6666666666667,4,2,0,80,0,0
60139,-76.9230769230769,4,2,0,80,0,0
63139,-76.9230769230769,4,2,0,85,0,0
67062,-76.9230769230769,4,2,0,80,0,0
70524,-76.9230769230769,4,2,0,85,0,0
74447,-66.6666666666667,4,2,0,85,0,0
74908,-76.9230769230769,4,2,0,85,0,0
79754,-71.4285714285714,4,2,0,85,0,0
81139,-83.3333333333333,4,2,0,85,0,0
81831,-71.4285714285714,4,2,0,80,0,0
82293,-76.9230769230769,4,2,0,80,0,0
84947,-76.9230769230769,4,2,0,85,0,0
89677,-100,4,2,0,75,0,0
89908,-83.3333333333333,4,2,0,75,0,0
90831,-100,4,2,0,80,0,0
92216,-133.333333333333,4,2,0,70,0,0
92908,-71.4285714285714,4,2,0,70,0,0
93601,-100,4,2,0,70,0,0
107677,-71.4285714285714,4,2,0,75,0,0
108370,-90.9090909090909,4,2,0,75,0,0
114601,-76.9230769230769,4,2,0,75,0,0
115754,-90.9090909090909,4,2,0,75,0,0
120370,-83.3333333333333,4,2,0,75,0,0
120831,-100,4,2,0,75,0,0
121062,-90.9090909090909,4,2,0,75,0,0
121293,-71.4285714285714,4,2,0,75,0,0
121985,-100,4,2,0,75,0,0
122447,-66.6666666666667,4,2,0,80,0,0
122908,-71.4285714285714,4,2,0,80,0,0
124524,-76.9230769230769,4,2,0,80,0,0
126139,-71.4285714285714,4,2,0,80,0,0
129831,-66.6666666666667,4,2,0,80,0,0
130293,-76.9230769230769,4,2,0,80,0,0
137216,-66.6666666666667,4,2,0,80,0,0
137908,-76.9230769230769,4,2,0,80,0,0
142524,-66.6666666666667,4,2,0,80,0,0
142985,-71.4285714285714,4,2,0,80,0,0
145293,-76.9230769230769,4,2,0,80,0,0
150139,-66.6666666666667,4,2,0,80,0,0
151985,-66.6666666666667,4,2,0,85,0,1
152331,-76.9230769230769,4,2,0,85,0,1
166754,-66.6666666666667,4,2,0,80,0,0
167216,-83.3333333333333,4,2,0,70,0,0
181524,-83.3333333333333,4,2,0,85,0,0
181985,-71.4285714285714,4,2,0,85,0,0
183601,-83.3333333333333,4,2,0,80,0,0
185216,-83.3333333333333,4,2,0,85,0,0
185677,-71.4285714285714,4,2,0,85,0,0
187062,-83.3333333333333,4,2,0,80,0,0
194447,-100,4,2,0,70,0,0
211062,-66.6666666666667,4,2,0,80,0,0
211524,-71.4285714285714,4,2,0,80,0,0
214754,-76.9230769230769,4,2,0,80,0,0
218447,-71.4285714285714,4,2,0,80,0,0
222139,-76.9230769230769,4,2,0,80,0,0
222601,-71.4285714285714,4,2,0,80,0,0
223524,-76.9230769230769,4,2,0,80,0,0
225831,-66.6666666666667,4,2,0,85,0,0
226293,-76.9230769230769,4,2,0,85,0,0
233216,-66.6666666666667,4,2,0,80,0,0
233677,-71.4285714285714,4,2,0,80,0,0
236908,-71.4285714285714,4,2,0,85,0,0
240601,-66.6666666666667,4,2,0,80,0,1
241062,-76.9230769230769,4,2,0,80,0,1
244062,-76.9230769230769,4,2,0,85,0,1
247985,-76.9230769230769,4,2,0,80,0,1
251447,-76.9230769230769,4,2,0,85,0,1
255370,-66.6666666666667,4,2,0,85,0,1
256293,-71.4285714285714,4,2,0,85,0,1
258601,-76.9230769230769,4,2,0,85,0,1
259062,-71.4285714285714,4,2,0,85,0,1
260677,-66.6666666666667,4,2,0,85,0,1
261601,-76.9230769230769,4,2,0,85,0,1
262754,-71.4285714285714,4,2,0,85,0,1
266447,-71.4285714285714,4,2,0,85,0,1
269447,-83.3333333333333,4,2,0,85,0,1
270139,-83.3333333333333,4,2,0,75,0,0
270831,-133.333333333333,4,2,0,70,0,0
284447,-200,4,2,0,65,0,0
284908,-200,4,2,0,85,0,0

[Colours]
Combo1 : 241,250,190
Combo2 : 163,252,225
Combo3 : 141,241,184

[HitObjects]
39,87,601,5,4,0:3:0:0:
120,293,831,5,0,0:0:0:0:
37,230,1062,1,4,0:3:0:0:
162,149,1293,1,0,0:0:0:0:
54,63,1524,2,0,L|75:163,2,90,4|0|4,0:3|0:0|0:3,0:0:0:0:
169,7,2216,5,0,0:0:0:0:
230,74,2447,2,0,P|284:75|318:47,1,90,6|0,0:3|0:0,0:0:0:0:
425,19,2908,1,4,0:3:0:0:
425,19,3139,2,0,P|448:21|466:39,1,45,0|0,3:0|3:0,0:0:0:0:
482,64,3370,2,0,L|458:169,2,90,4|0|4,0:3|0:0|0:3,0:0:0:0:
382,230,4062,5,2,0:0:0:0:
382,230,4177,1,2,0:0:0:0:
382,230,4293,2,0,P|422:237|445:296,1,90,6|0,0:3|0:0,0:0:0:0:
375,374,4754,1,4,0:3:0:0:
375,374,4985,2,0,L|321:365,1,45,0|0,3:0|3:0,0:0:0:0:
301,348,5216,6,0,L|284:243,1,90,4|0,0:3|0:0,0:0:0:0:
181,239,5677,1,4,0:3:0:0:
169,164,5908,1,0,0:0:0:0:
241,58,6139,6,0,L|348:79,1,90,6|0,0:3|0:0,0:0:0:0:
368,170,6601,1,6,0:3:0:0:
333,99,6831,1,2,0:0:0:0:
306,259,7062,5,6,0:3:0:0:
454,206,7293,1,2,0:0:0:0:
333,99,7524,1,6,0:3:0:0:
195,161,7754,1,2,0:0:0:0:
195,161,7985,6,0,P|148:186|97:162,1,90,4|0,0:3|0:0,0:0:0:0:
18,73,8447,2,0,P|61:65|104:97,1,90,4|0,0:3|0:0,0:0:0:0:
174,133,8908,1,4,0:3:0:0:
85,216,9139,1,2,0:0:0:0:
85,216,9254,1,2,0:0:0:0:
85,216,9370,1,6,0:3:0:0:
0,181,9601,5,0,0:0:0:0:
70,306,9831,2,0,L|180:279,2,90,6|0|4,0:3|0:0|0:3,0:0:0:0:
4,367,10524,5,0,0:0:0:0:
93,324,10754,2,0,P|142:338|157:374,1,90,6|0,0:3|0:0,0:0:0:0:
251,301,11216,2,0,P|282:313|329:275,1,90,6|0,0:3|0:0,0:0:0:0:
426,203,11677,1,6,0:3:0:0:
426,203,11793,1,2,0:0:0:0:
426,203,11908,1,2,0:0:0:0:
500,278,12139,6,0,L|473:377,1,90,4|0,0:3|0:0,0:0:0:0:
331,257,12601,1,4,0:3:0:0:
365,358,12831,1,2,0:0:0:0:
365,358,12947,1,2,0:0:0:0:
365,358,13062,1,6,0:3:0:0:
475,281,13293,6,0,B|457:269|457:269|442:196,2,90,4|0|0,1:2|0:0|3:0,0:0:0:0:
504,94,13985,2,0,L|465:101,1,33.7500012874604,0|0,3:0|0:0,0:0:0:0:
389,117,14216,1,0,3:0:0:0:
302,41,14447,6,0,P|270:74|214:66,1,101.250003862381,6|0,0:3|0:0,0:0:0:0:
95,19,14908,1,2,0:1:0:0:
123,368,15370,6,0,B|135:287|171:319|185:231,1,148.50000453186,6|0,0:0|0:0,0:0:0:0:
124,182,15831,1,4,0:3:0:0:
203,108,16062,1,2,0:0:0:0:
113,16,16293,1,4,0:3:0:0:
113,16,16524,1,2,0:0:0:0:
69,121,16754,6,0,L|17:130,1,49.5000015106202,4|0,0:3|0:0,0:0:0:0:
0,95,16985,2,0,L|101:111,1,99.0000030212403,2|4,0:0|0:3,0:0:0:0:
204,73,17447,1,2,0:0:0:0:
204,73,17562,1,2,0:0:0:0:
204,73,17677,1,6,0:3:0:0:
283,142,17908,2,0,P|256:161|249:231,1,99.0000030212403,2|4,0:0|0:3,0:0:0:0:
261,244,18254,5,0,3:0:0:0:
261,243,18370,1,0,3:0:0:0:
341,336,18601,2,0,L|236:361,1,99.0000030212403,6|0,0:3|0:0,0:0:0:0:
147,285,19062,1,6,0:3:0:0:
71,375,19293,5,0,3:0:0:0:
71,375,19408,1,0,3:0:0:0:
71,375,19524,2,0,P|65:346|40:328,1,49.5000015106202,2|0,0:0|0:0,0:0:0:0:
18,332,19754,2,0,P|4:314|12:274,1,49.5000015106202,2|0,0:0|0:0,0:0:0:0:
54,206,19985,1,6,0:3:0:0:
54,206,20216,5,2,0:0:0:0:
143,218,20447,1,6,0:3:0:0:
25,119,20677,1,2,0:0:0:0:
83,196,20908,6,0,P|112:178|111:101,1,99.0000030212403,4|0,0:3|0:0,0:0:0:0:
41,23,21254,1,0,3:0:0:0:
20,46,21370,2,0,P|38:76|104:89,1,99.0000030212403,4|0,0:3|0:0,0:0:0:0:
329,29,21831,5,6,0:3:0:0:
219,10,22062,1,2,0:0:0:0:
381,140,22293,2,0,P|390:111|410:92,1,49.5000015106202,2|0,1:2|0:0,0:0:0:0:
433,94,22524,2,0,P|455:79|486:76,1,49.5000015106202,2|0,0:0|0:0,0:0:0:0:
472,252,22754,6,0,L|334:224,1,99.0000030212403,6|0,0:3|0:0,0:0:0:0:
235,291,23216,1,4,0:3:0:0:
183,226,23447,2,0,L|208:119,1,99.0000030212403,2|4,0:0|0:3,0:0:0:0:
297,69,23908,5,2,0:0:0:0:
297,69,24024,1,2,0:0:0:0:
297,69,24139,2,0,P|276:44|249:36,1,49.5000015106202,6|0,0:3|0:0,0:0:0:0:
237,15,24370,2,0,P|211:12|176:30,1,49.5000015106202,2|0,0:0|0:0,0:0:0:0:
117,90,24601,1,6,0:3:0:0:
117,90,24831,5,0,0:0:0:0:
8,112,25062,2,0,P|24:127|38:163,1,49.5000015106202,4|0,0:3|0:0,0:0:0:0:
66,169,25293,2,0,P|68:194|45:230,1,49.5000015106202,2|0,0:0|0:0,0:0:0:0:
0,326,25524,6,0,L|118:304,1,99.0000030212403,6|0,0:3|0:0,0:0:0:0:
199,370,25870,1,2,0:0:0:0:
227,378,25985,2,0,P|264:355|223:251,1,148.50000453186,6|0,0:3|0:0,0:0:0:0:
222,259,26447,6,0,L|93:287,1,99.0000030212403,6|0,0:3|0:0,0:0:0:0:
9,224,26908,1,6,0:3:0:0:
64,359,27139,2,0,P|99:325|81:272,1,99.0000030212403,2|4,0:0|0:3,0:0:0:0:
167,176,27601,2,0,P|164:129|222:96,1,99.0000030212403,2|4,0:0|0:3,0:0:0:0:
410,352,28062,6,0,P|341:346|246:312,1,161.999995056153,6|0,1:2|0:0,0:0:0:0:
230,290,28524,2,0,P|208:297|181:322,1,45,2|0,3:2|0:0,0:0:0:0:
326,216,28754,2,0,P|304:205|269:206,1,49.5000015106202,2|0,3:2|0:0,0:0:0:0:
510,250,28985,2,0,P|489:205|417:172,1,125.999996154785,2|4,0:0|0:3,0:0:0:0:
230,290,29447,1,2,0:0:0:0:
72,280,29677,6,0,P|51:279|27:264,1,45,2|0,0:1|0:0,0:0:0:0:
3,275,30139,6,0,P|61:222|175:245,1,202.500007724762,6|0,0:0|0:0,0:0:0:0:
171,264,30601,2,0,P|150:317|185:361,1,116.999994644165,2|0,1:2|0:0,0:0:0:0:
331,376,30947,1,0,3:0:0:0:
385,330,31062,2,0,P|402:274|364:230,1,116.999994644165,6|0,0:3|0:0,0:0:0:0:
303,84,31524,6,0,P|296:108|274:134,1,53.9999983520508,2|0,1:2|0:0,0:0:0:0:
212,175,31754,2,0,P|227:195|235:238,1,53.9999983520508,2|0,0:0|0:0,0:0:0:0:
257,308,31985,1,6,0:3:0:0:
257,308,32101,1,2,0:0:0:0:
231,327,32216,6,0,P|206:317|164:315,1,53.9999983520508,2|0,0:0|0:0,0:0:0:0:
58,369,32447,2,0,P|29:360|-6:356,1,53.9999983520508,2|0,1:2|0:0,0:0:0:0:
65,169,32677,2,0,P|80:228|89:291,1,107.999996704102,2|4,0:0|0:3,0:0:0:0:
152,61,33139,5,2,0:0:0:0:
12,105,33370,1,2,1:2:0:0:
12,105,33485,1,2,0:0:0:0:
12,105,33601,1,2,0:0:0:0:
142,160,33831,6,0,P|115:150|75:144,1,58.4999973220826,6|0,0:3|0:0,0:0:0:0:
7,8,34062,2,0,P|40:16|76:29,1,58.4999973220826,2|0,0:0|0:0,0:0:0:0:
206,19,34293,6,0,P|197:47|190:78,1,58.4999973220826,2|0,1:2|0:0,0:0:0:0:
264,96,34524,2,0,P|272:68|280:35,1,58.4999973220826,2|0,0:0|0:0,0:0:0:0:
319,172,34754,6,0,P|365:206|422:195,1,116.999994644165,6|0,0:3|0:0,0:0:0:0:
510,118,35101,1,2,0:0:0:0:
449,80,35216,2,0,P|401:124|426:191,1,116.999994644165,2|0,1:2|0:0,0:0:0:0:
511,255,35562,5,2,0:0:0:0:
474,316,35677,2,0,B|451:329|451:329|355:302,1,116.999994644165,6|2,0:3|0:0,0:0:0:0:
262,369,36024,5,6,0:3:0:0:
262,369,36139,2,0,P|239:344|245:311,1,58.4999973220826,2|0,0:0|0:0,0:0:0:0:
335,227,36370,1,6,1:2:0:0:
169,180,36601,6,0,P|229:188|253:235,1,116.999994644165,2|0,0:0|1:0,0:0:0:0:
156,331,36947,1,2,0:0:0:0:
103,277,37062,2,0,B|35:292|66:314|-3:327,1,116.999994644165,6|0,0:3|0:0,0:0:0:0:
6,23,37524,5,6,0:3:0:0:
145,82,37754,1,2,0:0:0:0:
145,82,37870,1,2,0:0:0:0:
117,85,37985,6,0,P|101:107|98:142,1,58.4999973220826,2|0,1:2|0:0,0:0:0:0:
13,168,38216,2,0,P|22:190|60:206,1,58.4999973220826,2|0,0:0|0:0,0:0:0:0:
224,343,38447,2,0,P|226:319|190:277,1,58.4999973220826,6|0,0:3|0:0,0:0:0:0:
153,211,38677,1,2,0:0:0:0:
153,211,38908,6,0,L|224:196,1,58.4999973220826,2|0,1:2|0:0,0:0:0:0:
345,106,39139,2,0,L|221:81,1,116.999994644165,2|6,0:0|0:3,0:0:0:0:
147,21,39485,1,2,0:0:0:0:
116,33,39600,2,0,P|97:56|109:91,1,58.4999973220826,2|2,0:0|0:0,0:0:0:0:
153,211,39831,2,0,P|174:190|169:152,1,58.4999973220826,2|0,1:2|0:0,0:0:0:0:
1,255,40062,2,0,P|60:263|102:322,1,116.999994644165,2|6,0:0|0:3,0:0:0:0:
278,274,40524,6,0,L|269:331,1,58.4999973220826,2|0,0:0|0:0,0:0:0:0:
256,364,40754,2,0,L|236:246,1,116.999994644165,2|0,1:2|0:0,0:0:0:0:
183,151,41101,1,0,3:0:0:0:
207,137,41216,2,0,P|235:137|260:163,1,58.4999973220826,6|0,0:3|0:0,0:0:0:0:
348,209,41447,2,0,P|381:196|391:166,1,58.4999973220826,2|0,0:0|0:0,0:0:0:0:
509,273,41677,2,0,L|389:296,1,116.999994644165,2|0,1:2|0:0,0:0:0:0:
448,371,42024,5,2,0:0:0:0:
448,371,42139,1,6,0:3:0:0:
248,326,42370,1,2,0:0:0:0:
248,326,42485,1,2,0:0:0:0:
248,326,42601,1,2,1:2:0:0:
196,251,42831,6,0,L|223:135,1,116.999994644165,2|4,0:0|0:3,0:0:0:0:
345,61,43177,1,2,0:0:0:0:
285,17,43293,2,0,P|238:6|187:56,1,116.999994644165,2|0,0:3|0:0,0:0:0:0:
35,182,43754,6,0,L|18:117,1,58.4999973220826,2|0,1:2|0:0,0:0:0:0:
47,44,43985,1,2,0:0:0:0:
230,337,44216,6,0,L|244:279,1,58.4999973220826,2|0,1:2|0:0,0:0:0:0:
126,136,44447,1,6,0:3:0:0:
154,247,44677,1,2,0:0:0:0:
388,143,44908,6,0,B|371:204|371:204|217:170,1,202.500007724762,6|0,0:0|0:0,0:0:0:0:
225,150,45370,1,0,1:2:0:0:
339,47,45601,1,2,0:0:0:0:
339,47,45716,1,2,0:0:0:0:
328,22,45831,6,0,P|354:6|387:8,1,58.4999973220826,6|0,0:3|0:0,0:0:0:0:
454,65,46062,2,0,P|479:80|489:122,1,58.4999973220826,2|0,0:0|0:0,0:0:0:0:
490,236,46293,6,0,P|464:215|455:174,1,58.4999973220826,2|0,1:2|0:0,0:0:0:0:
317,178,46524,2,0,P|339:152|371:147,1,58.4999973220826,2|0,0:0|0:0,0:0:0:0:
493,273,46754,6,0,P|403:283|365:376,1,188.999994232178,6|0,0:3|0:0,0:0:0:0:
384,377,47216,1,2,1:2:0:0:
246,291,47447,6,0,L|235:231,1,58.4999973220826,2|0,0:0|0:0,0:0:0:0:
273,207,47677,2,0,L|253:343,1,116.999994644165,6|0,0:3|0:0,0:0:0:0:
114,380,48024,1,2,0:0:0:0:
50,346,48139,2,0,P|61:299|148:277,1,116.999994644165,2|0,1:2|0:0,0:0:0:0:
133,110,48486,1,2,3:2:0:0:
89,165,48601,2,0,P|28:162|9:99,1,116.999994644165,6|0,0:3|0:0,0:0:0:0:
242,33,49062,6,0,L|216:161,2,116.999994644165,2|2|4,1:2|0:0|0:3,0:0:0:0:
98,9,49754,2,0,L|114:83,1,58.4999973220826,2|4,0:0|0:3,0:0:0:0:
18,228,49985,1,2,1:2:0:0:
18,228,50216,6,0,B|97:202|74:254|168:227,1,135.000005149842,6|0,0:0|0:0,0:0:0:0:
206,169,50562,1,2,0:0:0:0:
206,169,50677,2,0,P|211:138|232:116,1,58.4999973220826,2|4,0:0|0:3,0:0:0:0:
307,135,50908,2,0,P|333:119|379:126,1,58.4999973220826,2|0,0:0|0:0,0:0:0:0:
498,190,51139,1,2,1:2:0:0:
498,190,51370,5,2,0:0:0:0:
453,73,51601,1,2,1:2:0:0:
373,234,51831,6,0,L|434:245,1,58.4999973220826,6|0,0:3|0:0,0:0:0:0:
497,360,52062,2,0,L|425:371,1,58.4999973220826,2|0,0:0|0:0,0:0:0:0:
217,356,52293,2,0,P|274:374|292:281,1,175.499991966248,6|0,0:3|0:0,0:0:0:0:
276,264,52754,2,0,L|193:251,1,58.4999973220826,2|0,1:2|0:0,0:0:0:0:
11,293,52985,5,2,0:0:0:0:
11,293,53101,1,2,0:0:0:0:
11,293,53216,2,0,P|6:322|33:352,1,58.4999973220826,6|0,0:3|0:0,0:0:0:0:
100,357,53447,2,0,P|124:337|130:307,1,58.4999973220826,2|0,0:0|0:0,0:0:0:0:
112,155,53677,1,2,1:2:0:0:
112,155,53908,6,0,L|97:220,1,58.4999973220826,2|0,0:0|0:0,0:0:0:0:
82,238,54139,2,0,L|68:119,1,116.999994644165,6|0,0:3|0:0,0:0:0:0:
14,27,54485,1,2,0:0:0:0:
82,7,54601,2,0,P|134:18|115:102,2,116.999994644165,2|0|4,1:2|0:0|0:3,0:0:0:0:
320,192,55293,5,2,0:0:0:0:
177,232,55524,1,6,0:3:0:0:
262,81,55754,1,0,3:0:0:0:
262,81,55870,1,0,3:0:0:0:
262,81,55985,2,0,P|294:63|301:25,1,58.4999973220826,6|0,0:3|0:0,0:0:0:0:
450,23,56216,2,0,P|421:43|412:69,1,58.4999973220826,2|0,0:0|0:0,0:0:0:0:
497,194,56447,2,0,P|496:165|477:139,1,58.4999973220826,2|0,1:2|0:0,0:0:0:0:
320,174,56677,5,2,0:0:0:0:
320,174,56793,1,2,0:0:0:0:
320,174,56908,2,0,L|332:240,1,58.4999973220826,6|0,0:3|0:0,0:0:0:0:
414,269,57139,2,0,L|429:342,1,58.4999973220826,2|0,0:0|0:0,0:0:0:0:
152,359,57370,6,0,B|180:309|180:309|306:341,1,175.499991966248,2|0,1:2|0:0,0:0:0:0:
302,364,57831,2,0,P|258:347|262:268,1,116.999994644165,6|0,0:3|0:0,0:0:0:0:
308,193,58177,1,6,0:3:0:0:
377,210,58293,2,0,P|391:186|386:147,1,58.4999973220826,2|0,0:0|0:0,0:0:0:0:
281,48,58524,1,2,1:2:0:0:
281,48,58754,5,2,0:0:0:0:
236,57,58870,1,2,0:0:0:0:
210,28,58985,1,0,1:2:0:0:
121,111,59216,1,6,0:3:0:0:
16,69,59447,1,2,0:0:0:0:
16,69,59677,6,0,P|68:81|93:156,1,135.000005149842,6|0,0:0|0:0,0:0:0:0:
1,247,60024,1,2,0:0:0:0:
5,260,60139,2,0,L|79:282,1,58.4999973220826,2|0,1:2|0:0,0:0:0:0:
107,342,60370,2,0,L|198:322,1,58.4999973220826,2|0,0:0|0:0,0:0:0:0:
241,279,60601,5,6,0:3:0:0:
243,265,60716,1,2,0:0:0:0:
171,172,60947,1,2,0:0:0:0:
174,157,61062,1,2,1:2:0:0:
146,305,61293,1,2,0:0:0:0:
143,319,61408,1,2,0:0:0:0:
140,332,61524,2,0,L|47:355,1,58.4999973220826,6|0,0:3|0:0,0:0:0:0:
11,267,61755,5,2,0:0:0:0:
13,253,61870,1,2,0:0:0:0:
16,237,61986,2,0,B|21:221|21:221|67:210,1,58.4999973220826,2|0,1:2|0:0,0:0:0:0:
143,234,62216,2,0,B|159:231|159:231|182:179,1,58.4999973220826,2|0,0:0|0:0,0:0:0:0:
111,100,62447,1,6,0:3:0:0:
108,85,62562,1,2,0:0:0:0:
235,37,62793,1,2,0:0:0:0:
233,53,62908,1,0,1:2:0:0:
431,195,63139,5,2,0:0:0:0:
392,205,63254,1,2,0:0:0:0:
350,214,63370,2,0,P|323:198|272:202,1,58.4999973220826,6|0,0:3|0:0,0:0:0:0:
342,21,63601,2,0,P|370:35|405:36,1,58.4999973220826,2|0,0:0|0:0,0:0:0:0:
501,96,63831,5,2,1:2:0:0:
465,105,63947,1,2,0:0:0:0:
428,115,64062,1,2,0:0:0:0:
356,233,64293,1,6,0:3:0:0:
389,241,64408,1,2,0:0:0:0:
486,358,64639,1,2,0:0:0:0:
447,371,64754,2,0,P|427:369|401:338,1,58.4999973220826,2|0,1:2|0:0,0:0:0:0:
479,269,64985,2,0,P|498:252|496:211,1,58.4999973220826,2|0,0:0|0:0,0:0:0:0:
438,120,65216,1,6,0:3:0:0:
368,228,65447,5,2,0:0:0:0:
327,220,65562,1,4,0:3:0:0:
285,210,65677,1,2,0:0:0:0:
58,83,65908,2,0,B|42:59|42:59|44:29,1,58.4999973220826,2|0,1:2|0:0,0:0:0:0:
120,8,66139,2,0,B|136:28|136:28|136:60,1,58.4999973220826,2|0,0:0|0:0,0:0:0:0:
19,241,66370,1,0,3:0:0:0:
200,189,66601,5,6,0:3:0:0:
212,151,66716,1,2,0:0:0:0:
173,141,66831,1,2,0:0:0:0:
164,178,66947,1,2,0:0:0:0:
104,242,67062,6,0,L|21:215,1,58.4999973220826,6|0,0:3|0:0,0:0:0:0:
14,360,67293,2,0,L|78:345,1,58.4999973220826,2|0,0:0|0:0,0:0:0:0:
283,342,67524,2,0,P|282:313|269:287,1,58.4999973220826,2|0,1:2|0:0,0:0:0:0:
193,305,67754,2,0,P|192:336|206:361,1,58.4999973220826,2|0,0:0|0:0,0:0:0:0:
267,182,67985,5,6,0:3:0:0:
273,166,68100,1,2,0:0:0:0:
374,244,68331,1,2,0:0:0:0:
368,260,68447,2,0,L|294:280,1,58.4999973220826,2|0,1:2|0:0,0:0:0:0:
446,378,68677,2,0,L|463:309,1,58.4999973220826,2|0,0:0|0:0,0:0:0:0:
512,264,68908,1,6,0:3:0:0:
480,127,69139,5,2,0:0:0:0:
477,140,69255,1,2,0:0:0:0:
475,152,69370,2,0,B|470:164|470:164|410:176,1,58.4999973220826,2|0,1:2|0:0,0:0:0:0:
367,111,69601,2,0,L|283:97,1,58.4999973220826,2|0,0:0|0:0,0:0:0:0:
194,148,69831,5,6,0:3:0:0:
190,132,69947,1,2,0:0:0:0:
98,61,70177,1,2,0:0:0:0:
94,76,70293,1,2,1:2:0:0:
0,245,70524,5,2,3:2:0:0:
39,254,70639,1,2,3:2:0:0:
77,263,70754,2,0,P|106:253|139:247,1,58.4999973220826,6|0,0:3|0:0,0:0:0:0:
228,360,70985,1,2,0:0:0:0:
272,349,71101,1,2,0:0:0:0:
315,339,71216,2,0,B|338:316|338:316|334:274,1,58.4999973220826,2|0,1:2|0:0,0:0:0:0:
283,203,71447,2,0,L|213:186,1,58.4999973220826,2|0,0:0|0:0,0:0:0:0:
234,29,71677,5,6,0:3:0:0:
199,27,71793,2,0,P|172:46|181:101,1,58.4999973220826,2|0,0:0|0:0,0:0:0:0:
124,197,72024,1,2,0:0:0:0:
153,218,72139,2,0,P|184:217|219:186,1,58.4999973220826,2|0,1:2|0:0,0:0:0:0:
297,110,72370,1,2,0:0:0:0:
297,110,72601,6,0,L|370:122,1,58.4999973220826,6|0,0:3|0:0,0:0:0:0:
432,219,72831,1,2,0:0:0:0:
497,189,72947,2,0,L|512:119,1,58.4999973220826,6|0,0:3|0:0,0:0:0:0:
459,32,73177,1,2,0:0:0:0:
437,39,73293,1,2,1:2:0:0:
360,289,73524,5,2,0:2:0:0:
405,302,73639,1,2,0:2:0:0:
433,262,73754,1,2,3:2:0:0:
404,224,73870,1,2,0:2:0:0:
357,240,73985,5,6,0:3:0:0:
433,262,74216,1,2,0:0:0:0:
255,368,74447,6,0,P|197:348|218:261,1,135.000005149842,6|0,0:0|0:0,0:0:0:0:
288,220,74793,1,2,0:0:0:0:
319,229,74908,2,0,P|335:206|323:151,1,58.4999973220826,2|0,1:2|0:0,0:0:0:0:
283,51,75139,6,0,L|215:35,1,58.4999973220826,2|0,0:0|0:0,0:0:0:0:
137,114,75370,1,6,0:3:0:0:
146,152,75486,1,2,0:0:0:0:
319,229,75716,1,2,0:0:0:0:
311,263,75832,1,2,1:2:0:0:
113,363,76062,1,2,0:0:0:0:
120,321,76177,1,2,0:0:0:0:
158,296,76293,2,0,P|181:293|217:308,1,58.4999973220826,6|0,0:3|0:0,0:0:0:0:
78,369,76524,5,2,0:0:0:0:
35,353,76639,1,2,0:0:0:0:
31,310,76754,1,2,1:2:0:0:
104,218,76985,2,0,B|111:209|111:209|99:160,1,58.4999973220826,2|0,0:0|0:0,0:0:0:0:
26,116,77216,5,6,0:3:0:0:
24,124,77293,5,2,0:0:0:0:
21,131,77370,5,2,0:0:0:0:
19,139,77447,5,2,0:0:0:0:
222,223,77677,5,2,1:2:0:0:
228,200,77793,1,2,0:0:0:0:
203,169,77908,1,2,0:0:0:0:
211,143,78024,1,2,3:2:0:0:
271,84,78139,6,0,B|284:89|284:89|300:140,1,58.4999973220826,6|0,0:3|0:0,0:0:0:0:
459,170,78370,1,2,0:0:0:0:
418,179,78485,1,2,0:0:0:0:
373,190,78601,2,0,L|358:255,1,58.4999973220826,2|0,1:2|0:0,0:0:0:0:
422,376,78831,2,0,L|435:319,1,58.4999973220826,2|0,0:0|0:0,0:0:0:0:
512,236,79062,5,6,0:3:0:0:
504,271,79177,1,2,0:0:0:0:
403,97,79408,1,2,0:0:0:0:
411,62,79524,2,0,P|419:48|463:32,1,58.4999973220826,2|0,1:2|0:0,0:0:0:0:
163,122,79754,6,0,B|246:132|202:162|277:169,1,125.999996154785,6|0,0:0|0:0,0:0:0:0:
298,34,80216,1,2,0:0:0:0:
290,67,80331,1,6,0:3:0:0:
102,172,80562,1,2,0:0:0:0:
111,210,80677,1,2,1:2:0:0:
316,301,80908,1,2,0:0:0:0:
308,336,81024,1,2,0:0:0:0:
242,377,81139,6,0,L|229:322,1,53.9999983520508,2|0,1:2|0:0,0:0:0:0:
226,171,81370,5,6,0:3:0:0:
262,177,81485,1,2,0:0:0:0:
254,214,81601,1,2,0:0:0:0:
219,208,81716,1,2,0:0:0:0:
155,126,81831,6,0,P|127:153|29:140,1,125.999996154785,6|0,0:3|0:0,0:0:0:0:
110,31,82177,1,2,0:0:0:0:
91,25,82293,2,0,P|57:34|36:64,1,58.4999973220826,2|0,1:2|0:0,0:0:0:0:
17,171,82524,2,0,P|50:178|79:217,1,58.4999973220826,2|0,0:0|0:0,0:0:0:0:
122,274,82754,5,6,0:3:0:0:
104,280,82870,1,2,0:0:0:0:
28,358,83101,1,2,0:0:0:0:
44,363,83216,1,0,1:2:0:0:
192,336,83447,5,2,0:0:0:0:
196,352,83562,1,2,0:0:0:0:
200,368,83677,2,0,L|271:383,1,58.4999973220826,6|0,0:3|0:0,0:0:0:0:
409,277,83908,1,2,0:0:0:0:
406,291,84024,1,2,0:0:0:0:
403,305,84139,2,0,L|346:323,1,58.4999973220826,2|0,1:2|0:0,0:0:0:0:
286,239,84370,6,0,B|272:226|272:226|292:151,1,58.4999973220826,2|0,0:0|0:0,0:0:0:0:
376,138,84601,1,6,0:3:0:0:
373,124,84716,1,2,0:0:0:0:
131,46,84947,5,2,0:0:0:0:
138,24,85062,1,0,1:2:0:0:
168,7,85177,1,2,0:0:0:0:
215,11,85293,1,2,0:0:0:0:
244,39,85408,1,2,3:2:0:0:
284,57,85524,2,0,P|317:47|348:31,1,58.4999973220826,6|0,0:3|0:0,0:0:0:0:
490,116,85754,5,2,0:0:0:0:
455,142,85870,1,2,0:0:0:0:
461,183,85985,2,0,P|476:208|473:247,1,58.4999973220826,2|0,1:2|0:0,0:0:0:0:
414,305,86216,2,0,P|380:306|348:276,1,58.4999973220826,2|0,0:0|0:0,0:0:0:0:
268,153,86447,5,6,0:3:0:0:
303,145,86562,1,2,0:0:0:0:
415,288,86792,1,2,0:0:0:0:
371,279,86908,1,2,1:2:0:0:
215,373,87139,1,2,0:0:0:0:
224,335,87255,1,2,0:0:0:0:
233,293,87370,1,6,0:3:0:0:
327,166,87601,5,2,0:0:0:0:
346,198,87716,1,6,0:3:0:0:
427,55,87947,1,2,0:0:0:0:
460,66,88062,2,0,B|471:69|471:69|496:132,1,58.4999973220826,2|0,1:2|0:0,0:0:0:0:
434,298,88293,5,2,0:2:0:0:
477,313,88408,1,2,0:2:0:0:
507,275,88523,1,2,3:2:0:0:
480,236,88639,1,2,0:2:0:0:
433,248,88754,5,6,0:3:0:0:
507,275,88985,1,2,0:0:0:0:
296,374,89216,6,0,P|254:320|127:323,1,175.499991966248,6|0,0:0|0:0,0:0:0:0:
141,333,89677,2,0,L|70:347,1,45,0|0,3:0|3:0,0:0:0:0:
6,134,89908,6,0,P|83:127|145:211,1,161.999995056153,6|0,0:3|0:0,0:0:0:0:
125,206,90370,1,0,3:0:0:0:
125,206,90485,1,2,3:2:0:0:
53,236,90601,1,8,3:0:0:0:
53,236,90716,1,0,1:0:0:0:
0,176,90831,6,0,B|30:71|50:120|80:12,1,180,6|0,0:0|0:0,0:0:0:0:
62,10,91754,5,0,3:0:0:0:
49,16,92216,6,0,L|35:50,1,33.7500012874604,0|0,3:0|0:0,0:0:0:0:
72,114,92447,1,0,3:0:0:0:
72,114,92562,1,0,3:0:0:0:
72,114,92677,1,8,3:0:0:0:
0,164,92908,6,0,L|198:126,1,188.999994232178,6|0,0:0|0:0,0:0:0:0:
164,154,93370,1,0,0:0:0:0:
214,30,93601,2,0,P|229:28|276:91,1,90,2|0,0:0|0:0,0:0:0:0:
339,140,94062,2,0,B|287:153|316:172|256:192,1,90,2|0,0:0|0:0,0:0:0:0:
160,151,94524,5,2,0:0:0:0:
275,213,94754,1,2,0:0:0:0:
163,119,94985,1,2,0:0:0:0:
257,241,95216,1,2,0:0:0:0:
257,87,95447,6,0,P|270:46|297:-6,1,90,2|0,0:0|0:0,0:0:0:0:
364,132,95908,2,0,B|380:149|377:177|377:177|353:159|324:161,1,90,2|0,0:0|0:0,0:0:0:0:
146,207,96370,1,0,0:0:0:0:
146,207,96601,5,2,0:0:0:0:
82,129,96831,1,2,0:0:0:0:
227,189,97062,1,2,0:0:0:0:
74,285,97293,2,0,P|59:247|22:195,1,90,2|0,0:0|0:0,0:0:0:0:
9,334,97754,5,2,0:0:0:0:
104,302,97985,1,2,0:0:0:0:
46,182,98216,2,0,P|56:146|111:73,1,90,2|0,0:0|0:0,0:0:0:0:
71,71,98562,5,2,0:0:0:0:
71,71,98678,1,2,0:0:0:0:
238,140,98908,2,0,L|293:123,1,45,2|0,1:2|0:0,0:0:0:0:
349,169,99139,2,0,L|371:116,1,45,2|0,3:2|0:0,0:0:0:0:
450,118,99370,6,0,L|426:46,1,45,6|0,0:3|0:0,0:0:0:0:
455,42,99601,2,0,L|478:113,1,45,2|0,0:0|0:0,0:0:0:0:
427,228,99831,6,0,P|451:216|486:219,1,45,2|0,0:0|0:0,0:0:0:0:
494,239,100062,2,0,P|474:249|446:249,1,45,2|0,0:0|0:0,0:0:0:0:
267,133,100293,6,0,B|288:154|322:160|322:160|296:171|282:190,1,90,6|0,0:3|0:0,0:0:0:0:
142,322,100754,2,0,P|178:267|242:264,1,135,6|0,0:3|0:0,0:0:0:0:
223,241,101216,1,4,0:3:0:0:
281,338,101447,1,2,0:0:0:0:
383,281,101677,1,4,0:3:0:0:
492,380,101908,1,2,0:0:0:0:
492,380,102139,6,0,L|473:283,1,90,6|0,0:3|0:0,0:0:0:0:
355,156,102601,1,4,0:3:0:0:
327,274,102831,2,0,P|355:241|401:239,1,90,2|4,0:0|0:3,0:0:0:0:
510,165,103293,2,0,P|463:161|430:100,1,90,2|4,0:0|0:3,0:0:0:0:
486,13,103754,5,2,0:0:0:0:
486,13,103870,1,2,0:0:0:0:
486,13,103985,1,6,0:3:0:0:
400,55,104216,1,2,0:0:0:0:
510,166,104447,1,4,0:3:0:0:
510,166,104677,2,0,P|479:145|396:140,1,90,2|4,0:0|0:3,0:0:0:0:
322,192,105139,5,2,0:0:0:0:
273,87,105370,1,4,0:3:0:0:
431,237,105601,2,0,P|417:256|389:385,1,135,6|0,1:2|0:0,0:0:0:0:
366,337,106062,5,2,3:2:0:0:
399,227,106293,1,2,0:0:0:0:
498,176,106524,1,2,3:2:0:0:
498,176,106639,1,2,3:2:0:0:
498,176,106754,1,2,3:2:0:0:
271,363,107216,6,0,L|220:349,1,45,2|0,0:1|0:0,0:0:0:0:
359,257,107677,6,0,B|208:295|290:332|123:367,1,251.999992309571,6|4,0:0|0:3,0:0:0:0:
0,285,108370,2,0,B|7:265|33:255|33:255|29:284|46:308,1,99.0000030212403,2|4,0:0|0:3,0:0:0:0:
136,365,108831,6,0,P|158:353|167:316,1,49.5000015106202,2|0,0:0|0:0,0:0:0:0:
237,286,109062,2,0,P|235:256|206:226,1,49.5000015106202,4|0,0:3|0:0,0:0:0:0:
121,107,109293,2,0,P|113:203|154:266,1,148.50000453186,2|0,0:0|0:0,0:0:0:0:
105,234,109754,5,2,0:0:0:0:
264,172,109985,2,0,P|291:172|339:234,2,99.0000030212403,6|2|4,0:3|0:0|0:3,0:0:0:0:
204,110,110677,5,2,0:0:0:0:
101,137,110908,1,4,0:3:0:0:
50,28,111139,2,0,P|39:17|6:-3,1,49.5000015106202,2|0,0:0|0:0,0:0:0:0:
74,116,111370,5,6,0:3:0:0:
74,116,111485,1,2,0:0:0:0:
74,116,111601,1,2,0:0:0:0:
192,60,111831,2,0,P|215:48|244:48,1,49.5000015106202,6|0,0:3|0:0,0:0:0:0:
264,67,112062,2,0,P|317:63|375:25,1,99.0000030212403,2|4,0:0|0:3,0:0:0:0:
499,156,112524,5,2,0:0:0:0:
361,73,112754,1,4,0:3:0:0:
512,128,112985,6,0,B|423:146|470:174|363:193,1,148.50000453186,2|0,0:0|0:0,0:0:0:0:
405,205,113447,1,2,0:3:0:0:
282,79,113677,2,0,P|251:71|220:52,1,49.5000015106202,6|0,0:3|0:0,0:0:0:0:
142,164,113908,2,0,P|168:159|195:145,1,49.5000015106202,2|0,0:0|0:0,0:0:0:0:
287,198,114139,1,6,0:3:0:0:
287,198,114254,1,2,0:0:0:0:
287,198,114370,1,2,0:0:0:0:
305,366,114601,6,0,P|260:320|154:342,1,175.499991966248,2|0,1:2|0:0,0:0:0:0:
168,361,115062,1,6,0:3:0:0:
29,282,115293,1,2,0:0:0:0:
29,282,115408,1,2,0:0:0:0:
29,282,115524,1,6,0:3:0:0:
163,168,115754,6,0,L|143:237,1,49.5000015106202,2|0,0:0|0:0,0:0:0:0:
128,232,115985,1,4,0:3:0:0:
11,145,116216,6,0,P|35:156|53:177,1,49.5000015106202,2|0,0:0|0:0,0:0:0:0:
101,93,116447,2,0,P|96:68|83:44,1,49.5000015106202,6|0,0:3|0:0,0:0:0:0:
209,30,116677,2,0,P|205:57|188:87,1,49.5000015106202,2|0,0:0|0:0,0:0:0:0:
344,242,116908,6,0,P|286:224|273:136,1,148.50000453186,6|0,0:3|0:0,0:0:0:0:
242,158,117370,1,4,0:3:0:0:
358,97,117601,2,0,B|375:109|375:109|464:92,1,99.0000030212403,2|4,0:0|0:3,0:0:0:0:
326,19,118062,5,2,0:0:0:0:
473,108,118293,1,6,0:3:0:0:
473,108,118524,1,2,0:0:0:0:
476,270,118754,6,0,P|468:236|451:209,1,49.5000015106202,6|0,0:3|0:0,0:0:0:0:
390,190,118985,1,2,0:0:0:0:
390,190,119100,1,2,0:0:0:0:
390,190,119216,1,6,0:3:0:0:
246,317,119447,2,0,P|261:242|312:167,1,148.50000453186,2|0,0:0|0:0,0:0:0:0:
442,107,119908,1,2,0:0:0:0:
348,58,120139,6,0,L|330:-2,1,49.5000015106202,6|0,0:3|0:0,0:0:0:0:
50,62,120370,2,0,B|155:75|97:108|216:126,1,161.999995056153,2|0,0:0|0:0,0:0:0:0:
215,112,120831,2,0,P|233:88|233:68,1,45,2|0,3:2|0:0,0:0:0:0:
150,228,121062,2,0,P|190:222|214:198,1,49.5000015106202,2|0,3:2|0:0,0:0:0:0:
0,265,121293,2,0,P|35:302|129:302,1,125.999996154785,2|4,0:0|0:3,0:0:0:0:
272,174,121754,1,0,0:0:0:0:
246,67,121985,6,0,L|231:4,1,45,2|0,0:1|0:0,0:0:0:0:
271,0,122447,6,0,L|231:244,1,202.500007724762,6|0,0:0|0:0,0:0:0:0:
218,217,122908,2,0,B|291:231|259:261|326:274,1,125.999996154785,2|0,1:2|0:0,0:0:0:0:
494,203,123254,1,2,0:0:0:0:
455,144,123370,2,0,P|392:144|350:198,1,125.999996154785,6|0,0:3|0:0,0:0:0:0:
483,348,123831,6,0,B|488:369|488:369|433:352,1,62.9999980773926,2|0,1:2|0:0,0:0:0:0:
344,326,124062,2,0,P|371:304|352:251,1,62.9999980773926,2|0,0:0|0:0,0:0:0:0:
257,141,124293,1,6,0:3:0:0:
257,141,124408,1,2,0:0:0:0:
245,164,124524,6,0,P|217:173|179:181,1,58.4999973220826,2|0,0:0|0:0,0:0:0:0:
136,264,124754,2,0,P|110:257|70:245,1,58.4999973220826,2|0,1:2|0:0,0:0:0:0:
231,379,124985,2,0,P|248:316|269:248,1,116.999994644165,2|4,0:0|0:3,0:0:0:0:
144,106,125447,5,2,0:0:0:0:
67,215,125677,1,2,1:2:0:0:
67,215,125793,1,2,0:0:0:0:
67,215,125908,1,2,0:0:0:0:
252,289,126139,6,0,P|199:283|165:344,1,125.999996154785,6|0,0:3|0:0,0:0:0:0:
0,358,126485,1,2,0:0:0:0:
58,314,126601,2,0,P|78:252|93:165,1,125.999996154785,2|0,1:2|0:0,0:0:0:0:
232,250,127062,6,0,B|201:259|201:259|172:237,1,62.9999980773926,6|0,0:3|0:0,0:0:0:0:
274,125,127293,2,0,L|290:199,1,62.9999980773926,2|0,0:0|0:0,0:0:0:0:
130,38,127524,6,0,P|160:42|202:55,1,62.9999980773926,2|0,1:2|0:0,0:0:0:0:
175,128,127754,2,0,P|140:119|102:114,1,62.9999980773926,2|0,0:0|0:0,0:0:0:0:
7,303,127985,6,0,P|68:287|67:204,1,125.999996154785,6|0,0:3|0:0,0:0:0:0:
9,145,128331,1,6,0:3:0:0:
27,121,128447,2,0,P|77:107|131:98,1,62.9999980773926,2|0,0:0|0:0,0:0:0:0:
293,267,128677,1,2,1:2:0:0:
293,267,128908,6,0,P|260:222|315:140,1,125.999996154785,2|0,0:0|1:0,0:0:0:0:
434,186,129254,1,2,0:0:0:0:
434,186,129370,2,0,P|459:183|489:154,1,62.9999980773926,6|0,0:3|0:0,0:0:0:0:
417,39,129601,2,0,P|386:60|380:93,1,62.9999980773926,2|0,0:0|0:0,0:0:0:0:
512,311,129831,6,0,P|441:291|286:269,1,202.500007724762,6|0,0:3|0:0,0:0:0:0:
326,295,130293,2,0,P|293:302|259:314,1,58.4999973220826,2|0,1:2|0:0,0:0:0:0:
200,369,130524,6,0,P|179:363|168:318,1,58.4999973220826,2|0,0:0|0:0,0:0:0:0:
69,242,130754,2,0,P|73:213|94:193,1,58.4999973220826,6|0,0:3|0:0,0:0:0:0:
198,160,130985,1,2,0:0:0:0:
198,160,131216,6,0,L|259:174,1,58.4999973220826,2|0,1:2|0:0,0:0:0:0:
375,36,131447,2,0,L|222:69,1,116.999994644165,2|6,0:0|0:3,0:0:0:0:
180,6,131793,5,2,0:0:0:0:
155,12,131908,2,0,P|138:22|124:64,1,58.4999973220826,2|2,0:0|0:0,0:0:0:0:
56,107,132139,2,0,P|62:136|97:153,1,58.4999973220826,2|0,1:2|0:0,0:0:0:0:
247,222,132370,2,0,P|229:158|158:141,1,116.999994644165,2|6,0:0|0:3,0:0:0:0:
170,267,132831,6,0,L|182:333,1,58.4999973220826,2|0,0:0|0:0,0:0:0:0:
248,369,133062,1,2,1:2:0:0:
89,296,133293,1,2,0:0:0:0:
89,296,133408,1,2,0:0:0:0:
68,319,133524,2,0,P|37:320|9:286,1,58.4999973220826,6|0,0:3|0:0,0:0:0:0:
5,191,133754,2,0,P|34:190|60:216,1,58.4999973220826,2|0,0:0|0:0,0:0:0:0:
165,20,133985,6,0,P|147:74|123:169,1,116.999994644165,2|0,1:2|0:0,0:0:0:0:
291,213,134331,1,2,0:0:0:0:
346,168,134447,2,0,P|337:114|283:90,1,116.999994644165,6|0,0:3|0:0,0:0:0:0:
182,214,134793,5,2,0:0:0:0:
182,214,134908,2,0,P|175:243|164:282,1,58.4999973220826,2|0,1:2|0:0,0:0:0:0:
236,377,135139,2,0,P|242:349|250:321,1,58.4999973220826,2|0,0:0|0:0,0:0:0:0:
357,242,135370,1,6,0:3:0:0:
487,370,135601,1,2,0:0:0:0:
487,370,135716,1,6,0:3:0:0:
487,370,135831,1,2,0:0:0:0:
404,328,136062,6,0,P|374:327|342:359,1,58.4999973220826,2|0,1:2|0:0,0:0:0:0:
438,236,136293,2,0,P|468:234|502:208,1,58.4999973220826,2|0,0:0|0:0,0:0:0:0:
297,107,136524,6,0,L|282:165,1,58.4999973220826,2|0,1:2|0:0,0:0:0:0:
244,363,136754,5,6,0:3:0:0:
337,236,136985,1,2,0:0:0:0:
52,179,137216,6,0,B|172:204|119:241|239:265,1,202.500007724762,6|0,0:0|0:0,0:0:0:0:
221,236,137677,1,2,1:2:0:0:
104,376,137908,1,2,0:0:0:0:
104,376,138024,1,2,0:0:0:0:
129,365,138139,6,0,P|132:347|115:310,1,58.4999973220826,6|0,0:3|0:0,0:0:0:0:
25,298,138370,2,0,P|4:274|13:235,1,58.4999973220826,2|0,0:0|0:0,0:0:0:0:
56,95,138601,6,0,P|90:105|119:117,1,58.4999973220826,2|0,1:2|0:0,0:0:0:0:
142,218,138831,2,0,P|106:205|65:193,1,58.4999973220826,2|0,0:0|0:0,0:0:0:0:
369,74,139062,2,0,B|260:96|323:131|197:153,1,175.499991966248,6|0,0:3|0:0,0:0:0:0:
238,171,139524,1,2,1:2:0:0:
175,23,139754,1,2,0:0:0:0:
175,23,139870,1,2,0:0:0:0:
175,23,139985,2,0,P|138:60|64:36,1,116.999994644165,6|0,0:3|0:0,0:0:0:0:
2,157,140331,5,2,0:0:0:0:
45,215,140447,2,0,P|90:180|147:189,1,116.999994644165,2|0,1:2|0:0,0:0:0:0:
225,327,140793,1,2,3:2:0:0:
225,327,140908,2,0,P|232:285|241:255,1,58.4999973220826,6|0,0:3|0:0,0:0:0:0:
294,168,141139,1,2,0:0:0:0:
458,232,141370,2,0,B|447:247|447:247|340:271,2,116.999994644165,2|0|4,1:2|0:0|0:3,0:0:0:0:
512,363,142062,6,0,P|475:348|461:303,1,58.4999973220826,2|4,0:0|0:3,0:0:0:0:
507,132,142293,1,2,1:2:0:0:
507,132,142524,6,0,B|435:110|453:153|363:124,1,135.000005149842,6|0,0:0|0:0,0:0:0:0:
311,63,142870,1,2,0:0:0:0:
311,63,142986,2,0,P|276:70|254:99,1,62.9999980773926,0|4,3:0|0:3,0:0:0:0:
218,158,143216,2,0,P|186:147|166:109,1,62.9999980773926,2|0,0:0|0:0,0:0:0:0:
0,168,143447,1,2,1:2:0:0:
0,168,143677,5,2,0:0:0:0:
38,49,143908,1,2,1:2:0:0:
86,221,144139,2,0,B|106:230|106:230|157:216,1,62.9999980773926,6|0,0:3|0:0,0:0:0:0:
215,66,144370,2,0,B|183:61|183:61|147:89,1,62.9999980773926,2|0,0:0|0:0,0:0:0:0:
244,306,144601,6,0,B|268:188|300:254|327:108,1,188.999994232178,6|0,0:3|0:0,0:0:0:0:
295,149,145062,1,2,1:2:0:0:
449,202,145293,1,2,0:0:0:0:
449,202,145408,1,2,0:0:0:0:
449,202,145524,2,0,P|478:198|506:191,1,58.4999973220826,6|0,0:3|0:0,0:0:0:0:
459,43,145754,2,0,P|430:51|400:55,1,58.4999973220826,2|0,0:0|0:0,0:0:0:0:
279,158,145985,1,2,1:2:0:0:
279,158,146216,6,0,L|293:221,1,58.4999973220826,2|0,0:0|0:0,0:0:0:0:
303,248,146447,2,0,L|319:112,1,116.999994644165,6|0,0:3|0:0,0:0:0:0:
170,22,146793,1,2,0:0:0:0:
111,62,146908,2,0,P|121:103|208:101,2,116.999994644165,2|2|4,1:2|0:0|0:3,0:0:0:0:
183,207,147601,6,0,L|126:220,1,58.4999973220826,2|0,0:0|0:0,0:0:0:0:
1,197,147831,2,0,P|79:211|93:313,1,175.499991966248,2|0,1:2|0:0,0:0:0:0:
112,322,148293,6,0,P|85:340|45:337,1,58.4999973220826,6|0,0:3|0:0,0:0:0:0:
215,367,148524,2,0,P|233:346|240:313,1,58.4999973220826,2|0,0:0|0:0,0:0:0:0:
321,205,148754,2,0,P|337:230|338:268,1,58.4999973220826,2|0,1:2|0:0,0:0:0:0:
219,164,148985,5,2,0:0:0:0:
219,164,149101,1,2,0:0:0:0:
219,164,149216,2,0,L|237:80,1,58.4999973220826,6|0,0:3|0:0,0:0:0:0:
339,25,149447,1,2,0:0:0:0:
339,25,149677,2,0,L|353:105,1,58.4999973220826,2|0,1:2|0:0,0:0:0:0:
512,167,149908,1,2,0:0:0:0:
512,167,150139,6,0,P|468:167|419:243,1,135.000005149842,6|2,0:3|0:0,0:0:0:0:
470,323,150486,1,6,0:3:0:0:
421,372,150601,2,0,P|390:357|335:355,1,67.5000025749208,2|0,0:0|0:0,0:0:0:0:
246,249,150831,1,2,1:2:0:0:
246,249,151062,2,0,P|276:236|318:231,1,67.5000025749208,2|0,0:0|0:0,0:0:0:0:
235,365,151293,6,0,P|205:357|175:326,1,67.5000025749208,2|0,1:2|0:0,0:0:0:0:
84,314,151524,2,0,P|73:281|86:235,1,67.5000025749208,6|0,0:3|0:0,0:0:0:0:
35,156,151754,2,0,P|55:109|98:91,1,67.5000025749208,2|0,0:0|0:0,0:0:0:0:
331,100,151985,6,0,B|248:118|291:138|205:156,1,135.000005149842,6|0,0:0|0:0,0:0:0:0:
196,175,152331,2,0,L|140:158,1,58.4999973220826,6|0,0:3|0:0,0:0:0:0:
180,29,152562,5,2,0:0:0:0:
210,21,152677,1,2,1:2:0:0:
114,140,152908,1,2,0:0:0:0:
77,147,153024,1,2,0:0:0:0:
20,271,153254,1,2,0:0:0:0:
58,282,153370,2,0,P|86:280|101:256,1,58.4999973220826,2|0,3:2|3:0,0:0:0:0:
201,233,153601,5,0,3:0:0:0:
234,244,153716,1,2,0:0:0:0:
203,158,153831,1,6,0:3:0:0:
299,318,154062,5,2,0:0:0:0:
299,318,154177,1,6,0:3:0:0:
299,318,154293,2,0,P|273:335|265:365,1,58.4999973220826,2|0,0:0|0:0,0:0:0:0:
500,279,154524,2,0,P|491:246|471:227,1,58.4999973220826,2|0,1:2|0:0,0:0:0:0:
334,175,154754,5,2,0:0:0:0:
325,213,154870,1,2,0:0:0:0:
411,364,155101,1,2,0:0:0:0:
419,327,155216,1,2,1:2:0:0:
455,207,155447,5,2,3:2:0:0:
418,218,155563,1,2,3:2:0:0:
445,138,155678,1,6,0:0:0:0:
297,232,155908,5,2,0:0:0:0:
297,232,156024,1,6,0:3:0:0:
297,232,156139,2,0,P|304:198|333:176,1,58.4999973220826,2|0,0:0|0:0,0:0:0:0:
468,123,156370,2,0,P|487:100|487:62,1,58.4999973220826,2|0,1:2|0:0,0:0:0:0:
352,16,156601,1,2,0:0:0:0:
352,16,156716,1,2,0:0:0:0:
352,16,156831,2,0,L|363:90,1,58.4999973220826,6|0,0:3|0:0,0:0:0:0:
180,83,157062,5,2,3:2:0:0:
190,107,157177,1,2,3:2:0:0:
267,108,157293,1,2,3:2:0:0:
193,42,157408,1,2,0:0:0:0:
166,134,157524,1,6,0:3:0:0:
322,214,157754,6,0,L|242:197,1,58.4999973220826,2|0,0:0|0:0,0:0:0:0:
192,247,157985,2,0,L|122:229,1,58.4999973220826,2|0,0:0|0:0,0:0:0:0:
25,69,158216,2,0,P|53:68|83:101,1,58.4999973220826,2|0,1:2|0:0,0:0:0:0:
28,191,158446,5,2,0:0:0:0:
39,227,158562,1,2,0:0:0:0:
180,123,158793,1,2,0:0:0:0:
166,87,158908,1,2,0:0:0:0:
25,69,159139,5,0,3:0:0:0:
48,97,159254,1,0,3:0:0:0:
73,16,159370,1,6,0:3:0:0:
150,132,159601,5,2,0:0:0:0:
150,132,159716,1,6,0:3:0:0:
151,132,159831,2,0,L|135:195,1,58.4999973220826,2|0,0:0|0:0,0:0:0:0:
11,236,160062,2,0,P|40:236|63:253,1,58.4999973220826,2|0,1:2|0:0,0:0:0:0:
147,369,160293,5,2,0:0:0:0:
110,381,160408,1,2,0:0:0:0:
183,262,160639,1,2,0:0:0:0:
217,273,160754,2,0,P|240:294|248:336,1,58.4999973220826,2|0,0:0|0:0,0:0:0:0:
353,376,160985,2,0,P|382:375|408:355,1,58.4999973220826,2|0,0:0|0:0,0:0:0:0:
488,272,161216,1,6,0:3:0:0:
348,274,161447,5,2,0:0:0:0:
348,274,161562,1,6,0:3:0:0:
348,274,161677,2,0,B|361:267|361:267|370:217,1,58.4999973220826,2|0,0:0|0:0,0:0:0:0:
466,118,161908,2,0,L|454:200,1,58.4999973220826,2|0,1:2|0:0,0:0:0:0:
497,266,162139,5,2,0:0:0:0:
461,281,162254,1,2,0:0:0:0:
328,152,162485,1,2,0:0:0:0:
366,138,162601,1,2,1:2:0:0:
369,336,162831,5,2,3:2:0:0:
326,352,162947,1,2,3:2:0:0:
348,268,163062,1,6,0:0:0:0:
488,353,163293,5,2,0:0:0:0:
488,353,163408,1,6,0:3:0:0:
488,353,163524,2,0,L|472:288,1,58.4999973220826,2|0,0:0|0:0,0:0:0:0:
411,128,163754,2,0,L|396:199,1,58.4999973220826,2|0,1:2|0:0,0:0:0:0:
243,276,163985,1,2,0:0:0:0:
243,276,164101,1,2,0:0:0:0:
243,276,164216,2,0,P|214:262|201:226,1,58.4999973220826,6|0,0:3|0:0,0:0:0:0:
259,99,164447,5,2,3:2:0:0:
287,108,164562,1,2,3:2:0:0:
252,29,164677,1,2,3:2:0:0:
228,133,164793,1,2,0:0:0:0:
330,105,164908,1,6,0:3:0:0:
124,22,165139,5,2,0:0:0:0:
124,22,165254,1,6,0:3:0:0:
124,22,165370,2,0,L|138:92,1,58.4999973220826,2|0,0:0|0:0,0:0:0:0:
10,194,165601,2,0,P|29:164|66:158,1,58.4999973220826,2|0,1:2|0:0,0:0:0:0:
117,200,165831,2,0,P|145:201|172:228,1,58.4999973220826,2|0,0:0|0:0,0:0:0:0:
42,348,166062,5,2,3:2:0:0:
18,355,166177,1,2,3:2:0:0:
31,319,166293,5,2,1:2:0:0:
97,301,166408,1,2,1:2:0:0:
148,359,166524,1,2,1:2:0:0:
217,374,166639,1,2,1:2:0:0:
227,379,166754,6,0,L|197:162,1,202.500007724762,6|0,1:2|0:0,0:0:0:0:
223,157,167216,1,2,1:2:0:0:
153,92,167447,2,0,P|106:86|68:149,2,107.999996704102,6|2|2,0:3|0:0|0:0,0:0:0:0:
191,237,168139,5,2,1:2:0:0:
248,129,168370,1,2,0:0:0:0:
169,224,168601,6,0,P|160:169|144:105,1,107.999996704102,6|0,0:3|0:0,0:0:0:0:
351,19,169062,2,0,P|340:73|334:130,2,107.999996704102,2|0|4,1:2|0:0|0:3,0:0:0:0:
237,53,169754,5,2,0:0:0:0:
321,150,169985,1,2,1:2:0:0:
441,75,170216,1,0,3:0:0:0:
441,75,170331,1,0,3:0:0:0:
441,75,170447,2,0,P|491:82|511:138,1,107.999996704102,6|0,0:3|0:0,0:0:0:0:
427,195,170793,5,2,0:0:0:0:
459,207,170908,2,0,P|472:245|490:321,1,107.999996704102,2|0,1:2|0:0,0:0:0:0:
396,363,171254,1,2,0:0:0:0:
396,363,171370,2,0,B|367:366|367:366|330:338,1,53.9999983520508,6|0,0:3|0:0,0:0:0:0:
265,331,171601,2,0,L|252:267,1,53.9999983520508,2|0,0:0|0:0,0:0:0:0:
335,144,171831,1,2,1:2:0:0:
362,255,172062,5,2,0:0:0:0:
362,255,172177,1,2,0:0:0:0:
362,255,172293,2,0,B|335:245|335:245|310:125,2,107.999996704102,6|0|0,0:3|0:0|1:0,0:0:0:0:
408,153,172985,6,0,P|423:133|453:123,1,53.9999983520508,2|0,0:0|0:0,0:0:0:0:
238,212,173216,2,0,P|215:191|175:182,1,53.9999983520508,6|0,0:3|0:0,0:0:0:0:
286,23,173447,6,0,P|273:48|272:82,1,53.9999983520508,2|0,0:0|0:0,0:0:0:0:
304,92,173677,2,0,P|319:109|326:140,1,53.9999983520508,2|0,1:2|0:0,0:0:0:0:
314,170,173908,2,0,P|320:198|341:223,1,53.9999983520508,2|0,0:0|0:0,0:0:0:0:
242,380,174139,6,0,P|237:335|191:277,2,107.999996704102,6|0|0,0:3|0:0|1:0,0:0:0:0:
330,311,174831,1,2,0:0:0:0:
330,311,174947,1,2,0:0:0:0:
330,311,175062,1,6,0:3:0:0:
178,264,175293,2,0,P|170:227|217:168,1,107.999996704102,2|0,0:0|1:0,0:0:0:0:
292,87,175754,5,0,3:0:0:0:
292,87,175870,1,0,3:0:0:0:
292,87,175985,2,0,B|319:95|319:95|328:131,1,53.9999983520508,6|0,0:3|0:0,0:0:0:0:
392,198,176216,2,0,L|270:224,2,107.999996704102,2|0|0,0:0|1:0|0:0,0:0:0:0:
32,189,176908,5,6,0:3:0:0:
108,241,177139,1,2,0:0:0:0:
224,137,177370,1,2,1:2:0:0:
224,137,177485,1,2,0:0:0:0:
224,137,177601,1,2,3:2:0:0:
224,137,177716,1,2,3:2:0:0:
224,137,177831,1,6,0:3:0:0:
173,318,178293,5,2,1:2:0:0:
173,318,178524,1,2,0:0:0:0:
242,264,178754,1,6,0:3:0:0:
63,199,178985,1,2,0:0:0:0:
142,165,179216,6,0,P|156:177|168:222,1,53.9999983520508,2|0,1:2|0:0,0:0:0:0:
66,374,179447,2,0,P|44:356|46:262,1,107.999996704102,6|0,0:0|0:0,0:0:0:0:
59,274,179908,6,0,P|68:247|96:229,1,53.9999983520508,2|0,3:2|0:0,0:0:0:0:
195,176,180139,1,2,0:0:0:0:
195,176,180254,1,0,3:2:0:0:
195,176,180370,2,0,P|186:150|167:132,1,53.9999983520508,2|0,3:2|0:0,0:0:0:0:
5,52,180601,5,2,0:0:0:0:
186,10,180831,1,2,0:0:0:0:
80,144,181062,1,2,0:0:0:0:
25,58,181293,1,2,0:0:0:0:
348,152,181524,5,6,0:0:0:0:
220,272,181754,1,6,0:3:0:0:
220,272,181870,1,2,0:0:0:0:
220,272,181985,2,0,P|229:229|244:206,1,62.9999980773926,2|0,1:2|0:0,0:0:0:0:
393,139,182216,2,0,P|376:167|364:211,1,62.9999980773926,6|0,0:3|0:0,0:0:0:0:
231,106,182447,5,6,0:3:0:0:
263,118,182562,1,2,0:0:0:0:
369,293,182793,1,2,0:0:0:0:
335,280,182908,1,2,1:2:0:0:
485,120,183139,5,2,3:2:0:0:
446,127,183254,1,2,3:2:0:0:
408,135,183370,2,0,P|386:153|381:186,1,62.9999980773926,6|0,0:3|0:0,0:0:0:0:
467,253,183601,1,6,0:3:0:0:
467,253,183716,1,2,0:0:0:0:
467,253,183831,1,2,1:2:0:0:
278,302,184062,5,6,0:3:0:0:
417,373,184293,2,0,L|428:305,1,53.9999983520508,6|0,0:3|0:0,0:0:0:0:
344,218,184524,2,0,L|358:285,1,53.9999983520508,6|0,0:3|0:0,0:0:0:0:
512,354,184754,1,2,1:2:0:0:
467,253,184985,1,2,0:0:0:0:
190,218,185216,5,6,0:3:0:0:
257,375,185447,1,6,0:3:0:0:
257,375,185562,1,2,0:0:0:0:
257,375,185677,2,0,P|226:337|186:336,1,62.9999980773926,2|0,1:2|0:0,0:0:0:0:
75,312,185908,2,0,P|123:304|144:270,1,62.9999980773926,6|0,0:3|0:0,0:0:0:0:
218,196,186139,2,0,P|200:241|219:276,1,62.9999980773926,6|0,0:3|0:0,0:0:0:0:
50,114,186370,5,6,0:3:0:0:
28,145,186485,1,2,0:0:0:0:
33,183,186601,2,0,L|113:203,1,62.9999980773926,2|0,1:2|0:0,0:0:0:0:
170,79,186831,5,2,3:2:0:0:
181,113,186947,1,2,3:2:0:0:
232,45,187062,1,6,0:3:0:0:
52,24,187293,6,0,P|73:45|80:73,1,53.9999983520508,6|0,0:3|0:0,0:0:0:0:
145,130,187524,2,0,P|135:156|104:180,1,53.9999983520508,2|0,1:2|0:0,0:0:0:0:
6,216,187754,6,0,P|30:222|65:250,1,53.9999983520508,2|0,0:0|0:0,0:0:0:0:
119,339,187985,2,0,P|74:348|1:389,1,107.999996704102,6|4,0:3|0:3,0:0:0:0:
209,377,188447,6,0,P|229:368|243:329,1,53.9999983520508,2|0,1:2|3:0,0:0:0:0:
314,312,188678,2,0,P|323:285|304:248,1,53.9999983520508,2|0,3:2|3:0,0:0:0:0:
174,151,188908,2,0,P|165:194|206:251,2,107.999996704102,6|4|0,0:3|0:3|1:0,0:0:0:0:
328,46,189601,5,6,0:3:0:0:
328,46,189716,1,2,0:0:0:0:
328,46,189831,2,0,L|303:177,1,107.999996704102,6|4,0:3|0:3,0:0:0:0:
392,213,190177,1,2,0:0:0:0:
392,213,190293,2,0,P|418:203|433:171,1,53.9999983520508,2|0,1:2|0:0,0:0:0:0:
504,153,190524,2,0,P|507:133|491:97,1,53.9999983520508,2|0,0:0|0:0,0:0:0:0:
225,16,190754,5,6,0:3:0:0:
286,122,190985,1,6,0:3:0:0:
286,122,191100,1,2,0:0:0:0:
286,122,191215,1,0,1:2:0:0:
389,49,191447,2,0,B|328:61|349:83|286:96,1,107.999996704102,6|4,0:3|0:3,0:0:0:0:
93,16,191908,5,6,0:3:0:0:
182,79,192139,1,2,1:2:0:0:
16,114,192370,1,2,0:0:0:0:
54,270,192601,6,0,P|65:217|85:150,1,107.999996704102,6|0,0:3|0:0,0:0:0:0:
175,142,192947,1,2,0:0:0:0:
175,142,193062,2,0,P|193:126|195:88,1,53.9999983520508,2|0,1:2|0:0,0:0:0:0:
58,28,193293,1,6,0:3:0:0:
58,28,193408,1,2,0:0:0:0:
58,28,193524,1,6,0:3:0:0:
12,98,193754,6,0,L|26:159,1,53.9999983520508,6|0,0:3|0:0,0:0:0:0:
107,187,193985,2,0,L|84:258,1,53.9999983520508,2|0,1:2|0:0,0:0:0:0:
22,382,194216,1,2,0:0:0:0:
22,382,194447,6,0,P|61:337|175:361,1,180,6|0,0:3|0:0,0:0:0:0:
111,333,207370,6,0,L|169:349,1,45,6|0,0:3|0:0,0:0:0:0:
181,318,208062,6,0,L|233:301,1,45,2|0,1:2|0:0,0:0:0:0:
296,336,208524,1,4,0:3:0:0:
411,372,208754,5,0,3:0:0:0:
409,362,208870,1,0,1:0:0:0:
406,355,208985,1,0,3:0:0:0:
404,345,209101,1,0,3:0:0:0:
402,337,209216,1,6,0:3:0:0:
458,271,209447,5,0,3:0:0:0:
454,261,209563,1,0,3:0:0:0:
452,253,209678,1,0,3:0:0:0:
249,69,209908,2,0,L|263:19,1,45,2|0,1:2|0:0,0:0:0:0:
248,0,211062,6,0,L|279:214,1,202.500007724762,6|0,0:0|0:0,0:0:0:0:
306,213,211524,2,0,P|290:254|201:253,1,125.999996154785,2|0,1:2|0:0,0:0:0:0:
12,166,211870,1,2,0:0:0:0:
66,210,211985,2,0,P|109:196|201:178,1,125.999996154785,6|0,0:3|0:0,0:0:0:0:
153,371,212447,6,0,B|125:359|125:359|116:323,1,62.9999980773926,2|0,1:2|0:0,0:0:0:0:
193,273,212677,2,0,L|210:202,1,62.9999980773926,2|0,0:0|0:0,0:0:0:0:
150,66,212908,1,6,0:3:0:0:
150,66,213024,1,2,0:0:0:0:
123,56,213139,6,0,P|103:67|90:108,1,62.9999980773926,2|0,0:0|0:0,0:0:0:0:
287,179,213370,2,0,P|289:152|259:116,1,62.9999980773926,2|0,1:2|0:0,0:0:0:0:
18,157,213601,2,0,P|39:203|149:210,2,125.999996154785,2|4|0,0:0|0:3|0:0,0:0:0:0:
142,104,214293,5,2,1:2:0:0:
182,283,214524,1,2,3:2:0:0:
182,283,214639,1,2,3:2:0:0:
182,283,214754,2,0,P|229:259|294:245,1,116.999994644165,6|0,0:3|0:0,0:0:0:0:
371,341,215101,1,2,0:0:0:0:
438,361,215216,2,0,P|481:338|467:270,1,116.999994644165,2|0,1:2|0:0,0:0:0:0:
397,198,215562,5,2,3:2:0:0:
397,198,215677,2,0,B|408:167|408:167|444:152,1,58.4999973220826,6|0,0:3|0:0,0:0:0:0:
512,239,215908,2,0,B|501:268|501:268|459:283,1,58.4999973220826,2|0,0:0|0:0,0:0:0:0:
320,368,216139,2,0,B|338:313|338:313|306:260,1,116.999994644165,2|0,1:2|0:0,0:0:0:0:
224,235,216485,5,2,0:0:0:0:
224,235,216601,1,6,0:3:0:0:
277,56,216831,1,2,0:0:0:0:
277,56,216947,1,6,0:3:0:0:
277,56,217062,1,2,0:0:0:0:
60,184,217293,5,2,1:2:0:0:
60,184,217524,2,0,P|98:173|119:95,1,116.999994644165,2|0,0:0|1:0,0:0:0:0:
11,24,217870,1,2,0:0:0:0:
11,24,217986,2,0,P|14:51|39:73,1,58.4999973220826,6|0,0:3|0:0,0:0:0:0:
153,115,218216,2,0,P|167:104|215:99,1,58.4999973220826,2|0,0:0|0:0,0:0:0:0:
342,225,218447,6,0,P|355:123|374:28,1,188.999994232178,6|0,0:3|0:0,0:0:0:0:
387,17,218908,2,0,P|418:6|472:-2,1,62.9999980773926,2|0,1:2|0:0,0:0:0:0:
496,141,219139,2,0,P|469:129|427:119,1,62.9999980773926,2|0,0:0|0:0,0:0:0:0:
213,185,219370,2,0,P|241:168|272:160,1,62.9999980773926,6|0,0:3|0:0,0:0:0:0:
358,216,219601,1,2,0:0:0:0:
358,216,219831,6,0,B|375:241|375:241|381:278,1,62.9999980773926,2|0,1:2|0:0,0:0:0:0:
463,366,220062,2,0,L|482:241,1,125.999996154785,2|6,0:0|0:3,0:0:0:0:
498,141,220408,1,2,0:0:0:0:
498,141,220523,2,0,P|462:148|432:156,1,62.9999980773926,2|2,0:0|0:0,0:0:0:0:
307,59,220754,2,0,P|318:93|323:131,1,62.9999980773926,2|0,1:2|0:0,0:0:0:0:
222,268,220985,2,0,P|282:253|346:243,1,125.999996154785,2|6,0:0|0:3,0:0:0:0:
191,185,221447,6,0,P|158:177|146:142,1,62.9999980773926,2|0,0:0|0:0,0:0:0:0:
119,68,221677,1,2,1:2:0:0:
15,237,221908,1,2,3:2:0:0:
15,237,222024,1,2,3:2:0:0:
23,264,222139,6,0,L|80:277,1,58.4999973220826,6|0,0:3|0:0,0:0:0:0:
120,360,222370,2,0,L|184:344,1,58.4999973220826,2|0,0:0|0:0,0:0:0:0:
326,371,222601,6,0,B|288:322|288:322|321:251,1,125.999996154785,2|0,1:2|0:0,0:0:0:0:
507,236,222947,1,2,0:0:0:0:
459,285,223062,2,0,P|411:265|317:252,1,125.999996154785,6|0,0:3|0:0,0:0:0:0:
484,59,223524,6,0,P|491:87|506:124,1,58.4999973220826,2|0,1:2|0:0,0:0:0:0:
429,162,223754,2,0,P|421:194|413:221,1,58.4999973220826,2|0,0:0|0:0,0:0:0:0:
477,315,223985,1,6,0:3:0:0:
288,370,224216,1,2,0:0:0:0:
288,370,224331,1,6,0:3:0:0:
288,370,224447,1,2,0:0:0:0:
362,332,224677,6,0,L|349:264,1,58.4999973220826,2|0,1:2|0:0,0:0:0:0:
274,201,224908,2,0,L|260:266,1,58.4999973220826,2|0,0:0|0:0,0:0:0:0:
155,363,225139,2,0,L|144:295,1,58.4999973220826,2|0,1:2|0:0,0:0:0:0:
17,204,225370,5,6,0:3:0:0:
139,266,225601,1,2,0:0:0:0:
133,279,225716,1,2,0:0:0:0:
128,291,225831,2,0,B|79:302|79:302|36:183,1,135.000005149842,6|0,0:0|0:0,0:0:0:0:
145,152,226177,1,2,0:0:0:0:
149,138,226293,2,0,B|154:126|154:126|142:75,1,58.4999973220826,6|0,0:3|0:0,0:0:0:0:
3,95,226524,2,0,P|27:113|63:123,1,58.4999973220826,2|0,0:0|0:0,0:0:0:0:
258,105,226754,5,6,0:3:0:0:
272,97,226870,1,2,0:0:0:0:
295,97,226985,1,2,0:0:0:0:
324,115,227101,1,2,0:0:0:0:
328,153,227216,2,0,P|314:169|305:217,1,58.4999973220826,2|0,1:2|0:0,0:0:0:0:
412,299,227447,5,2,0:0:0:0:
440,270,227562,1,2,0:0:0:0:
480,285,227677,1,6,0:3:0:0:
327,368,227908,5,2,0:0:0:0:
293,336,228024,1,2,0:0:0:0:
248,353,228139,2,0,P|229:355|194:328,1,58.4999973220826,2|0,1:2|0:0,0:0:0:0:
106,223,228370,2,0,P|119:187|123:143,1,58.4999973220826,2|0,0:0|0:0,0:0:0:0:
223,82,228601,5,6,0:3:0:0:
225,91,228677,5,2,0:0:0:0:
227,100,228754,5,2,0:0:0:0:
229,109,228831,5,2,0:0:0:0:
373,242,229062,5,2,1:2:0:0:
341,235,229177,1,2,0:0:0:0:
307,262,229293,1,2,3:2:0:0:
270,254,229408,1,2,3:2:0:0:
218,189,229524,6,0,P|214:159|248:129,1,58.4999973220826,6|0,0:0|0:0,0:0:0:0:
370,43,229754,1,2,3:2:0:0:
125,84,229985,1,2,3:2:0:0:
125,84,230216,6,0,L|109:13,1,58.4999973220826,6|0,0:3|0:0,0:0:0:0:
342,200,230677,2,0,L|356:134,1,58.4999973220826,6|0,0:3|0:0,0:0:0:0:
151,377,231139,6,0,L|107:173,1,175.499991966248,6|0,0:0|0:0,0:0:0:0:
47,165,231601,1,2,0:0:0:0:
21,156,231716,1,6,0:3:0:0:
13,136,231831,1,2,0:0:0:0:
10,357,232062,5,2,1:2:0:0:
19,308,232177,1,2,0:0:0:0:
53,280,232293,1,2,0:0:0:0:
90,273,232408,1,2,0:0:0:0:
120,278,232524,1,2,1:2:0:0:
135,290,232639,1,2,0:0:0:0:
141,306,232754,1,6,0:3:0:0:
133,313,232870,1,2,0:0:0:0:
124,311,232985,1,2,0:0:0:0:
123,301,233101,1,2,0:0:0:0:
133,297,233216,6,0,P|212:290|287:395,1,202.500007724762,6|0,0:3|0:0,0:0:0:0:
297,352,233677,1,2,1:2:0:0:
343,202,233908,6,0,L|321:285,1,62.9999980773926,2|0,0:0|0:0,0:0:0:0:
445,365,234139,2,0,L|428:302,1,62.9999980773926,6|0,0:3|0:0,0:0:0:0:
512,174,234370,2,0,B|450:192|450:192|404:125,1,125.999996154785,2|0,0:0|1:0,0:0:0:0:
127,84,234831,6,0,P|197:71|351:20,1,188.999994232178,2|0,0:0|0:0,0:0:0:0:
344,22,235293,2,0,P|333:51|321:121,1,62.9999980773926,2|0,0:0|0:0,0:0:0:0:
372,228,235524,2,0,P|319:212|215:197,2,125.999996154785,2|0|4,1:2|0:0|0:3,0:0:0:0:
454,123,236216,5,2,0:0:0:0:
470,132,236331,1,2,0:0:0:0:
493,124,236447,1,2,1:2:0:0:
508,91,236562,1,2,0:0:0:0:
486,54,236677,1,2,3:2:0:0:
441,40,236793,1,2,3:2:0:0:
396,58,236908,1,6,0:3:0:0:
267,216,237139,5,2,0:0:0:0:
305,223,237254,1,2,0:0:0:0:
330,201,237370,2,0,P|339:178|328:132,1,62.9999980773926,2|0,1:2|0:0,0:0:0:0:
267,50,237601,2,0,P|245:47|187:26,1,62.9999980773926,2|0,0:0|0:0,0:0:0:0:
50,83,237831,5,6,0:3:0:0:
36,42,237947,1,2,0:0:0:0:
194,165,238177,1,2,0:0:0:0:
202,128,238293,1,2,1:2:0:0:
0,268,238524,5,2,0:0:0:0:
16,230,238639,1,2,0:0:0:0:
56,213,238754,2,0,P|82:218|125:247,1,62.9999980773926,6|0,0:3|0:0,0:0:0:0:
158,371,238985,5,2,0:0:0:0:
128,377,239101,1,6,0:3:0:0:
247,252,239331,1,2,0:0:0:0:
236,222,239447,1,2,1:2:0:0:
378,371,239677,5,2,0:0:0:0:
432,357,239793,1,2,0:0:0:0:
434,309,239908,1,2,1:2:0:0:
383,285,240024,1,2,0:0:0:0:
349,326,240139,5,6,0:3:0:0:
432,357,240370,1,2,0:0:0:0:
503,117,240601,6,0,B|388:143|450:181|308:206,1,202.500007724762,6|0,0:0|0:0,0:0:0:0:
333,176,241062,2,0,P|304:167|258:161,1,58.4999973220826,2|0,1:2|0:0,0:0:0:0:
299,54,241293,2,0,P|331:63|366:68,1,58.4999973220826,2|0,0:0|0:0,0:0:0:0:
444,183,241524,5,6,0:3:0:0:
440,196,241639,1,2,0:0:0:0:
382,62,241870,1,2,0:0:0:0:
385,46,241985,2,0,P|411:35|453:27,1,58.4999973220826,2|0,1:2|0:0,0:0:0:0:
330,198,242216,2,0,P|302:208|257:216,1,58.4999973220826,2|0,0:0|0:0,0:0:0:0:
94,134,242447,1,6,0:3:0:0:
19,209,242677,5,2,0:0:0:0:
38,208,242793,1,2,0:0:0:0:
53,219,242908,2,0,P|68:241|71:279,1,58.4999973220826,2|0,1:2|0:0,0:0:0:0:
196,160,243139,2,0,P|202:137|234:100,1,58.4999973220826,2|0,0:0|0:0,0:0:0:0:
273,303,243370,5,6,0:3:0:0:
255,314,243485,1,2,0:0:0:0:
238,316,243601,2,0,P|200:299|184:263,1,58.4999973220826,2|0,0:0|0:0,0:0:0:0:
101,134,243831,1,2,1:2:0:0:
27,17,244062,5,2,0:0:0:0:
75,10,244177,1,2,0:0:0:0:
99,46,244293,1,6,0:3:0:0:
196,165,244524,1,2,0:0:0:0:
238,178,244639,1,2,0:0:0:0:
270,145,244754,2,0,P|279:126|271:84,1,58.4999973220826,2|0,1:2|0:0,0:0:0:0:
409,16,244985,2,0,P|393:45|403:100,1,58.4999973220826,2|0,0:0|0:0,0:0:0:0:
507,132,245216,5,6,0:3:0:0:
472,143,245331,1,2,0:0:0:0:
349,217,245562,1,2,0:0:0:0:
389,227,245677,1,2,1:2:0:0:
478,371,245908,1,2,0:0:0:0:
489,331,246023,1,2,0:0:0:0:
503,290,246139,2,0,P|494:260|487:208,1,58.4999973220826,6|0,0:3|0:0,0:0:0:0:
332,154,246370,5,2,0:0:0:0:
350,189,246485,1,2,0:0:0:0:
271,334,246716,1,2,0:0:0:0:
308,349,246831,2,0,P|335:341|368:334,1,58.4999973220826,2|0,1:2|0:0,0:0:0:0:
465,172,247062,2,0,P|456:200|450:228,1,58.4999973220826,2|0,0:0|0:0,0:0:0:0:
493,364,247293,1,2,1:2:0:0:
350,189,247524,5,6,0:3:0:0:
312,198,247639,1,2,0:0:0:0:
322,236,247754,1,2,0:0:0:0:
360,225,247870,1,2,0:0:0:0:
465,172,247985,6,0,P|456:199|450:229,1,58.4999973220826,6|0,0:3|0:0,0:0:0:0:
345,84,248216,2,0,P|339:55|335:26,1,58.4999973220826,2|0,0:0|0:0,0:0:0:0:
504,85,248447,6,0,L|429:69,1,58.4999973220826,2|0,1:2|0:0,0:0:0:0:
292,202,248677,2,0,L|353:188,1,58.4999973220826,2|0,0:0|0:0,0:0:0:0:
463,321,248908,5,6,0:3:0:0:
458,339,249024,1,2,0:0:0:0:
299,367,249254,1,2,0:0:0:0:
302,350,249370,1,2,1:2:0:0:
164,225,249601,5,2,0:0:0:0:
160,241,249716,1,2,0:0:0:0:
157,255,249831,1,6,0:3:0:0:
12,370,250062,1,2,0:0:0:0:
16,354,250177,1,2,0:0:0:0:
20,340,250293,2,0,P|33:312|67:298,1,58.4999973220826,2|0,1:2|0:0,0:0:0:0:
168,360,250524,2,0,P|190:356|217:324,1,58.4999973220826,2|0,0:0|0:0,0:0:0:0:
151,198,250754,5,6,0:3:0:0:
147,217,250870,1,2,0:0:0:0:
317,192,251101,1,2,0:0:0:0:
312,173,251216,1,2,1:2:0:0:
109,54,251447,5,2,3:2:0:0:
151,64,251562,1,2,3:2:0:0:
193,69,251677,2,0,P|223:62|262:50,1,58.4999973220826,6|0,0:3|0:0,0:0:0:0:
321,210,251908,2,0,P|291:202|238:195,1,58.4999973220826,2|0,0:0|0:0,0:0:0:0:
347,8,252139,6,0,P|356:34|391:57,1,58.4999973220826,2|0,1:2|0:0,0:0:0:0:
507,162,252370,2,0,P|494:182|439:202,1,58.4999973220826,2|0,0:0|0:0,0:0:0:0:
466,50,252601,5,6,0:3:0:0:
501,33,252716,1,2,0:0:0:0:
377,139,252947,1,2,0:0:0:0:
339,128,253062,1,2,1:2:0:0:
418,322,253293,5,2,0:0:0:0:
459,311,253409,1,2,0:0:0:0:
502,301,253524,2,0,L|425:282,1,58.4999973220826,6|0,0:3|0:0,0:0:0:0:
305,373,253754,1,2,0:0:0:0:
298,343,253870,2,0,L|283:282,1,58.4999973220826,6|0,0:3|0:0,0:0:0:0:
171,189,254101,1,2,0:0:0:0:
179,157,254216,1,2,1:2:0:0:
407,124,254447,5,2,0:0:0:0:
442,84,254563,1,2,0:0:0:0:
414,42,254678,1,2,1:2:0:0:
362,56,254794,1,2,0:0:0:0:
361,104,254909,5,6,0:3:0:0:
442,84,255139,1,2,0:0:0:0:
509,248,255370,6,0,P|391:209|212:179,1,270.000010299683,6|4,0:0|0:3,0:0:0:0:
91,66,256062,1,2,0:0:0:0:
207,264,256293,1,6,0:3:0:0:
181,122,256524,1,2,0:0:0:0:
181,122,256639,1,2,0:0:0:0:
181,122,256754,2,0,P|200:91|229:79,1,62.9999980773926,2|0,1:2|0:0,0:0:0:0:
267,10,256985,2,0,P|300:14|333:34,1,62.9999980773926,2|0,0:0|0:0,0:0:0:0:
380,258,257216,6,0,B|318:235|318:235|353:108,1,188.999994232178,6|0,0:3|0:0,0:0:0:0:
377,100,257677,2,0,L|399:184,1,62.9999980773926,2|0,1:2|0:0,0:0:0:0:
221,264,257908,2,0,B|209:241|209:241|235:192,1,62.9999980773926,2|0,0:0|0:0,0:0:0:0:
346,88,258139,1,6,0:3:0:0:
150,167,258370,1,2,0:0:0:0:
150,167,258485,1,2,0:0:0:0:
150,167,258601,2,0,L|88:151,1,58.4999973220826,2|0,1:2|0:0,0:0:0:0:
70,169,258831,2,0,L|-10:150,1,58.4999973220826,2|0,0:0|0:0,0:0:0:0:
12,358,259062,6,0,B|58:314|58:314|121:338,1,125.999996154785,6|0,0:3|0:0,0:0:0:0:
239,316,259408,1,2,0:0:0:0:
239,316,259524,2,0,P|217:327|205:373,1,62.9999980773926,2|0,1:2|0:0,0:0:0:0:
135,171,259754,1,2,0:0:0:0:
135,171,259985,6,0,L|111:248,1,62.9999980773926,6|0,0:3|0:0,0:0:0:0:
46,45,260216,1,2,0:0:0:0:
46,45,260331,1,2,0:0:0:0:
46,45,260447,1,2,1:2:0:0:
304,169,260677,6,0,P|317:58|182:97,1,270.000010299683,6|0,0:0|3:0,0:0:0:0:
200,90,261254,1,2,3:2:0:0:
200,90,261370,1,2,3:2:0:0:
423,217,261601,6,0,L|478:199,1,58.4999973220826,4|0,1:2|0:0,0:0:0:0:
501,211,262062,6,0,L|530:144,1,58.4999973220826,2|0,1:2|0:0,0:0:0:0:
407,17,262293,1,6,0:3:0:0:
376,105,262524,1,2,0:0:0:0:
220,227,262754,6,0,B|338:249|282:280|405:300,1,188.999994232178,6|0,0:3|0:0,0:0:0:0:
370,317,263216,1,2,1:2:0:0:
502,200,263447,1,2,0:0:0:0:
502,200,263562,1,2,0:0:0:0:
502,200,263677,2,0,P|467:209|426:216,1,62.9999980773926,6|0,0:3|0:0,0:0:0:0:
291,157,263908,1,2,0:0:0:0:
291,157,264139,6,0,P|285:119|305:98,1,62.9999980773926,2|0,1:2|0:0,0:0:0:0:
363,346,264370,2,0,P|287:341|263:290,1,125.999996154785,2|4,0:0|0:3,0:0:0:0:
387,138,264831,1,2,0:0:0:0:
387,138,264947,1,2,0:0:0:0:
387,138,265062,1,2,1:2:0:0:
397,212,265293,6,0,B|388:229|388:229|313:247,1,62.9999980773926,2|0,0:0|0:0,0:0:0:0:
163,164,265524,1,6,0:3:0:0:
163,164,265754,5,2,0:0:0:0:
124,77,265985,1,2,1:2:0:0:
268,138,266216,1,2,0:0:0:0:
65,269,266447,2,0,P|139:215|256:255,1,188.999994232178,6|0,0:3|0:0,0:0:0:0:
204,248,266908,5,2,1:2:0:0:
9,155,267139,1,2,0:0:0:0:
9,155,267254,1,2,0:0:0:0:
9,155,267370,2,0,B|31:160|31:160|67:136,1,62.9999980773926,6|0,0:3|0:0,0:0:0:0:
112,76,267601,2,0,P|103:44|94:-2,1,62.9999980773926,2|0,0:0|0:0,0:0:0:0:
307,45,267831,5,2,1:2:0:0:
146,188,268062,1,2,0:0:0:0:
146,188,268177,1,2,0:0:0:0:
146,188,268293,2,0,P|171:163|260:173,1,125.999996154785,6|0,0:3|0:0,0:0:0:0:
169,368,268639,2,0,P|108:379|57:346,1,125.999996154785,6|0,0:3|0:0,0:0:0:0:
219,276,268985,1,2,1:2:0:0:
296,361,269216,5,2,0:0:0:0:
296,361,269331,1,2,0:0:0:0:
296,361,269447,2,0,L|306:308,1,53.9999983520508,2|0,1:2|0:0,0:0:0:0:
207,244,269677,2,0,B|193:266|193:266|91:288,1,107.999996704102,6|2,0:3|0:0,0:0:0:0:
246,124,270139,6,0,P|193:108|152:163,2,107.999996704102,6|0|2,0:0|0:0|0:0,0:0:0:0:
321,193,270831,6,0,L|308:245,1,33.7500012874604,2|0,0:0|0:0,0:0:0:0:
291,359,271754,1,2,0:0:0:0:
291,359,271985,1,2,0:0:0:0:
444,339,272908,5,2,0:0:0:0:
355,297,273139,1,2,0:0:0:0:
489,251,273370,1,2,0:0:0:0:
489,251,273485,1,2,0:0:0:0:
489,251,273601,1,2,0:0:0:0:
354,104,273831,6,0,P|408:85|464:145,1,135.000005149842,2|0,0:0|0:0,0:0:0:0:
416,198,274524,6,0,P|403:212|380:215,1,33.7500012874604,2|0,0:0|0:0,0:0:0:0:
299,185,274985,5,2,0:0:0:0:
242,107,275216,1,2,0:0:0:0:
48,58,275447,1,2,0:0:0:0:
136,28,275793,5,2,0:0:0:0:
136,28,275908,2,0,L|147:79,1,33.7500012874604,2|0,0:0|0:0,0:0:0:0:
22,133,276254,2,0,L|32:174,1,33.7500012874604,2|0,0:0|0:0,0:0:0:0:
239,174,276601,2,0,L|250:214,1,33.7500012874604,2|0,0:0|0:0,0:0:0:0:
106,295,276947,2,0,L|120:344,1,33.7500012874604,2|0,0:0|0:0,0:0:0:0:
197,350,277293,2,0,L|210:395,1,33.7500012874604,2|0,0:0|0:0,0:0:0:0:
469,310,277524,1,2,0:0:0:0:
475,288,279139,5,2,0:0:0:0:
421,182,281216,5,2,0:0:0:0:
249,32,282831,5,2,0:0:0:0:
269,19,284447,6,0,P|247:38|247:82,1,67.5,2|0,0:0|0:0,0:0:0:0:
274,270,284908,1,2,0:0:0:0:
