osu file format v14

[General]
AudioFilename: audio.mp3
AudioLeadIn: 0
PreviewTime: 48193
Countdown: 0
SampleSet: Soft
StackLeniency: 0.3
Mode: 0
LetterboxInBreaks: 0
WidescreenStoryboard: 0

[Editor]
DistanceSpacing: 0.6
BeatDivisor: 6
GridSize: 4
TimelineZoom: 2.799999

[Metadata]
Title:Presenter*
TitleUnicode:ぷれぜんたー☆
Artist:Aitsuki Nakuru
ArtistUnicode:藍月なくる
Creator:toybot
Version:Noel
Source:
Tags:nacollection!! 2 a than_lily bluoxy flask lasse
BeatmapID:1677967
BeatmapSetID:799156

[Difficulty]
HPDrainRate:6
CircleSize:4.5
OverallDifficulty:9
ApproachRate:9.7
SliderMultiplier:1.7
SliderTickRate:1

[Events]
//Background and Video events
0,0,"kurisumasu.jpg",0,0
//Break Periods
2,125702,129008
//Storyboard Layer 0 (Background)
//Storyboard Layer 1 (Fail)
//Storyboard Layer 2 (Pass)
//Storyboard Layer 3 (Foreground)
//Storyboard Sound Samples

[TimingPoints]
253,250,4,2,1,40,1,0
1503,-83.3333333333333,4,2,1,50,0,0
1753,-71.4285714285714,4,2,1,60,0,0
2253,-166.666666666667,4,2,1,70,0,0
5753,-200,4,2,1,40,0,0
8253,-100,4,2,1,70,0,0
10003,-83.3333333333333,4,2,1,70,0,0
10253,-100,4,2,1,70,0,0
14003,-66.6666666666667,4,2,1,70,0,0
14253,-100,4,2,1,70,0,0
14503,-66.6666666666667,4,2,1,70,0,0
14753,-100,4,2,1,70,0,0
15003,-66.6666666666667,4,2,1,70,0,0
15503,-66.6666666666667,4,2,1,70,0,0
16253,-100,4,2,1,70,0,0
17253,-133.333333333333,4,2,1,70,0,0
17753,-80,4,2,1,70,0,0
18253,-100,4,2,1,70,0,0
38253,-200,4,2,1,60,0,0
39753,-200,4,2,1,50,0,0
39878,-200,4,2,1,40,0,0
40378,-133.333333333333,4,2,1,50,0,0
44253,-100,4,2,1,55,0,0
46253,-133.333333333333,4,2,1,55,0,0
47253,-100,4,2,1,75,0,0
48253,-200,4,2,2,45,0,0
49253,-90.9090909090909,4,2,1,75,0,1
56378,-76.9230769230769,4,2,1,75,0,1
56878,-90.9090909090909,4,2,1,75,0,1
65253,-200,4,2,1,45,0,0
66753,-200,4,2,1,80,0,0
67253,-100,4,2,1,70,0,0
71003,-66.6666666666667,4,2,1,70,0,0
71253,-100,4,2,1,70,0,0
71503,-66.6666666666667,4,2,1,70,0,0
71753,-100,4,2,1,70,0,0
72003,-66.6666666666667,4,2,1,70,0,0
72503,-66.6666666666667,4,2,1,70,0,0
73253,-100,4,2,1,70,0,0
74253,-133.333333333333,4,2,1,70,0,0
74753,-80,4,2,1,70,0,0
75253,-100,4,2,1,70,0,0
79253,-200,4,2,1,55,0,0
80253,250,3,2,1,55,1,0
80253,-250,3,2,1,55,0,0
87753,-357.142857142857,3,2,1,55,0,0
88753,-357.142857142857,3,2,1,5,0,0
89503,250,4,2,1,70,1,0
91503,-111.111111111111,4,2,1,65,0,0
103503,-100,4,2,1,65,0,0
105503,-133.333333333333,4,2,1,65,0,0
109253,-111.111111111111,4,2,1,65,0,0
109503,-90.9090909090909,4,2,1,75,0,1
116628,-76.9230769230769,4,2,1,75,0,1
117128,-90.9090909090909,4,2,1,75,0,1
123503,-111.111111111111,4,2,1,75,0,0
124878,-122.699386503067,4,2,1,75,0,0
125503,-200,4,2,1,45,0,0
129503,-200,4,2,1,55,0,0
131503,-100,4,2,1,65,0,0
135503,-333.333333333333,4,2,1,40,0,0
136003,-333.333333333333,4,2,1,45,0,0
136503,-100,4,2,1,65,0,0
138253,-66.6666666666667,4,2,1,65,0,0
138503,-100,4,2,1,65,0,0
140253,-66.6666666666667,4,2,1,65,0,0
140503,-100,4,2,1,65,0,0
148503,-80,4,2,1,65,0,0
150503,-100,4,2,1,65,0,0
150940,-100,4,2,1,5,0,0
151003,-100,4,2,1,65,0,0
151440,-100,4,2,1,5,0,0
151503,-100,4,2,1,65,0,0
156503,-83.3333333333333,4,2,1,75,0,1
164253,-66.6666666666667,4,2,1,75,0,1
164503,-200,4,2,1,60,0,0
168503,-147.058823529412,4,2,1,60,0,0
170190,-147.058823529412,4,2,1,5,0,0
170253,-80,4,2,1,75,0,0
170503,-100,4,2,1,75,0,0
174253,-66.6666666666667,4,2,1,75,0,0
174503,-100,4,2,1,75,0,0
174753,-66.6666666666667,4,2,1,75,0,0
175003,-100,4,2,1,75,0,0
175253,-66.6666666666667,4,2,1,75,0,0
176503,-100,4,2,1,75,0,0
177503,-133.333333333333,4,2,1,75,0,0
178003,-80,4,2,1,75,0,0
178503,-100,4,2,1,75,0,0
181878,-76.9230769230769,4,2,1,75,0,0
182190,-76.9230769230769,4,2,1,5,0,0
182253,-76.9230769230769,4,2,1,75,0,0
183503,-76.9230769230769,4,2,1,25,0,0

[Colours]
Combo1 : 255,102,179
Combo2 : 0,128,128
Combo3 : 181,181,255
Combo4 : 227,13,45

[HitObjects]
68,183,253,6,0,P|61:164|45:150,3,42.5,4|0|0|0,0:0|0:0|0:0|0:0,0:0:0:0:
68,183,503,2,0,P|84:169|92:150,3,42.5,0|0|0|2,0:0|0:0|0:0|0:0,0:0:0:0:
68,183,753,2,0,P|85:194|106:196,3,42.5,0|0|2|0,0:0|0:0|0:0|0:0,0:0:0:0:
68,183,1003,2,0,P|62:203|67:223,3,42.5,0|2|0|0,0:0|0:0|0:0|0:0,0:0:0:0:
139,264,1253,6,0,P|159:259|180:257,3,42.5,2|0|2|0,0:0|0:0|0:0|0:0,0:0:0:0:
232,162,1503,6,0,P|257:166|282:168,3,50.9999984436036,2|0|2|0,0:0|0:0|0:0|0:0,0:0:0:0:
330,274,1753,6,0,P|358:265|387:262,3,59.4999981842042,2|0|2|0,0:0|0:0|0:0|0:0,0:0:0:0:
438,158,2003,5,2,0:0:0:0:
432,134,2065,1,2,0:0:0:0:
440,111,2128,1,2,0:0:0:0:
432,88,2190,1,2,0:0:0:0:
443,61,2253,6,0,B|342:38|357:125|239:122,1,203.999993774414,4|2,1:2|0:0,0:0:0:0:
69,61,3253,2,0,B|170:38|155:125|273:122,1,203.999993774414,2|2,0:0|0:0,0:0:0:0:
302,281,4253,2,0,B|325:218|258:171|186:218|212:283,2,203.999993774414,2|2|2,0:0|0:0|0:0,0:0:0:0:
60,346,5753,6,0,P|63:304|49:264,1,85
15,178,6253,1,2,0:3:0:0:
105,193,6503,1,0,0:0:0:0:
1,88,6753,1,2,0:3:0:0:
147,112,7003,1,0,0:0:0:0:
83,48,7253,6,0,P|128:66|200:22,1,127.5,2|2,0:3|0:3,0:0:0:0:
372,165,8003,1,2,0:1:0:0:
456,146,8128,1,2,0:1:0:0:
293,126,8253,5,0,1:0:0:0:
360,248,8503,1,2,0:1:0:0:
471,133,8628,1,2,0:1:0:0:
281,109,8753,5,0,1:0:0:0:
356,269,9003,1,2,0:1:0:0:
487,119,9128,2,0,L|478:27,1,85,4|0,1:2|0:0,0:0:0:0:
367,168,9378,5,0,1:0:0:0:
476,321,9503,2,0,P|505:291|505:249,1,85,4|0,1:2|0:0,0:0:0:0:
385,68,9753,1,0,1:0:0:0:
115,220,10003,6,2,B|101:222|87:229|87:229|104:198|176:188|228:233,1,152.999995330811,2|0,0:1|0:1,0:1:0:0:
280,243,10253,6,0,B|286:202|286:202|266:162,1,85,4|0,1:2|0:0,0:0:0:0:
327,47,10503,2,0,B|321:88|321:88|340:127,1,85,8|0,0:0|0:0,0:0:0:0:
118,201,10753,6,0,P|160:202|200:215,1,85,2|0,1:2|0:0,0:0:0:0:
489,87,11003,2,0,P|446:85|406:72,1,85,8|0,0:0|0:0,0:0:0:0:
153,27,11253,5,2,1:2:0:0:
253,142,11378,2,0,L|237:36,1,85,2|8,0:1|0:0,0:0:0:0:
183,230,11628,1,2,0:0:0:0:
341,177,11753,2,0,P|383:176|410:207,1,85,2|0,1:0|0:0,0:0:0:0:
394,356,12003,2,0,P|343:323|343:262,1,127.5,8|0,0:0|0:0,0:0:0:0:
409,206,12253,6,0,P|451:204|492:195,1,85,2|0,1:2|0:0,0:0:0:0:
252,148,12503,2,0,P|261:189|263:231,1,85,8|0,0:0|0:0,0:0:0:0:
403,124,12753,6,0,P|405:81|414:40,1,85,2|0,1:2|0:0,0:0:0:0:
208,308,13003,2,0,P|250:310|291:319,1,85,8|0,0:0|0:0,0:0:0:0:
170,97,13253,5,2,1:2:0:0:
29,185,13378,2,0,L|144:174,1,85,2|8,0:1|0:0,0:0:0:0:
245,46,13628,1,2,0:0:0:0:
138,265,13753,2,0,P|148:324|206:344,1,127.5,2|0,1:0|0:0,0:0:0:0:
275,295,14003,6,2,B|340:304|340:304|371:336|371:336|480:354,1,191.250007295609,12|0,0:2|0:0,0:0:0:0:
498,255,14253,2,0,L|413:265,1,85,0|0,1:0|0:0,0:0:0:0:
233,202,14503,6,2,P|220:133|342:95,1,191.250007295609,10|0,0:1|0:0,0:0:0:0:
371,138,14753,2,0,P|365:189|331:222,1,85,0|0,1:0|0:0,0:0:0:0:
110,170,15003,6,2,P|204:185|294:156,1,191.250007295609,10|0,0:1|0:0,0:0:0:0:
389,60,15253,1,0,1:0:0:0:
274,252,15378,1,0,0:0:0:0:
185,43,15503,6,2,B|144:8|84:12|71:79|127:67,1,127.500004863739,10|0,0:1|0:0,0:0:0:0:
344,213,15753,2,2,B|385:178|445:182|458:249|402:237,1,127.500004863739,2|0,1:0|0:0,0:0:0:0:
285,39,16003,6,0,B|295:144|226:111|253:245,1,191.250007295609,10|0,0:2|0:0,0:0:0:0:
236,298,16253,6,0,P|196:286|176:250,1,85,4|0,1:2|0:0,0:0:0:0:
326,194,16503,2,0,P|335:234|314:269,1,85,10|0,0:2|0:0,0:0:0:0:
217,151,16753,2,0,P|213:108|205:67,1,85,2|0,1:2|0:0,0:0:0:0:
360,52,17003,1,10,0:2:0:0:
115,173,17128,1,2,0:0:0:0:
309,384,17253,6,0,P|312:288|325:193,1,191.250007295609,0|0,1:0|0:0,0:0:0:0:
487,233,17753,6,0,B|420:231|369:177|369:177|316:273|216:258,1,318.75,2|0,0:0|0:0,0:0:0:0:
49,168,18253,6,0,P|77:138|130:140,1,85,4|0,1:0|0:0,0:0:0:0:
44,259,18503,1,8,0:0:0:0:
138,47,18628,2,0,L|121:217,1,170,0|0,1:0|1:0,0:0:0:0:
122,302,19003,2,0,P|174:322|188:267,1,127.5,12|0,0:0|0:0,0:0:0:0:
269,165,19253,6,0,P|310:167|339:198,1,85,0|0,1:0|0:0,0:0:0:0:
336,87,19503,1,8,0:0:0:0:
267,247,19628,2,0,L|250:77,1,170,0|0,1:0|1:0,0:0:0:0:
199,289,20003,2,0,P|209:344|263:325,1,127.5,12|0,0:0|0:0,0:0:0:0:
338,303,20253,2,0,L|450:295,1,85,0|0,1:0|0:0,0:0:0:0:
404,60,20503,6,0,P|388:99|383:141,1,85,8|0,0:0|1:0,0:0:0:0:
122,93,20753,2,0,P|149:125|163:164,1,85,0|0,0:0|1:0,0:0:0:0:
253,3,21003,2,0,L|264:87,1,85,8|0,0:0|0:0,0:0:0:0:
435,303,21253,5,2,1:2:0:0:
155,192,21378,1,2,1:2:0:0:
397,162,21503,1,2,1:2:0:0:
152,340,21628,2,0,B|122:328|84:325|84:325|258:304,1,212.5,2|0,1:2|0:0,0:0:0:0:
491,238,22253,5,4,1:0:0:0:
502,116,22503,1,0,0:0:0:0:
405,257,22753,1,2,0:0:0:0:
420,81,23003,1,0,0:0:0:0:
440,172,23253,1,2,0:0:0:0:
72,172,23503,6,0,L|82:110,3,42.5,0|2|2|2,0:0|0:0|0:0|0:0,0:0:0:0:
150,93,23753,1,2,1:2:0:0:
0,207,23878,1,2,1:2:0:0:
166,305,24003,2,0,L|155:200,1,85,10|0,0:0|0:0,0:0:0:0:
263,72,24253,6,0,P|304:69|338:93,2,85,4|0|8,1:2|0:0|0:0,0:0:0:0:
157,220,24628,1,0,0:0:0:0:
277,151,24753,1,0,1:0:0:0:
110,139,24878,2,0,L|6:129,1,85,0|8,1:0|0:0,0:0:0:0:
25,130,25128,6,0,L|205:117,2,170,0|2|2,1:0|1:2|0:0,0:0:0:0:
285,110,25753,1,2,1:2:0:0:
102,34,25878,1,0,1:0:0:0:
116,220,26003,2,0,P|144:258|225:248,1,127.5,8|0,0:0|0:0,0:0:0:0:
289,213,26253,6,0,L|390:226,1,85,0|0,1:0|0:0,0:0:0:0:
355,363,26503,1,8,0:0:0:0:
512,261,26628,2,0,B|468:253|468:253|437:279,1,85,0|0,0:0|1:0,0:0:0:0:
379,86,26878,2,0,B|423:94|423:94|453:67,1,85,0|8,1:0|0:0,0:0:0:0:
512,158,27128,6,0,L|449:175,1,42.5,0|0,1:0|0:0,0:0:0:0:
246,228,27378,2,0,L|287:216,1,42.5,2|0,1:0|0:0,0:0:0:0:
378,193,27628,5,2,0:1:0:0:
385,108,27753,2,0,L|378:193,1,85,2|0,1:0|1:0,0:0:0:0:
435,347,28003,2,0,P|394:300|333:307,1,127.5,8|0,0:0|0:0,0:0:0:0:
263,352,28253,6,0,L|157:335,1,85,0|0,1:0|0:0,0:0:0:0:
71,147,28503,1,8,0:0:0:0:
70,335,28628,1,0,0:0:0:0:
213,200,28753,1,0,1:0:0:0:
42,236,28878,6,0,P|82:245|119:227,1,85,0|8,1:0|0:0,0:0:0:0:
267,33,29128,2,0,P|238:63|235:104,1,85,0|0,1:0|0:0,0:0:0:0:
330,329,29378,2,0,P|318:289|283:265,1,85,2|8,1:2|0:0,0:0:0:0:
213,200,29628,5,2,0:0:0:0:
384,159,29753,2,0,L|301:178,1,85,2|0,1:2|1:0,0:0:0:0:
88,228,30003,2,0,L|213:200,1,127.5,8|0,0:0|0:0,0:0:0:0:
301,178,30253,6,0,P|324:219|307:271,1,85,4|0,1:2|0:0,0:0:0:0:
107,127,30503,2,0,P|131:86|184:75,1,85,8|0,0:0|0:0,0:0:0:0:
318,254,30753,1,0,1:0:0:0:
175,310,30878,2,0,P|127:309|91:268,1,85,0|8,1:0|0:0,0:0:0:0:
99,286,31128,6,0,P|172:293|229:218,1,170,0|0,1:0|1:0,0:0:0:0:
229,76,31503,1,8,0:0:0:0:
146,217,31628,1,0,0:0:0:0:
307,273,31753,2,0,L|416:253,1,85,0|0,1:0|1:0,0:0:0:0:
135,126,32003,2,0,L|26:106,1,85,8|0,0:0|0:0,0:0:0:0:
341,40,32253,6,0,P|317:74|320:116,1,85,0|0,1:0|0:0,0:0:0:0:
390,257,32503,1,8,0:0:0:0:
416,101,32628,1,0,0:0:0:0:
301,205,32753,1,0,1:0:0:0:
458,188,32878,2,0,P|486:224|481:271,1,85,0|8,1:0|0:0,0:0:0:0:
374,357,33128,6,0,L|304:348,1,42.5,0|0,1:0|0:0,0:0:0:0:
104,325,33378,2,0,L|146:330,1,42.5,2|0,1:0|0:0,0:0:0:0:
235,342,33628,5,2,0:1:0:0:
227,257,33753,2,0,L|234:341,1,85,2|0,1:0|1:0,0:0:0:0:
337,93,34003,2,0,L|324:249,1,127.5,8|0,0:0|0:0,0:0:0:0:
395,263,34253,6,0,P|437:263|461:141,1,170,0|8,1:0|0:0,0:0:0:0:
248,131,34628,1,0,0:0:0:0:
323,298,34753,1,0,1:0:0:0:
351,87,34878,1,0,1:0:0:0:
214,247,35003,1,8,0:0:0:0:
227,31,35128,6,0,L|131:18,1,85,0|0,1:0|0:0,0:0:0:0:
349,173,35378,2,0,P|390:169|421:140,1,85,2|8,1:0|0:0,0:0:0:0:
333,37,35628,1,2,0:0:0:0:
201,165,35753,1,2,1:0:0:0:
359,267,35878,1,0,1:0:0:0:
248,60,36003,2,0,L|104:41,1,127.5,8|0,0:0|0:0,0:0:0:0:
33,18,36253,6,0,B|-22:104|19:175|80:192|62:274|27:311|27:311|50:230|4:182,1,425,4|2,1:2|0:0,0:0:0:0:
19,200,37128,1,0,0:0:0:0:
104,59,37253,6,0,P|112:132|181:106,1,170,4|2,1:2|0:0,0:0:0:0:
407,59,37753,2,0,P|399:132|330:106,1,170,4|2,1:2|0:0,0:0:0:0:
256,32,38128,1,0,0:0:0:0:
256,260,38253,6,0,L|256:304,1,42.5,0|0,1:0|0:0,0:0:0:0:
156,232,38503,2,0,L|137:276,1,42.5,10|0,0:0|0:0,0:0:0:0:
356,232,38753,2,0,L|375:276,1,42.5,2|0,1:2|0:0,0:0:0:0:
256,180,39003,1,8,0:0:0:0:
256,302,39128,6,0,L|256:260,1,42.5,2|0,1:2|0:0,0:0:0:0:
256,180,39378,1,0,1:0:0:0:
256,15,39503,2,0,L|256:100,1,85,10|2,0:0|1:0,0:0:0:0:
156,232,39878,6,0,L|140:172,1,42.5,2|0,0:1|1:0,0:0:0:0:
356,232,40128,2,0,L|372:172,1,42.5,2|4,0:1|1:2,0:0:0:0:
439,148,40378,6,0,P|455:89|408:53,1,127.500004863739
344,112,40753,2,0,B|276:92|280:144|212:128,1,127.500004863739,10|0,0:0|0:0,0:0:0:0:
32,84,41253,5,2,1:2:0:0:
112,104,41378,1,0,0:0:0:0:
56,164,41503,1,0,0:0:0:0:
32,84,41628,2,0,L|28:16,1,63.7500024318696,2|8,0:0|0:0,0:0:0:0:
176,235,41878,6,0,P|151:255|120:251,1,63.7500024318696,2|0,0:1|0:0,0:0:0:0:
184,256,42128,2,0,P|159:275|128:271,1,63.7500024318696,2|0,0:1|1:0,0:0:0:0:
192,116,42378,6,0,P|255:110|315:129,1,127.500004863739
387,179,42753,2,0,B|407:135|407:135|379:47,1,127.500004863739,10|0,0:0|0:0,0:0:0:0:
383,60,43128,1,0,0:0:0:0:
311,211,43253,5,2,1:2:0:0:
479,111,43378,1,0,0:0:0:0:
315,129,43503,1,2,0:0:0:0:
504,195,43628,2,0,P|491:265|491:327,1,127.500004863739,2|0,0:0|0:0,0:0:0:0:
401,172,44003,1,2,0:0:0:0:
209,273,44253,6,0,P|164:306|111:294,1,113.333333333333,4|0,0:3|0:0,0:0:0:0:
32,307,44503,2,0,L|37:234,1,56.6666666666667,2|0,0:3|0:0,0:0:0:0:
4,101,44753,6,0,P|17:117|36:126,1,42.5,4|0,1:2|0:0,0:0:0:0:
143,109,44878,2,0,P|167:75|167:33,1,85,2|0,0:1|0:0,0:0:0:0:
344,33,45128,6,0,P|348:115|418:156,2,170,2|2|8,0:0|0:0|0:3,0:0:0:0:
428,31,45753,6,0,L|421:73,1,42.5,4|0,1:2|0:0,0:0:0:0:
394,238,45878,2,0,L|378:333,1,85,2|0,0:1|0:0,0:0:0:0:
379,321,46253,6,0,P|344:344|303:339,1,85.0000032424928,4|8,1:2|3:0,0:0:0:0:
184,244,46586,1,4,3:0:0:0:
211,135,46753,6,0,P|248:153|264:191,1,85.0000032424928,4|8,1:2|3:0,0:0:0:0:
207,333,47086,1,4,3:0:0:0:
333,251,47253,6,0,B|396:242|396:242|437:252|437:252|506:242,2,170,2|2|2,1:0|1:0|1:0,0:0:0:0:
73,290,48003,1,0,3:0:0:0:
74,279,48065,1,0,3:0:0:0:
75,268,48128,1,0,3:0:0:0:
77,258,48190,1,0,3:0:0:0:
78,247,48253,6,0,L|70:162,2,85,2|2|2,0:0|0:0|0:0,0:0:0:0:
154,217,48878,2,0,L|149:174,2,42.5
143,295,49253,5,4,1:2:0:0:
62,83,49378,1,0,0:0:0:0:
265,161,49503,2,0,P|227:188|181:185,1,93.5000028533936,10|0,0:2|0:0,0:0:0:0:
46,221,49753,2,0,B|129:216|116:294|234:276,1,187.000005706787,2|8,1:2|0:0,0:0:0:0:
351,189,50128,6,0,L|339:83,1,93.5000028533936,2|0,0:0|1:0,0:0:0:0:
181,185,50378,1,0,0:0:0:0:
265,347,50503,2,0,P|298:316|299:271,1,93.5000028533936,10|0,0:2|0:0,0:0:0:0:
215,109,50753,2,0,P|181:139|180:184,1,93.5000028533936,2|0,1:2|0:0,0:0:0:0:
397,275,51003,2,0,B|516:252|516:252|493:300,1,140.25000428009,10|0,0:2|0:0,0:0:0:0:
451,218,51253,6,0,L|436:96,1,93.5000028533936,2|0,1:2|0:0,0:0:0:0:
294,52,51503,2,0,L|309:174,1,93.5000028533936,8|0,0:0|0:0,0:0:0:0:
280,320,51753,2,0,B|193:276|202:362|103:342,1,187.000005706787,2|8,1:2|0:0,0:0:0:0:
11,293,52128,1,0,0:0:0:0:
224,207,52253,5,2,1:2:0:0:
114,159,52378,2,0,P|127:204|130:251,1,93.5000028533936,0|8,0:0|0:0,0:0:0:0:
103,342,52628,1,2,0:0:0:0:
32,122,52753,2,0,P|73:68|139:74,1,140.25000428009,2|0,1:0|0:0,0:0:0:0:
207,128,53003,2,0,L|306:115,1,93.5000028533936,10|0,0:1|0:0,0:0:0:0:
453,56,53253,5,2,1:0:0:0:
380,265,53378,1,2,0:3:0:0:
443,83,53503,1,8,0:0:0:0:
370,292,53628,1,2,0:3:0:0:
330,77,53753,5,2,1:0:0:0:
482,246,53878,1,2,0:3:0:0:
349,98,54003,1,8,0:0:0:0:
501,267,54128,1,2,0:1:0:0:
307,181,54253,5,0,1:0:0:0:
512,142,54378,1,2,0:1:0:0:
449,337,54503,1,8,0:0:0:0:
418,180,54628,2,0,L|400:77,2,93.5000028533936,2|2|2,0:3|1:0|0:3,0:0:0:0:
302,289,55003,5,8,0:0:0:0:
272,302,55065,1,2,0:0:0:0:
239,301,55128,1,2,0:3:0:0:
208,288,55190,1,2,0:0:0:0:
188,262,55253,5,2,1:2:0:0:
396,291,55378,1,2,0:3:0:0:
218,190,55503,5,10,0:2:0:0:
386,213,55628,1,2,0:3:0:0:
248,118,55753,5,2,1:2:0:0:
376,135,55878,1,2,0:3:0:0:
278,46,56003,5,10,0:2:0:0:
366,57,56128,1,2,0:3:0:0:
307,196,56253,5,6,1:2:0:0:
85,106,56378,2,0,P|130:75|184:78,1,110.499994941712,2|0,1:0|0:0,0:0:0:0:
165,340,56628,2,0,P|111:337|70:301,1,110.499994941712,2|0,1:0|0:0,0:0:0:0:
204,209,56878,5,8,0:3:0:0:
400,188,57003,2,0,L|307:196,1,93.5000028533936,4|10,1:3|0:3,0:0:0:0:
102,219,57253,5,4,1:2:0:0:
252,104,57378,1,0,0:0:0:0:
269,314,57503,2,0,P|322:322|358:285,1,93.5000028533936,10|0,0:2|0:0,0:0:0:0:
197,186,57753,2,0,L|2:168,1,187.000005706787,2|8,1:2|0:0,0:0:0:0:
109,312,58128,6,0,L|102:219,1,93.5000028533936,2|0,0:0|1:0,0:0:0:0:
158,56,58378,1,0,0:0:0:0:
273,225,58503,2,0,P|321:228|363:184,1,93.5000028533936,10|0,0:0|0:0,0:0:0:0:
78,96,58753,2,0,P|145:85|196:131,1,140.25000428009,2|0,1:2|0:0,0:0:0:0:
195,211,59003,6,0,L|70:221,1,93.5000028533936,10|0,0:0|0:0,0:0:0:0:
295,236,59253,2,0,L|304:142,1,93.5000028533936,2|0,1:2|0:0,0:0:0:0:
394,18,59503,6,0,L|377:194,1,140.25000428009,8|0,0:0|0:0,0:0:0:0:
410,232,59753,2,0,P|467:233|496:188,1,93.5000028533936,2|0,1:2|0:0,0:0:0:0:
303,33,60003,2,0,P|246:32|217:77,1,93.5000028533936,8|0,0:0|0:0,0:0:0:0:
129,239,60253,5,2,1:2:0:0:
248,138,60378,2,0,P|201:137|159:117,1,93.5000028533936,2|8,0:1|0:0,0:0:0:0:
159,329,60628,1,2,0:0:0:0:
270,235,60753,2,0,B|366:208|343:288|455:274,1,187.000005706787,2|8,1:0|0:0,0:0:0:0:
420,188,61128,1,0,0:0:0:0:
293,323,61253,5,2,1:0:0:0:
185,174,61378,1,2,0:3:0:0:
39,280,61503,1,8,0:0:0:0:
270,235,61628,1,2,0:3:0:0:
31,84,61753,5,2,1:0:0:0:
185,174,61878,1,2,0:3:0:0:
294,29,62003,1,8,0:0:0:0:
88,162,62128,1,2,0:3:0:0:
277,131,62253,6,0,P|327:126|399:116,1,93.5000028533936,2|2,1:0|0:3,0:0:0:0:
182,268,62503,1,8,0:0:0:0:
323,340,62628,2,0,P|399:297|384:211,1,187.000005706787,2|2,0:1|0:3,0:0:0:0:
182,268,63003,2,0,P|188:319|192:374,1,93.5000028533936,8|2,0:0|0:3,0:0:0:0:
265,205,63253,5,2,1:0:0:0:
84,302,63378,1,2,0:3:0:0:
284,339,63503,2,0,L|384:349,1,93.5000028533936,8|2,0:0|0:3,0:0:0:0:
191,360,63753,5,2,1:0:0:0:
159,137,63878,1,2,0:3:0:0:
284,339,64003,1,8,0:0:0:0:
252,116,64128,1,2,0:3:0:0:
380,315,64253,5,2,1:2:0:0:
66,162,64378,1,2,1:2:0:0:
434,22,64628,6,0,B|453:132|386:96|417:228,1,187.000005706787,4|0,1:0|0:0,0:0:0:0:
473,275,65003,2,0,P|504:241|504:195,1,93.5000028533936,4|0,1:2|0:0,0:0:0:0:
347,61,65253,6,0,L|248:49,1,85,2|0,0:0|0:0,0:0:0:0:
262,50,65628,1,0,0:0:0:0:
277,135,65753,1,0,0:0:0:0:
291,219,65878,1,0,0:0:0:0:
305,303,66003,2,0,L|249:311,1,42.5,0|2,0:0|0:0,0:0:0:0:
262,310,66378,5,0,0:0:0:0:
241,304,66440,1,2,0:0:0:0:
219,302,66503,1,2,0:0:0:0:
198,306,66565,1,2,0:0:0:0:
179,317,66628,1,2,0:0:0:0:
164,332,66690,1,2,0:0:0:0:
155,351,66753,5,2,1:0:0:0:
444,199,66878,1,2,1:0:0:0:
168,25,67003,1,6,1:0:0:0:
168,25,67253,6,0,P|178:69|181:128,1,85,4|0,1:2|0:0,0:0:0:0:
237,182,67503,2,0,P|259:145|275:106,1,85,8|0,0:0|0:0,0:0:0:0:
47,266,67753,6,0,P|98:249|140:244,1,85,2|0,1:2|0:0,0:0:0:0:
188,358,68003,2,0,P|149:340|109:329,1,85,8|0,0:0|0:0,0:0:0:0:
95,162,68253,5,2,1:2:0:0:
221,271,68378,2,0,P|274:276|331:175,1,170,2|2,0:1|0:0,0:0:0:0:
269,21,68753,2,0,L|274:105,1,85,2|0,1:0|0:0,0:0:0:0:
425,237,69003,2,0,L|430:152,1,85,8|0,0:0|0:0,0:0:0:0:
178,45,69253,6,0,P|136:52|103:79,1,85,2|0,1:2|0:0,0:0:0:0:
134,199,69503,2,0,P|145:158|175:128,1,85,8|0,0:0|0:0,0:0:0:0:
417,115,69753,6,0,P|402:75|371:46,1,85,2|0,1:2|0:0,0:0:0:0:
256,94,70003,2,0,P|297:99|332:124,1,85,8|0,0:0|0:0,0:0:0:0:
379,293,70253,5,2,1:2:0:0:
479,198,70378,2,0,L|394:204,1,85,2|8,0:1|0:0,0:0:0:0:
280,304,70628,1,2,0:0:0:0:
134,199,70753,2,0,P|195:191|243:231,1,127.5,2|0,1:0|0:0,0:0:0:0:
280,304,71003,6,2,P|232:236|292:136,1,191.250007295609,12|0,0:2|0:0,0:0:0:0:
353,127,71253,2,0,P|355:168|332:203,1,85,0|0,1:0|0:0,0:0:0:0:
119,110,71503,6,2,B|192:103|192:103|230:65|230:65|316:55,1,191.250007295609,10|0,0:1|0:0,0:0:0:0:
371,36,71753,2,0,L|270:27,1,85,0|0,1:0|0:0,0:0:0:0:
131,190,72003,6,2,P|199:130|172:44,1,191.250007295609,10|0,0:1|0:0,0:0:0:0:
92,33,72253,1,0,1:0:0:0:
222,186,72378,1,0,0:0:0:0:
58,327,72503,6,2,B|15:269|51:184|65:262,1,127.500004863739,10|0,0:1|0:0,0:0:0:0:
299,220,72753,2,2,B|342:162|306:77|292:155,1,127.500004863739,2|0,1:0|0:0,0:0:0:0:
143,296,73003,6,0,B|239:275|221:347|332:347,1,191.250007295609,10|0,0:2|0:0,0:0:0:0:
394,315,73253,6,0,P|411:277|402:236,1,85,4|0,1:2|0:0,0:0:0:0:
151,133,73503,2,0,P|133:170|142:211,1,85,10|0,0:2|0:0,0:0:0:0:
417,146,73753,2,0,P|377:159|335:166,1,85,2|0,1:2|0:0,0:0:0:0:
214,273,74003,1,10,0:2:0:0:
305,75,74128,1,2,0:0:0:0:
485,284,74253,6,0,P|394:254|298:249,1,191.250007295609,0|0,1:0|0:0,0:0:0:0:
99,195,74753,6,0,B|149:236|237:210|263:161|263:161|195:205|212:273,1,318.75,2|0,0:0|0:0,0:0:0:0:
276,335,75253,6,0,P|235:316|189:376,1,127.5,4|0,1:0|0:0,0:0:0:0:
188,370,75503,1,8,0:0:0:0:
44,255,75628,2,0,P|86:262|129:267,1,85,0|0,1:0|0:0,0:0:0:0:
0,344,75878,1,0,1:0:0:0:
209,227,76003,2,0,P|210:185|137:140,1,127.5,12|0,0:0|0:0,0:0:0:0:
81,94,76253,6,0,L|232:77,1,127.5,0|0,1:0|0:0,0:0:0:0:
271,28,76503,1,8,0:0:0:0:
382,176,76628,2,0,P|340:183|303:164,1,85,0|0,1:0|0:0,0:0:0:0:
458,45,76878,1,0,1:0:0:0:
441,238,77003,2,0,L|420:91,1,127.5,12|0,0:0|0:0,0:0:0:0:
458,45,77253,2,0,L|473:155,1,85,0|0,1:0|0:0,0:0:0:0:
375,336,77503,6,0,P|344:307|303:297,1,85,8|0,0:0|1:0,0:0:0:0:
162,117,77753,2,0,P|133:147|123:188,1,85,0|0,0:0|1:0,0:0:0:0:
353,193,78003,2,0,P|292:179|236:206,1,127.5,8|0,0:0|0:0,0:0:0:0:
169,267,78253,5,2,1:2:0:0:
360,65,78378,1,2,1:2:0:0:
303,297,78503,1,2,1:2:0:0:
201,35,78628,2,0,B|104:-4|-29:58|66:131|122:73|42:-11,1,255,2|0,1:2|0:0,0:0:0:0:
141,106,79128,6,8,P|147:138|131:173,1,42.5,8|8,0:3|0:3,0:3:0:0:
78,187,79253,2,0,P|119:190|147:221,3,85,4|0|0|0,0:0|0:0|0:0|0:0,0:0:0:0:
73,335,80253,6,0,P|79:302|83:268,1,68,2|0,0:0|0:0,0:0:0:0:
150,367,80753,2,0,P|156:333|160:299,1,68,2|0,0:0|0:0,0:0:0:0:
438,335,81753,6,0,P|432:302|428:268,1,68,2|0,0:0|0:0,0:0:0:0:
362,367,82253,2,0,P|355:333|351:299,1,68,2|0,0:0|0:0,0:0:0:0:
256,116,83003,5,0,0:0:0:0:
204,184,83253,2,0,P|266:203|322:167,1,136,2|0,0:0|0:0,0:0:0:0:
308,48,84003,2,0,P|245:28|189:64,1,136,2|0,0:0|0:0,0:0:0:0:
379,101,84753,6,0,B|447:82|443:127|510:115,2,136,2|2|2,0:0|0:0|0:0,0:0:0:0:
322,167,86003,1,0,0:0:0:0:
400,211,86253,6,0,P|439:259|424:326,1,136,2|0,0:0|0:0,0:0:0:0:
299,354,87003,2,0,P|259:305|274:238,1,136,2|0,0:0|0:0,0:0:0:0:
346,281,87753,6,0,P|256:252|162:260,1,190.400002324219,2|0,0:0|0:0,0:0:0:0:
162,260,89503,6,0,P|158:217|150:175,1,85,4|0,1:0|0:0,0:0:0:0:
303,27,89753,1,0,1:0:0:0:
351,173,89878,2,0,P|354:130|362:88,1,85,0|0,1:0|0:0,0:0:0:0:
177,88,90128,2,0,P|173:45|165:3,1,85,0|0,1:0|0:0,0:0:0:0:
301,258,90378,6,0,P|337:216|445:242,1,170,4|0,1:2|0:0,0:0:0:0:
326,365,90753,1,0,3:0:0:0:
297,346,90836,1,0,3:0:0:0:
263,342,90919,1,0,3:0:0:0:
231,355,91003,6,0,L|219:280,1,56.6666666666667,0|0,3:0|0:0,0:0:0:0:
245,156,91169,2,2,P|190:105|152:169,1,170,6|0,1:0|0:0,0:1:0:0:
208,224,91503,6,0,P|264:185|356:202,2,152.999995330811,4|8|0,1:2|0:0|1:0,0:0:0:0:
49,364,92253,2,0,B|58:328|58:328|38:284,1,76.4999976654053,8|0,0:0|0:0,0:0:0:0:
109,222,92503,5,0,1:0:0:0:
234,290,92669,1,2,0:1:0:0:
215,302,92753,2,0,L|151:310,1,50.9999984436036,8|0,0:0|0:0,0:0:0:0:
151,125,92919,1,2,0:0:0:0:
171,137,93003,2,0,L|258:155,1,50.9999984436036,2|0,1:0|0:0,0:0:0:0:
306,162,93169,1,2,0:1:0:0:
306,162,93253,2,0,P|337:123|329:74,1,101.999996887207,8|0,0:0|0:0,0:0:0:0:
260,29,93503,6,0,P|207:39|147:42,1,101.999996887207,0|0,1:0|0:0,0:0:0:0:
201,213,93753,2,0,P|218:162|246:108,1,101.999996887207,8|0,0:0|0:0,0:0:0:0:
71,69,94003,2,0,P|105:109|138:160,1,101.999996887207,0|0,1:0|0:0,0:0:0:0:
114,239,94253,2,0,P|72:211|22:215,1,101.999996887207,8|0,0:0|0:0,0:0:0:0:
22,215,94503,5,0,1:0:0:0:
61,324,94669,1,2,0:1:0:0:
77,307,94753,2,0,P|124:284|177:298,1,101.999996887207,8|2,0:0|0:0,0:0:0:0:
238,336,95003,1,2,1:0:0:0:
410,219,95169,1,2,0:0:0:0:
389,234,95253,2,0,P|339:233|306:196,1,101.999996887207,8|0,0:0|0:0,0:0:0:0:
302,119,95503,5,0,1:0:0:0:
302,119,95753,2,0,P|301:69|308:9,1,101.999996887207,8|0,0:0|0:0,0:0:0:0:
224,28,96003,2,0,P|219:79|220:130,1,101.999996887207,0|0,1:0|0:0,0:0:0:0:
137,140,96253,2,0,P|136:89|142:39,1,101.999996887207,8|0,0:0|0:0,0:0:0:0:
152,172,96503,5,0,1:0:0:0:
57,126,96669,1,2,0:1:0:0:
44,143,96753,2,0,B|18:185|18:185|41:244,1,101.999996887207,8|2,0:0|0:0,0:0:0:0:
109,264,97003,2,0,P|145:303|125:358,1,101.999996887207,2|0,1:0|0:0,0:0:0:0:
226,325,97253,2,0,P|176:318|135:346,1,101.999996887207,8|0,0:0|0:0,0:0:0:0:
199,245,97503,5,0,1:0:0:0:
199,245,97753,2,0,P|247:247|310:262,1,101.999996887207,8|0,0:0|0:0,0:0:0:0:
374,231,98003,2,0,L|273:222,1,101.999996887207,0|0,1:0|0:0,0:0:0:0:
347,199,98253,2,0,P|399:209|460:210,1,101.999996887207,8|0,0:0|0:0,0:0:0:0:
501,137,98503,5,0,1:0:0:0:
501,273,98669,1,2,0:1:0:0:
511,254,98753,2,0,B|460:251|460:251|422:298,1,101.999996887207,8|2,0:0|0:0,0:0:0:0:
389,355,99003,2,0,P|331:363|302:306,1,101.999996887207,2|0,1:2|0:0,0:0:0:0:
341,261,99253,2,0,L|328:139,1,101.999996887207,10|0,0:0|0:0,0:0:0:0:
282,95,99503,6,0,B|292:181|292:181|269:219|223:199,1,152.999995330811,4|8,1:2|0:0,0:0:0:0:
185,48,99919,1,0,0:0:0:0:
204,26,100003,2,0,L|198:127,1,101.999996887207,2|0,1:0|0:0,0:0:0:0:
148,193,100253,2,0,P|99:191|68:236,1,76.4999976654053,8|2,0:0|0:1,0:0:0:0:
24,284,100503,5,0,1:0:0:0:
79,206,100628,2,0,P|126:202|186:285,1,152.999995330811,2|0,0:1|0:0,0:0:0:0:
297,354,101003,2,0,L|414:340,1,101.999996887207,2|0,1:0|0:0,0:0:0:0:
471,301,101253,1,8,0:0:0:0:
409,156,101503,6,0,B|360:148|360:148|337:160|337:160|319:144|319:144|233:129,1,152.999995330811,2|10,1:0|0:0,0:0:0:0:
153,238,101878,1,0,0:0:0:0:
153,238,102003,2,0,P|157:191|122:136,1,101.999996887207,2|0,1:0|0:0,0:0:0:0:
74,88,102253,2,0,P|58:108|54:133,2,50.9999984436036,8|0|0,0:0|0:0|0:0,0:0:0:0:
154,70,102503,6,0,B|182:77|196:101|196:101|237:62|299:80,2,152.999995330811,2|2|2,1:2|1:0|1:0,0:0:0:0:
4,257,103253,6,0,L|9:304,1,38.2499988327027,0|0,3:0|3:0,3:0:0:0:
84,267,103378,2,0,L|89:314,1,38.2499988327027,0|0,3:0|3:0,3:0:0:0:
164,277,103503,5,0,1:0:0:0:
164,277,103753,1,8,0:0:0:0:
300,213,103878,2,0,B|228:227|228:227|171:194|209:123,1,170,4|0,1:2|0:0,0:0:0:0:
332,26,104253,6,0,P|344:55|330:96,1,42.5,0|0,3:0|3:0,3:0:0:0:
204,112,104378,2,0,P|192:83|206:42,1,42.5,0|0,3:0|3:0,3:0:0:0:
268,69,104503,5,0,1:0:0:0:
268,69,104753,1,8,0:0:0:0:
300,213,104878,2,0,B|307:154|307:154|348:118|348:118|356:42,1,170,4|0,1:2|0:0,0:0:0:0:
385,202,105253,1,2,0:0:0:0:
188,319,105503,5,4,1:2:0:0:
188,319,105753,2,0,P|155:322|102:252,2,127.500004863739,0|2|0,0:0|0:0|0:0,0:0:0:0:
145,173,106503,2,0,P|232:166|255:251,2,191.250007295609,2|2|2,1:2|0:0|0:0,0:0:0:0:
277,340,107503,6,0,L|334:348,15,31.8750012159348,4|0|0|0|0|0|0|0|0|0|0|0|0|0|0|0,3:2|3:0|3:0|3:0|3:0|3:0|3:0|3:0|3:0|3:0|3:0|3:0|3:0|3:0|3:0|3:0,3:0:0:0:
373,296,108503,5,0,1:0:0:0:
384,266,108565,1,0,3:0:0:0:
381,233,108628,1,0,3:0:0:0:
369,203,108690,1,0,3:0:0:0:
344,181,108753,5,4,3:2:0:0:
316,155,108815,1,0,3:0:0:0:
305,117,108878,1,0,3:0:0:0:
315,80,108940,1,0,3:0:0:0:
345,56,109003,5,4,3:2:0:0:
389,53,109065,1,0,3:0:0:0:
427,75,109128,1,0,3:0:0:0:
446,114,109190,1,0,3:0:0:0:
432,157,109253,6,0,L|368:148,1,38.2499988327027,4|0,3:2|3:0,3:0:0:0:
254,255,109378,2,0,L|293:252,1,38.2499988327027,0|0,3:0|3:0,3:0:0:0:
457,304,109503,5,4,1:2:0:0:
276,151,109628,1,0,0:0:0:0:
146,335,109753,2,0,P|97:350|39:283,1,140.25000428009,10|0,0:0|0:0,0:0:0:0:
65,170,110003,2,0,L|72:263,1,93.5000028533936,2|0,1:2|0:0,0:0:0:0:
258,346,110253,5,8,0:0:0:0:
374,172,110378,2,0,P|328:166|293:195,1,93.5000028533936,2|0,0:0|1:0,0:0:0:0:
258,346,110628,1,0,0:0:0:0:
418,251,110753,2,0,L|524:240,1,93.5000028533936,8|0,0:2|0:0,0:0:0:0:
209,47,111003,6,0,B|192:161|192:161|232:109,1,140.25000428009,2|0,1:2|0:0,0:0:0:0:
281,110,111253,2,0,P|331:111|368:164,1,93.5000028533936,10|0,0:2|0:0,0:0:0:0:
184,256,111503,6,0,P|117:248|74:338,1,140.25000428009,2|0,1:2|0:0,0:0:0:0:
151,330,111753,2,0,L|270:345,1,93.5000028533936,8|0,0:0|0:0,0:0:0:0:
427,253,112003,2,0,P|390:225|344:228,1,93.5000028533936,2|0,1:2|0:0,0:0:0:0:
218,58,112253,2,0,P|245:121|237:190,1,140.25000428009,8|0,0:0|0:0,0:0:0:0:
184,256,112503,5,2,1:2:0:0:
61,113,112628,2,0,L|153:133,1,93.5000028533936,0|8,0:0|0:0,0:0:0:0:
314,60,112878,1,2,0:2:0:0:
92,213,113003,1,2,1:0:0:0:
340,320,113128,1,0,0:0:0:0:
340,320,113190,1,0,0:0:0:0:
340,320,113253,2,0,B|352:274|352:274|325:226,1,93.5000028533936,10|0,0:1|0:0,0:0:0:0:
192,111,113503,5,2,1:0:0:0:
222,348,113628,1,2,0:3:0:0:
196,137,113753,1,8,0:0:0:0:
218,322,113878,1,2,0:3:0:0:
355,22,114003,5,2,1:0:0:0:
325,259,114128,1,2,0:3:0:0:
351,48,114253,1,8,0:0:0:0:
329,233,114378,1,2,0:1:0:0:
133,216,114503,5,0,1:0:0:0:
403,144,114628,1,2,0:1:0:0:
151,14,114753,1,8,0:0:0:0:
294,126,114878,2,0,L|189:113,2,93.5000028533936,2|2|2,0:3|1:0|0:3,0:0:0:0:
468,230,115253,5,8,0:0:0:0:
493,206,115315,1,2,0:0:0:0:
509,175,115378,1,2,0:3:0:0:
511,140,115440,1,2,0:0:0:0:
501,107,115503,5,2,1:2:0:0:
201,114,115628,1,2,0:3:0:0:
422,155,115753,5,10,0:2:0:0:
190,201,115878,1,2,0:3:0:0:
370,230,116003,5,2,1:2:0:0:
205,283,116128,1,2,0:3:0:0:
356,316,116253,5,10,0:2:0:0:
253,349,116378,1,2,0:3:0:0:
293,108,116503,6,0,L|302:180,1,46.7500014266968,4|0,1:0|0:0,0:0:0:0:
479,246,116628,2,0,L|370:230,1,110.499994941712,2|0,1:0|0:0,0:0:0:0:
114,46,116878,2,0,L|223:30,1,110.499994941712,2|0,1:0|0:0,0:0:0:0:
352,18,117128,5,8,0:3:0:0:
247,242,117253,1,4,1:3:0:0:
340,43,117378,1,10,0:3:0:0:
358,324,117503,5,4,1:2:0:0:
130,157,117628,1,0,0:0:0:0:
408,148,117753,2,0,P|375:180|330:185,1,93.5000028533936,10|0,0:2|0:0,0:0:0:0:
268,293,118003,2,0,L|295:89,1,187.000005706787,2|8,1:2|0:0,0:0:0:0:
140,25,118378,6,0,B|162:69|162:69|149:124,1,93.5000028533936,2|0,0:2|1:0,0:0:0:0:
53,82,118628,1,0,0:0:0:0:
236,151,118753,2,0,P|163:144|104:246,1,187.000005706787,10|2,0:2|1:2,0:0:0:0:
294,234,119128,1,0,0:0:0:0:
204,320,119253,6,0,L|193:216,1,93.5000028533936,10|0,0:2|0:0,0:0:0:0:
317,118,119503,2,0,L|433:135,1,93.5000028533936,2|0,1:2|0:0,0:0:0:0:
455,226,119753,6,0,L|316:205,1,140.25000428009,8|0,0:0|0:0,0:0:0:0:
240,162,120003,2,0,P|224:111|248:64,1,93.5000028533936,2|0,1:2|0:0,0:0:0:0:
380,265,120253,2,0,P|396:316|372:363,1,93.5000028533936,8|0,0:0|0:0,0:0:0:0:
126,288,120503,5,2,1:2:0:0:
302,311,120628,2,0,P|254:303|206:321,1,93.5000028533936,2|8,0:1|0:0,0:0:0:0:
324,146,120878,1,2,0:0:0:0:
194,227,121003,2,0,B|119:186|155:97|155:97|156:135|175:146,1,187.000005706787,2|8,1:0|0:0,0:0:0:0:
278,223,121378,1,0,0:0:0:0:
34,213,121503,5,2,1:0:0:0:
246,100,121628,1,2,0:3:0:0:
73,92,121753,1,8,0:0:0:0:
278,223,121878,1,2,0:3:0:0:
154,332,122003,5,2,1:0:0:0:
165,41,122128,1,2,0:3:0:0:
294,241,122253,1,8,0:0:0:0:
18,226,122378,1,2,0:3:0:0:
246,100,122503,5,2,1:0:0:0:
163,247,122628,2,0,P|158:196|146:130,1,93.5000028533936,2|8,0:3|0:0,0:0:0:0:
328,32,122878,2,0,P|348:117|435:131,1,187.000005706787,2|2,0:1|0:3,0:0:0:0:
402,59,123253,5,8,0:0:0:0:
355,65,123315,1,2,0:0:0:0:
309,71,123378,1,2,0:0:0:0:
262,76,123440,1,2,0:0:0:0:
216,82,123503,6,2,P|140:78|39:67,1,152.999995330811,2|0,1:0|0:0,0:0:0:0:
292,300,124003,2,2,P|367:303|468:314,1,152.999995330811,2|0,1:0|0:0,0:0:0:0:
408,156,124503,5,2,1:2:0:0:
104,228,124628,1,2,1:2:0:0:
324,224,124878,6,0,P|225:124|228:262,1,346.374999735737,4|2,1:2|0:0,0:0:0:0:
373,307,129503,6,0,P|409:251|409:139,1,170,2|2,1:2|1:2,0:0:0:0:
138,79,130503,1,2,1:2:0:0:
124,95,130565,1,0,3:0:0:0:
112,112,130628,1,0,3:0:0:0:
103,131,130690,1,0,3:0:0:0:
96,152,130753,1,0,3:0:0:0:
92,173,130815,1,0,3:0:0:0:
91,194,130878,1,0,3:0:0:0:
93,215,130940,1,0,3:0:0:0:
98,236,131003,5,2,3:2:0:0:
128,226,131065,1,0,3:0:0:0:
160,226,131128,1,0,3:0:0:0:
190,233,131190,1,0,3:0:0:0:
215,252,131253,1,0,3:0:0:0:
239,272,131315,1,0,3:0:0:0:
269,282,131378,1,0,3:0:0:0:
300,280,131440,1,0,3:0:0:0:
326,262,131503,6,0,P|350:216|314:122,1,127.5,0|0,1:0|0:0,0:0:0:0:
264,106,131753,2,0,L|151:125,1,85,10|0,0:2|0:0,0:0:0:0:
172,313,132003,2,0,P|212:304|238:271,1,85,2|0,1:2|0:0,0:0:0:0:
101,81,132253,5,8,0:0:0:0:
164,231,132378,1,0,0:0:0:0:
264,106,132503,2,0,P|305:100|338:125,1,85,2|0,1:2|0:0,0:0:0:0:
319,282,132753,1,8,0:0:0:0:
187,147,132878,6,0,L|179:43,2,85,2|0|0,0:0|1:0|0:0,0:0:0:0:
270,349,133253,1,10,0:2:0:0:
412,180,133378,1,0,0:0:0:0:
237,271,133503,6,0,P|218:278|197:279,3,42.5,4|0|0|0,1:2|0:0|0:0|0:0,0:0:0:0:
319,282,133753,2,0,P|334:296|354:304,3,42.5,8|0|0|0,0:0|0:0|0:0|0:0,0:0:0:0:
222,189,134003,6,0,P|203:178|190:161,3,42.5,0|0|0|0,1:0|0:0|0:0|0:0,0:0:0:0:
354,207,134253,2,0,P|374:200|391:189,3,42.5,8|0|0|0,0:0|0:0|0:0|0:0,0:0:0:0:
298,146,134503,5,4,1:2:0:0:
296,133,134565,1,0,3:0:0:0:
294,120,134628,1,0,3:0:0:0:
292,107,134690,1,0,3:0:0:0:
290,94,134753,5,8,0:0:0:0:
336,95,134815,1,0,3:0:0:0:
376,119,134878,1,0,3:0:0:0:
396,160,134940,1,0,3:0:0:0:
395,207,135003,1,0,1:0:0:0:
373,247,135065,1,0,3:0:0:0:
334,274,135128,1,0,3:0:0:0:
286,273,135190,1,0,3:0:0:0:
243,251,135253,1,8,0:0:0:0:
209,219,135315,1,2,3:0:0:0:
162,209,135378,1,2,3:0:0:0:
119,226,135440,1,2,3:0:0:0:
92,265,135503,6,0,L|100:365,1,89.2499972763062,2|0,0:0|0:0,0:0:0:0:
84,357,136003,5,12,0:0:0:0:
82,336,136065,1,8,0:0:0:0:
81,315,136128,1,8,0:0:0:0:
79,294,136190,1,8,0:0:0:0:
78,274,136253,1,8,0:0:0:0:
76,253,136315,1,8,0:0:0:0:
75,232,136378,1,8,0:0:0:0:
73,212,136440,1,8,0:0:0:0:
72,191,136503,5,4,1:2:0:0:
183,124,136628,2,0,L|256:135,1,42.5
285,186,136753,2,0,P|332:189|369:134,1,85,8|2,0:0|0:0,0:0:0:0:
400,20,137003,6,0,L|410:104,1,85,2|0,1:2|0:0,0:0:0:0:
457,168,137190,1,2,0:0:0:0:
473,161,137253,2,0,P|481:201|463:239,1,85,8|2,0:0|0:0,0:0:0:0:
399,282,137440,1,0,0:0:0:0:
381,271,137503,5,2,1:2:0:0:
343,265,137565,1,0,0:0:0:0:
306,276,137628,1,0,0:0:0:0:
278,302,137690,1,0,0:0:0:0:
260,336,137753,6,0,L|266:379,1,42.5,10|0,0:2|0:0,0:0:0:0:
177,327,137878,2,0,L|183:370,1,42.5
94,318,138003,1,2,1:2:0:0:
94,318,138253,6,2,B|102:248|102:248|143:210|143:210|153:114,1,191.250007295609,10|0,1:0|0:0,0:0:0:0:
208,88,138503,5,2,1:2:0:0:
26,161,138628,2,0,L|68:170,1,42.5
166,239,138753,2,0,L|279:222,1,85,8|2,0:0|0:0,0:0:0:0:
370,189,139003,5,2,1:2:0:0:
345,319,139128,1,0,0:0:0:0:
336,281,139190,1,2,0:0:0:0:
493,157,139315,1,0,0:0:0:0:
485,195,139378,2,0,P|467:207|447:212,1,42.5,2|0,0:0|0:0,0:0:0:0:
370,189,139503,6,0,P|342:156|351:99,1,85,2|0,1:2|0:0,0:0:0:0:
391,266,139753,2,0,L|368:358,1,85,10|0,0:2|0:0,0:0:0:0:
447,212,140003,2,0,P|487:197|505:102,1,127.5,2|0,1:2|0:0,0:0:0:0:
463,56,140253,6,2,B|389:38|411:94|329:85,1,127.500004863739,10|0,1:1|0:0,0:1:0:0:
268,109,140440,1,0,0:0:0:0:
238,91,140503,6,0,P|186:88|137:153,1,127.5,4|0,1:0|0:0,0:0:0:0:
169,219,140753,1,10,0:0:0:0:
334,277,140878,1,2,0:0:0:0:
247,367,141003,2,0,L|240:279,1,85,2|0,1:2|0:0,0:0:0:0:
240,282,141190,1,0,0:0:0:0:
240,282,141253,1,10,0:0:0:0:
282,194,141378,1,2,0:0:0:0:
154,331,141503,5,0,1:0:0:0:
360,275,141628,1,2,0:0:0:0:
94,214,141753,1,10,0:0:0:0:
352,146,141878,1,2,0:0:0:0:
184,218,142003,6,0,P|191:237|199:258,1,42.5,2|0,1:0|0:0,0:0:0:0:
281,193,142128,2,0,P|282:214|285:236,1,42.5
120,105,142253,2,0,P|131:123|140:143,1,42.5,10|0,0:2|0:0,0:0:0:0:
276,67,142378,2,0,P|274:88|274:110,1,42.5,2|0,0:0|0:0,0:0:0:0:
263,318,142503,6,0,L|277:382,3,42.5,4|0|0|0,1:2|0:0|0:0|0:0,0:0:0:0:
209,254,142753,1,10,0:2:0:0:
241,274,142815,1,0,0:0:0:0:
279,277,142878,1,0,0:0:0:0:
315,268,142940,1,0,0:0:0:0:
347,248,143003,6,0,P|375:246|405:268,3,42.5,2|0|0|0,1:0|0:0|0:0|0:0,0:0:0:0:
455,293,143253,2,0,P|468:309|472:330,1,42.5,10|0,0:2|0:0,0:0:0:0:
453,210,143378,2,0,P|460:190|474:174,3,42.5,2|0|0|0,0:1|0:0|1:0|0:0,0:0:0:0:
384,329,143628,2,0,P|370:345|362:364,3,42.5,2|0|10|0,0:1|0:0|0:2|0:0,0:0:0:0:
291,322,143878,1,0,0:0:0:0:
291,322,143940,1,0,0:0:0:0:
291,322,144003,5,2,1:0:0:0:
259,343,144065,1,0,0:0:0:0:
220,346,144128,1,0,0:0:0:0:
184,332,144190,1,0,0:0:0:0:
162,300,144253,1,10,0:2:0:0:
161,262,144315,1,0,0:0:0:0:
180,228,144378,2,0,L|176:164,1,42.5
102,77,144503,5,4,1:2:0:0:
93,100,144565,1,0,0:0:0:0:
94,125,144628,1,0,0:0:0:0:
104,148,144690,1,0,0:0:0:0:
122,166,144753,1,10,0:2:0:0:
144,176,144815,1,0,0:0:0:0:
169,178,144878,1,0,0:0:0:0:
193,172,144940,1,0,0:0:0:0:
214,158,145003,6,0,L|222:101,3,42.5,2|0|0|0,1:0|0:0|0:0|0:0,0:0:0:0:
299,152,145253,2,0,L|307:95,1,42.5,10|0,0:2|0:0,0:0:0:0:
216,294,145378,2,0,L|224:351,3,42.5,2|0|0|0,0:1|0:0|1:0|0:0,0:0:0:0:
301,300,145628,2,0,L|309:357,3,42.5,2|0|10|0,0:1|0:0|0:2|0:0,0:0:0:0:
262,226,145878,1,2,0:1:0:0:
262,226,145940,1,0,0:0:0:0:
262,226,146003,5,2,1:0:0:0:
303,218,146065,1,0,0:0:0:0:
345,210,146128,1,0,0:0:0:0:
386,203,146190,1,0,0:0:0:0:
428,196,146253,5,10,0:2:0:0:
373,186,146315,1,8,0:0:0:0:
318,176,146378,1,8,0:0:0:0:
263,167,146440,1,8,0:0:0:0:
208,158,146503,5,4,1:2:0:0:
256,192,146565,12,4,148253,0:3:0:0:
34,135,148503,6,0,P|58:181|58:234,1,106.25,4|0,1:2|0:0,0:0:0:0:
205,174,148753,2,0,P|189:224|151:261,1,106.25,4|0,1:2|0:0,0:0:0:0:
298,323,149003,2,0,P|251:347|198:347,1,106.25,4|0,1:2|0:0,0:0:0:0:
478,249,149378,6,0,P|453:202|453:149,1,106.25,4|0,1:2|0:0,0:0:0:0:
428,39,149628,1,0,1:0:0:0:
307,210,149753,2,0,P|322:159|360:122,1,106.25,4|0,1:2|0:0,0:0:0:0:
214,61,150003,2,0,P|260:36|313:36,1,106.25,4|0,1:2|0:0,0:0:0:0:
383,258,150253,5,2,0:0:0:0:
383,258,150503,2,0,B|306:252|256:317|256:317|204:250|112:253,1,297.5,4|0,1:2|0:0,0:0:0:0:
183,144,151003,6,0,P|255:248|329:145,1,297.5,2|0,1:2|0:0,0:0:0:0:
256,170,151503,6,0,L|256:85,1,85,2|0,1:2|0:0,0:0:0:0:
374,271,151878,2,0,B|232:240|278:349|134:314,1,255,2|2,1:0|0:0,0:0:0:0:
36,80,152503,5,4,1:2:0:0:
88,148,152628,1,0,0:0:0:0:
32,208,152753,2,0,P|26:251|24:300,1,85,2|0,0:1|0:0,0:0:0:0:
140,80,153003,5,2,0:1:0:0:
88,148,153128,1,0,0:0:0:0:
144,208,153253,2,0,P|149:251|152:300,1,85,0|2,0:0|0:1,0:0:0:0:
88,352,153503,5,0,0:0:0:0:
224,192,153628,1,2,0:1:0:0:
64,232,153753,1,0,0:0:0:0:
256,316,153878,6,0,P|300:320|340:284,1,85,0|2,0:0|0:1,0:0:0:0:
395,130,154128,1,0,0:0:0:0:
380,228,154253,2,0,L|368:80,1,127.5,4|0,0:3|0:0,0:0:0:0:
360,20,154503,5,2,1:0:0:0:
392,368,155003,1,2,1:0:0:0:
120,368,155503,5,2,1:2:0:0:
132,228,155628,2,0,L|144:80,1,127.5,2|0,1:2|0:0,0:0:0:0:
149,20,155878,2,0,P|112:18|78:69,1,85,4|0,1:2|0:0,0:0:0:0:
132,228,156128,5,8,0:3:0:0:
253,216,156253,1,4,1:3:0:0:
374,204,156378,1,10,0:3:0:0:
272,119,156503,5,4,1:2:0:0:
383,322,156628,1,0,0:0:0:0:
456,101,156753,2,0,P|449:55|445:-3,1,101.999996887207,10|0,0:2|0:0,0:0:0:0:
253,216,157003,2,0,P|260:262|264:320,1,101.999996887207,2|0,1:2|0:0,0:0:0:0:
374,204,157253,5,8,0:0:0:0:
174,279,157378,2,0,P|122:277|92:228,1,101.999996887207,2|0,0:0|1:0,0:0:0:0:
243,52,157628,1,0,0:0:0:0:
166,190,157753,6,0,B|126:140|154:76|154:76|179:124,1,152.999995330811,10|0,0:2|0:0,0:0:0:0:
241,144,158003,2,0,L|351:130,1,101.999996887207,2|0,1:2|0:0,0:0:0:0:
444,329,158253,2,0,P|378:335|339:300,1,101.999996887207,10|0,0:2|0:0,0:0:0:0:
459,67,158503,6,0,P|437:113|433:163,1,101.999996887207,2|0,1:2|0:0,0:0:0:0:
185,125,158753,2,0,P|224:156|244:203,1,101.999996887207,8|0,0:0|0:0,0:0:0:0:
348,228,159003,1,2,1:2:0:0:
307,13,159128,2,0,L|325:114,1,101.999996887207,0|8,0:0|0:0,0:0:0:0:
282,306,159378,5,2,0:0:0:0:
143,215,159503,2,0,P|89:220|61:272,1,101.999996887207,0|0,1:0|0:0,0:0:0:0:
150,316,159753,1,8,0:0:0:0:
242,172,159878,2,0,P|187:93|93:114,1,203.999993774414,2|0,0:0|0:0,0:0:0:0:
234,265,160253,2,0,L|352:243,1,101.999996887207,8|0,0:0|0:0,0:0:0:0:
470,112,160503,5,2,1:0:0:0:
347,345,160628,1,2,0:3:0:0:
297,87,160753,1,8,0:0:0:0:
175,321,160878,1,2,0:3:0:0:
432,365,161003,5,2,1:0:0:0:
196,235,161128,1,2,0:3:0:0:
448,197,161253,1,8,0:0:0:0:
211,66,161378,1,2,0:3:0:0:
347,345,161503,5,2,1:0:0:0:
297,87,161628,1,2,0:3:0:0:
448,197,161753,1,8,0:0:0:0:
196,235,161878,2,0,L|84:217,1,101.999996887207,2|0,0:1|1:0,0:0:0:0:
297,87,162128,1,2,0:3:0:0:
310,269,162253,2,0,B|288:222|288:222|307:163,1,101.999996887207,8|2,0:0|0:3,0:0:0:0:
479,29,162503,6,0,P|429:39|370:42,1,101.999996887207,2|0,1:0|0:0,0:0:0:0:
214,134,162753,1,8,0:0:0:0:
392,214,162878,1,0,0:0:0:0:
297,87,163003,1,2,1:0:0:0:
310,269,163128,1,0,0:0:0:0:
478,163,163253,5,8,0:0:0:0:
133,180,163378,1,0,0:0:0:0:
314,348,163503,5,2,1:2:0:0:
294,0,163628,1,2,1:2:0:0:
98,258,163878,6,0,P|185:249|214:166,1,152.999995330811,4|0,1:2|0:0,0:0:0:0:
127,129,164128,6,0,P|131:154|133:180,1,50.9999984436036,8|0,0:3|0:0,0:0:0:0:
278,289,164253,2,0,P|254:193|339:172,1,191.250007295609,4|0,1:3|0:0,0:0:0:0:
390,202,164503,5,4,1:2:0:0:
390,202,164753,2,0,L|483:188,2,85,0|2|0,0:0|0:0|0:0,0:0:0:0:
146,239,165503,2,0,L|61:251,1,85,2|0,0:0|0:0,0:0:0:0:
267,219,166003,1,2,0:0:0:0:
289,330,166253,1,2,0:0:0:0:
244,102,166503,6,0,P|306:57|324:137,1,170,4|0,1:2|0:0,0:0:0:0:
289,330,167503,2,0,P|227:375|209:295,1,170,2|2,0:0|0:0,0:0:0:0:
326,110,168503,6,0,B|339:93|415:53|500:118|475:242|394:208|345:315|345:315|268:224|257:274|167:268|115:109|236:47|339:65|356:143|313:180|256:185,1,780.300004762573,4|0,1:2|0:0,0:0:0:0:
282,179,170253,6,2,L|96:159,1,159.375,2|0,0:1|0:0,0:1:0:0:
53,129,170503,6,0,B|42:87|42:87|72:35,1,85,4|0,1:2|0:0,0:0:0:0:
198,250,170753,2,0,B|218:286|218:286|207:328,1,85,8|0,0:0|0:0,0:0:0:0:
138,80,171003,6,0,P|178:78|240:62,1,85,2|0,1:2|0:0,0:0:0:0:
127,301,171253,2,0,P|85:291|43:289,1,85,8|0,0:0|0:0,0:0:0:0:
291,114,171503,5,2,1:2:0:0:
198,250,171628,2,0,L|180:156,1,85,2|8,0:1|0:0,0:0:0:0:
349,36,171878,1,2,0:0:0:0:
358,215,172003,2,0,P|310:221|271:185,1,85,2|0,1:0|0:0,0:0:0:0:
437,39,172253,2,0,P|482:63|470:143,1,127.5,8|0,0:0|0:0,0:0:0:0:
459,124,172503,6,0,L|344:137,1,85,2|0,1:2|0:0,0:0:0:0:
317,305,172753,2,0,L|402:315,1,85,8|0,0:0|0:0,0:0:0:0:
340,113,173003,6,0,L|220:130,1,85,2|0,1:2|0:0,0:0:0:0:
200,313,173253,2,0,L|285:325,1,85,8|0,0:0|0:0,0:0:0:0:
255,124,173503,5,2,1:2:0:0:
137,224,173628,2,0,P|178:230|215:211,1,85,2|8,0:1|0:0,0:0:0:0:
77,67,173878,1,2,0:0:0:0:
168,146,174003,2,0,L|152:51,1,85,2|0,1:0|0:0,0:0:0:0:
354,12,174253,6,2,B|340:78|340:78|402:127|368:210,1,191.250007295609,12|0,0:2|0:0,0:0:0:0:
386,264,174503,2,0,P|344:267|314:239,1,85,0|0,1:0|0:0,0:0:0:0:
113,233,174753,6,2,B|192:239|225:158|225:158|225:194|264:217,1,191.250007295609,10|0,0:1|0:0,0:0:0:0:
302,153,175003,2,0,L|397:160,1,85,0|0,1:0|0:0,0:0:0:0:
453,306,175253,6,2,L|237:327,1,191.250007295609,10|0,0:1|0:0,0:0:0:0:
192,360,175503,1,0,1:0:0:0:
330,240,175628,1,0,0:0:0:0:
106,164,175753,6,2,B|75:154|62:203|177:196|203:132,1,127.500004863739,10|0,0:1|0:0,0:0:0:0:
387,49,176003,2,2,B|418:59|431:10|316:17|290:81,1,127.500004863739,2|0,1:0|0:0,0:0:0:0:
261,202,176253,6,0,B|286:82|199:128|233:4,1,191.250007295609,10|0,0:2|0:0,0:0:0:0:
110,41,176503,6,0,L|194:48,1,85,4|0,1:2|0:0,0:0:0:0:
355,172,176753,2,0,P|361:216|372:269,1,85,10|0,0:2|0:0,0:0:0:0:
157,322,177003,2,0,P|166:284|171:238,1,85,2|0,1:2|0:0,0:0:0:0:
250,151,177253,1,10,0:2:0:0:
304,349,177378,1,0,0:0:0:0:
447,184,177503,6,0,B|348:169|368:249|259:251,1,191.250007295609,2|0,1:2|0:0,0:0:0:0:
217,311,178003,6,0,P|233:174|355:235,1,318.75,2|0,0:0|0:0,0:0:0:0:
274,250,178503,6,0,P|198:214|115:226,1,170,4|8,1:0|0:0,0:0:0:0:
20,340,178878,2,0,P|59:348|88:319,1,85,0|0,1:0|0:0,0:0:0:0:
100,85,179128,1,0,1:0:0:0:
31,254,179253,2,0,P|37:192|17:127,1,127.5,12|0,0:0|0:0,0:0:0:0:
100,85,179503,6,0,B|189:64|159:146|264:147,1,170,0|8,1:0|0:0,0:0:0:0:
395,205,179878,2,0,P|350:234|299:220,1,85,0|0,1:0|0:0,0:0:0:0:
220,174,180128,1,0,1:0:0:0:
309,50,180253,2,0,P|350:95|335:154,1,127.5,12|0,0:0|0:0,0:0:0:0:
321,232,180503,2,0,L|335:332,1,85,0|0,1:0|0:0,0:0:0:0:
103,180,180753,6,0,P|142:194|168:227,1,85,10|0,0:0|1:0,0:0:0:0:
343,73,181003,2,0,P|327:112|334:154,1,85,2|0,0:0|1:0,0:0:0:0:
172,4,181253,2,0,L|222:121,1,127.5,10|0,0:0|0:0,0:0:0:0:
256,192,181503,5,2,1:2:0:0:
134,100,181628,1,2,1:2:0:0:
399,137,181753,1,2,1:2:0:0:
234,349,181878,2,0,B|214:272|233:249|305:233|331:178|269:119|207:154|213:200|258:236,1,276.249987354279,2|0,1:2|0:0,0:0:0:0:
303,311,182253,5,6,1:0:0:0:
256,192,182315,12,2,183503,0:0:0:0:
