osu file format v14

[General]
AudioFilename: audio.mp3
AudioLeadIn: 0
PreviewTime: 48193
Countdown: 0
SampleSet: Soft
StackLeniency: 0.5
Mode: 0
LetterboxInBreaks: 0
WidescreenStoryboard: 1

[Editor]
DistanceSpacing: 1.1
BeatDivisor: 6
GridSize: 4
TimelineZoom: 2.799999

[Metadata]
Title:Presenter*
TitleUnicode:ぷれぜんたー☆
Artist:Aitsuki Nakuru
ArtistUnicode:藍月なくる
Creator:toybot
Version:Insane
Source:
Tags:nacollection!! 2 a than_lily bluoxy flask lasse
BeatmapID:1678850
BeatmapSetID:799156

[Difficulty]
HPDrainRate:5
CircleSize:4
OverallDifficulty:7
ApproachRate:9
SliderMultiplier:1.4
SliderTickRate:1

[Events]
//Background and Video events
0,0,"kurisumasu.jpg",0,0
//Break Periods
2,125702,128903
//Storyboard Layer 0 (Background)
//Storyboard Layer 1 (Fail)
//Storyboard Layer 2 (Pass)
//Storyboard Layer 3 (Foreground)
//Storyboard Sound Samples

[TimingPoints]
253,250,4,2,1,40,1,0
2253,-133.333333333333,4,2,1,70,0,0
5753,-200,4,2,1,40,0,0
8003,-133.333333333333,4,2,1,40,0,0
8253,-133.333333333333,4,2,1,70,0,0
9128,-100,4,2,1,70,0,0
10003,-80,4,2,1,70,0,0
10253,-90.9090909090909,4,2,1,70,0,0
18253,-100,4,2,1,70,0,0
38253,-100,4,2,1,60,0,0
39753,-100,4,2,1,50,0,0
39878,-100,4,2,1,40,0,0
40253,-133.333333333333,4,2,1,40,0,0
40378,-133.333333333333,4,2,1,50,0,0
44253,-100,4,2,1,55,0,0
47253,-100,4,2,1,75,0,0
48253,-100,4,2,2,45,0,0
49253,-83.3333333333333,4,2,1,75,0,1
65253,-100,4,2,1,45,0,0
66753,-100,4,2,1,80,0,0
67253,-90.9090909090909,4,2,1,70,0,0
75253,-100,4,2,1,70,0,0
79253,-100,4,2,1,55,0,0
80253,250,3,2,1,55,1,0
80253,-200,3,2,1,55,0,0
88753,-100,3,2,1,5,0,0
89503,250,4,2,1,70,1,0
106503,-142.857142857143,4,2,1,65,0,0
108503,-125,4,2,1,65,0,0
108753,-111.111111111111,4,2,1,65,0,0
109003,-100,4,2,1,65,0,0
109253,-90.9090909090909,4,2,1,65,0,0
109503,-83.3333333333333,4,2,1,75,0,1
123503,-83.3333333333333,4,2,1,75,0,0
124878,-133.333333333333,4,2,1,75,0,0
125503,-100,4,2,1,45,0,0
129503,-100,4,2,1,55,0,0
131503,-100,4,2,1,65,0,0
135503,-133.333333333333,4,2,1,40,0,0
136003,-100,4,2,1,45,0,0
136503,-100,4,2,1,65,0,0
150940,-100,4,2,1,5,0,0
151003,-100,4,2,1,65,0,0
151440,-100,4,2,1,5,0,0
151503,-100,4,2,1,65,0,0
151878,-133.333333333333,4,2,1,65,0,0
155503,-100,4,2,1,65,0,0
156503,-83.3333333333333,4,2,1,75,0,1
164503,-100,4,2,1,60,0,0
166503,-133.333333333333,4,2,1,60,0,0
168503,-158.730158730159,4,2,1,60,0,0
170190,-158.730158730159,4,2,1,5,0,0
170253,-76.9230769230769,4,2,1,75,0,0
170503,-90.9090909090909,4,2,1,75,0,0
178503,-100,4,2,1,75,0,0
183503,-100,4,2,1,25,0,0

[Colours]
Combo1 : 255,102,179
Combo2 : 0,128,128
Combo3 : 181,181,255
Combo4 : 227,13,45

[HitObjects]
256,192,253,12,2,2190,0:0:0:0:
255,312,2253,6,0,P|337:250|438:264,1,210.000008010865,4|2,1:2|0:0,0:0:0:0:
256,71,3253,2,0,P|174:133|73:119,1,210.000008010865,2|2,0:0|0:0,0:0:0:0:
240,292,4253,2,0,B|212:180|300:212|264:84,2,210.000008010865,2|2|2,0:0|0:0|0:0,0:0:0:0:
404,364,5753,5,0,0:0:0:0:
488,352,6003,1,0,0:0:0:0:
476,268,6253,2,0,L|464:184,2,70,2|0|2,0:3|0:0|0:3,0:0:0:0:
488,352,7003,1,0,0:0:0:0:
404,364,7253,2,0,P|352:359|318:321,1,105,2|2,0:3|0:3,0:0:0:0:
344,104,8003,6,0,L|352:168,1,52.5000020027161,2|2,0:1|0:1,0:0:0:0:
360,236,8253,1,0,1:0:0:0:
168,104,8503,6,0,L|160:168,1,52.5000020027161,2|2,0:1|0:1,0:0:0:0:
152,236,8753,1,0,1:0:0:0:
256,362,9003,5,2,0:1:0:0:
319,311,9128,2,0,P|256:284|194:311,1,140,4|0,1:2|1:0,0:0:0:0:
256,178,9503,2,0,L|256:248,1,70,4|0,1:2|0:0,0:0:0:0:
256,362,9753,1,0,1:0:0:0:
218,107,10003,6,0,P|255:63|293:107,1,131.25,2|0,0:1|0:1,0:0:0:0:
256,178,10253,6,0,L|156:194,1,77.0000023498536,4|0,1:2|0:0,0:0:0:0:
364,164,10503,2,0,P|371:124|384:76,1,77.0000023498536,8|0,0:0|0:0,0:0:0:0:
232,264,10753,2,0,L|336:248,1,77.0000023498536,2|0,1:2|0:0,0:0:0:0:
160,344,11003,2,0,P|150:302|141:269,1,77.0000023498536,8|0,0:0|0:0,0:0:0:0:
51,119,11253,5,2,1:2:0:0:
51,119,11378,2,0,P|116:158|188:138,1,154.000004699707,2|2,0:1|0:0,0:0:0:0:
264,28,11753,2,0,P|225:24|189:11,1,77.0000023498536,2|0,1:0|0:0,0:0:0:0:
128,72,12003,1,8,0:0:0:0:
272,200,12253,6,0,P|278:160|284:104,1,77.0000023498536,2|0,1:2|0:0,0:0:0:0:
368,240,12503,2,0,L|272:228,1,77.0000023498536,8|0,0:0|0:0,0:0:0:0:
400,344,12753,2,0,P|394:308|390:267,1,77.0000023498536,2|0,1:2|0:0,0:0:0:0:
296,368,13003,2,0,L|372:358,1,77.0000023498536,8|0,0:0|0:0,0:0:0:0:
216,300,13253,5,2,1:2:0:0:
216,300,13378,2,0,B|136:284|152:332|44:328,1,154.000004699707,2|2,0:1|0:0,0:0:0:0:
76,163,13753,2,0,P|83:199|88:240,1,77.0000023498536,2|0,1:0|0:0,0:0:0:0:
32,96,14003,2,0,P|77:63|129:82,1,115.50000352478,12|0,0:2|0:0,0:0:0:0:
144,104,14253,6,0,P|222:89|296:76,1,154.000004699707,0|10,1:0|0:1,0:0:0:0:
376,48,14628,1,0,0:0:0:0:
360,176,14753,2,0,P|332:136|224:148,1,154.000004699707,0|10,1:0|0:1,0:0:0:0:
332,256,15128,1,0,0:0:0:0:
244,228,15253,6,0,L|140:248,2,77.0000023498536,0|0|10,1:0|0:0|0:1,0:0:0:0:
336,280,15628,1,0,0:0:0:0:
292,380,15753,2,0,P|260:352|256:312,1,77.0000023498536,2|0,1:0|0:0,0:0:0:0:
444,180,16003,2,0,P|443:218|425:251,1,77.0000023498536,10|0,0:2|0:0,0:0:0:0:
356,192,16253,6,0,P|348:114|336:40,1,154.000004699707,4|10,1:2|0:2,0:0:0:0:
256,104,16628,1,0,0:0:0:0:
156,192,16753,2,0,P|163:114|176:40,1,154.000004699707,2|10,1:2|0:2,0:0:0:0:
256,124,17128,1,2,0:0:0:0:
356,192,17253,6,0,P|412:200|456:108,1,154.000004699707,0|0,1:0|0:0,0:0:0:0:
156,191,17753,2,0,P|56:164|91:67,1,231.000007049561,2|0,0:0|0:0,0:0:0:0:
176,96,18253,6,0,P|248:92|332:76,1,140,4|8,1:0|0:0,0:0:0:0:
404,116,18628,2,0,P|416:72|404:24,1,70,0|0,1:0|0:0,0:0:0:0:
328,168,18878,1,0,1:0:0:0:
388,280,19003,1,12,0:0:0:0:
380,300,19253,6,0,P|320:284|220:280,1,140,0|8,1:0|0:0,0:0:0:0:
132,360,19628,2,0,P|176:360|204:332,1,70,0|0,1:0|0:0,0:0:0:0:
144,272,19878,1,0,1:0:0:0:
276,360,20003,1,12,0:0:0:0:
192,172,20253,5,0,1:0:0:0:
184,152,20503,2,0,P|188:114|192:72,1,70,8|0,0:0|1:0,0:0:0:0:
332,180,20753,2,0,P|296:195|258:213,1,70,0|0,0:0|1:0,0:0:0:0:
280,44,21003,2,0,P|310:66|345:90,1,70,8|0,0:0|0:0,0:0:0:0:
428,192,21253,5,2,1:2:0:0:
264,248,21378,1,2,1:2:0:0:
332,180,21503,1,2,1:2:0:0:
268,344,21628,2,0,P|216:372|132:284,1,175,2|0,1:2|0:0,0:0:0:0:
174,46,22253,5,4,1:0:0:0:
86,70,22503,1,0,0:0:0:0:
225,123,22753,1,2,0:0:0:0:
81,162,23003,1,0,0:0:0:0:
168,195,23253,1,2,0:0:0:0:
178,210,23503,6,0,L|182:250,3,35,0|2|2|2,0:0|0:0|0:0|0:0,0:0:0:0:
210,270,23753,1,2,1:2:0:0:
298,230,23878,1,2,1:2:0:0:
386,286,24003,2,0,L|394:206,1,70,10|0,0:0|0:0,0:0:0:0:
361,101,24253,6,0,P|294:101|254:156,1,140,4|8,1:2|0:0,0:0:0:0:
248,252,24628,1,0,0:0:0:0:
392,216,24753,1,0,1:0:0:0:
392,216,24878,2,0,P|355:210|316:208,1,70,0|8,1:0|0:0,0:0:0:0:
114,163,25128,5,0,1:0:0:0:
126,179,25378,2,0,P|126:215|118:263,1,70,2|8,1:2|0:0,0:0:0:0:
194,319,25628,1,2,0:0:0:0:
246,235,25753,2,0,P|240:200|228:167,1,70,2|0,1:2|1:0,0:0:0:0:
200,76,26003,1,8,0:0:0:0:
216,64,26253,6,0,P|264:60|320:132,1,140,0|8,1:0|0:0,0:0:0:0:
372,268,26628,2,0,L|456:292,1,70,0|0,0:0|1:0,0:0:0:0:
380,184,26878,2,0,L|468:168,1,70,0|8,1:0|0:0,0:0:0:0:
508,236,27128,1,0,1:0:0:0:
296,216,27378,6,0,P|224:224|136:248,1,140,2|2,1:0|0:1,0:0:0:0:
55,144,27753,2,0,P|56:179|76:208,1,70,2|0,1:0|1:0,0:0:0:0:
164,47,28003,2,0,P|141:73|136:108,1,70,8|0,0:0|0:0,0:0:0:0:
224,144,28253,6,0,P|267:92|334:97,1,140,0|8,1:0|0:0,0:0:0:0:
400,152,28628,2,0,P|440:160|484:148,1,70,0|0,0:0|1:0,0:0:0:0:
324,180,28878,1,0,1:0:0:0:
312,204,29128,6,0,P|312:239|316:280,1,70,0|0,1:0|0:0,0:0:0:0:
224,228,29378,2,0,P|223:266|228:304,1,70,2|8,1:2|0:0,0:0:0:0:
264,376,29628,1,2,0:0:0:0:
140,324,29753,2,0,P|105:316|70:316,2,70,2|0|8,1:2|1:0|0:0,0:0:0:0:
248,152,30253,6,0,P|232:104|144:92,1,140,4|8,1:2|0:0,0:0:0:0:
208,256,30753,1,0,1:0:0:0:
208,256,30878,2,0,P|248:244|276:244,1,70,0|8,1:0|0:0,0:0:0:0:
376,276,31128,5,0,1:0:0:0:
396,264,31378,2,0,L|404:124,1,140,0|0,1:0|0:0,0:0:0:0:
312,52,31753,1,0,1:0:0:0:
256,124,31878,1,0,1:0:0:0:
176,92,32003,2,0,L|96:84,1,70,8|0,0:0|0:0,0:0:0:0:
0,220,32253,6,0,P|67:222|110:169,1,140,0|8,1:0|0:0,0:0:0:0:
196,188,32628,2,0,P|193:222|204:255,1,70,0|0,0:0|1:0,0:0:0:0:
120,296,32878,1,0,1:0:0:0:
64,100,33128,5,0,1:0:0:0:
272,144,33378,1,2,1:0:0:0:
120,296,33628,1,2,0:1:0:0:
176,220,33753,2,0,L|164:120,1,70,2|0,1:0|1:0,0:0:0:0:
260,12,34003,2,0,L|252:116,1,105,8|0,0:0|0:0,0:0:0:0:
272,144,34253,6,0,P|332:156|392:88,1,140,0|8,1:0|0:0,0:0:0:0:
386,255,34628,2,0,P|379:220|360:192,1,70,0|0,0:0|1:0,0:0:0:0:
296,256,34878,1,0,1:0:0:0:
340,336,35003,1,8,0:0:0:0:
252,332,35128,6,0,P|184:340|104:360,2,140,0|2|2,1:0|1:0|0:0,0:0:0:0:
340,336,35753,1,2,1:0:0:0:
424,360,35878,1,0,1:0:0:0:
488,300,36003,2,0,L|476:216,1,70,8|0,0:0|0:0,0:0:0:0:
496,100,36253,6,0,B|404:76|396:164|280:152,1,210,4|0,1:2|0:0,0:0:0:0:
88,100,36878,2,0,P|144:112|196:48,1,140,2|0,0:0|0:0,0:0:0:0:
68,84,37253,6,0,L|52:236,1,140,4|2,1:2|0:0,0:0:0:0:
444,300,37753,2,0,L|460:148,1,140,4|2,1:2|0:0,0:0:0:0:
400,96,38128,1,0,0:0:0:0:
312,168,38253,6,0,P|272:176|232:180,1,70,0|0,1:0|0:0,0:0:0:0:
268,260,38503,2,0,P|281:221|297:184,1,70,10|0,0:0|0:0,0:0:0:0:
210,175,38753,2,0,P|236:205|260:238,1,70,2|0,1:2|0:0,0:0:0:0:
84,324,39128,6,0,P|50:315|15:315,1,70,2|0,1:2|0:0,0:0:0:0:
84,232,39378,1,0,1:0:0:0:
84,232,39503,2,0,P|93:265|110:296,1,70,10|0,0:0|0:0,0:0:0:0:
5,279,39753,1,2,1:0:0:0:
5,279,39878,2,0,P|29:253|47:223,1,70,2|0,0:1|1:0,0:0:0:0:
68,144,40128,1,2,0:1:0:0:
56,64,40253,5,4,1:2:0:0:
56,64,40378,2,0,P|100:104|164:92,1,105.000004005432,0|0,0:0|0:0,0:0:0:0:
211,68,40753,2,0,P|167:28|103:40,1,105.000004005432,10|0,0:0|0:0,0:0:0:0:
168,201,41253,5,2,1:2:0:0:
168,201,41378,2,0,L|245:192,1,52.5000020027161,0|0,0:0|0:0,0:0:0:0:
293,151,41628,2,0,P|322:185|388:178,2,105.000004005432,2|2|2,0:0|0:1|0:1,0:0:0:0:
314,233,42253,5,0,1:0:0:0:
314,233,42378,2,0,P|316:286|326:348,1,105.000004005432,0|0,0:0|0:0,0:0:0:0:
240,384,42753,2,0,P|238:331|228:269,1,105.000004005432,10|0,0:0|0:0,0:0:0:0:
118,171,43253,6,0,L|126:99,2,52.5000020027161,2|0|2,1:2|0:0|0:0,0:0:0:0:
161,241,43628,2,0,P|206:255|285:180,1,157.500006008148,2|2,0:0|0:0,0:0:0:0:
336,80,44253,6,0,B|416:56|404:120|492:108,2,140,4|2|4,0:3|0:3|1:2,0:0:0:0:
256,40,44878,1,2,0:1:0:0:
180,176,45128,6,0,B|100:152|112:216|24:204,2,140,2|2|8,0:0|0:0|0:3,0:0:0:0:
256,236,45753,1,4,1:2:0:0:
256,124,45878,1,2,0:1:0:0:
323,296,46253,6,0,P|372:304|408:336,2,93.3333333333333,4|8|4,1:2|3:0|3:0,0:0:0:0:
188,296,46753,2,0,P|140:304|104:336,2,93.3333333333333,4|8|4,1:2|3:0|3:0,0:0:0:0:
348,204,47253,6,0,P|351:173|364:128,1,70,2|0,1:0|0:0,0:0:0:0:
164,204,47503,2,0,P|161:173|148:128,1,70,2|0,1:0|0:0,0:0:0:0:
256,148,47753,2,0,L|256:36,1,105,2|0,1:0|0:0,0:0:0:0:
256,43,48003,6,0,L|312:32,3,35,0|0|0|0,3:0|3:0|3:0|3:0,0:0:0:0:
176,60,48253,5,2,0:0:0:0:
96,52,48503,1,2,0:0:0:0:
16,44,48753,1,2,0:0:0:0:
16,44,49253,6,0,P|24:96|24:160,1,83.9999974365235,4|0,1:2|0:0,0:0:0:0:
110,231,49503,2,0,P|113:189|120:148,1,83.9999974365235,10|0,0:2|0:0,0:0:0:0:
192,80,49753,2,0,P|240:64|304:148,1,167.999994873047,2|8,1:2|0:0,0:0:0:0:
308,244,50128,6,0,P|307:183|407:179,1,167.999994873047,2|0,0:0|0:0,0:0:0:0:
472,220,50503,2,0,L|492:120,1,83.9999974365235,10|0,0:2|0:0,0:0:0:0:
400,272,50753,2,0,P|424:316|428:364,1,83.9999974365235,2|0,1:2|0:0,0:0:0:0:
336,336,51003,2,0,P|292:324|240:332,1,83.9999974365235,10|0,0:2|0:0,0:0:0:0:
76,324,51253,5,2,1:2:0:0:
284,228,51503,1,8,0:0:0:0:
32,240,51753,1,2,1:2:0:0:
240,144,52003,1,8,0:0:0:0:
184,296,52253,5,2,1:2:0:0:
184,296,52378,2,0,B|176:244|176:244|132:200|132:200|120:128,1,167.999994873047,0|2,0:0|0:0,0:0:0:0:
168,40,52753,2,0,L|68:56,1,83.9999974365235,2|0,1:0|0:0,0:0:0:0:
304,144,53003,2,0,L|221:130,1,83.9999974365235,10|0,0:1|0:0,0:0:0:0:
392,84,53253,6,0,P|413:49|453:40,2,83.9999974365235,2|2|8,1:0|0:3|0:0,0:0:0:0:
472,132,53628,1,2,0:3:0:0:
392,268,53753,2,0,P|351:266|323:235,2,83.9999974365235,2|2|8,1:0|0:3|0:0,0:0:0:0:
393,174,54128,1,2,0:1:0:0:
480,268,54253,6,0,P|484:309|473:349,1,83.9999974365235,0|2,1:0|0:1,0:0:0:0:
304,340,54503,1,8,0:0:0:0:
388,304,54628,2,0,P|324:312|256:236,1,167.999994873047,2|2,0:3|0:3,0:0:0:0:
316,152,55003,2,0,L|308:92,3,41.9999987182618,8|2|2|2,0:0|0:0|0:3|0:0,0:0:0:0:
328,80,55253,6,0,P|368:64|424:60,1,83.9999974365235,2|2,1:2|0:3,0:0:0:0:
184,164,55503,2,0,P|144:148|88:144,1,83.9999974365235,10|2,0:2|0:3,0:0:0:0:
36,336,55753,1,2,1:2:0:0:
120,236,55878,1,2,0:3:0:0:
28,244,56003,1,10,0:2:0:0:
127,328,56128,1,2,0:3:0:0:
68,156,56253,5,6,1:2:0:0:
68,156,56378,2,0,P|60:113|49:61,1,83.9999974365235,2|0,1:0|0:0,0:0:0:0:
284,56,56628,2,0,P|280:97|280:139,1,83.9999974365235,2|0,1:0|0:0,0:0:0:0:
179,200,56878,1,8,0:3:0:0:
172,104,57003,1,4,1:3:0:0:
165,8,57128,1,10,0:3:0:0:
280,139,57253,6,0,P|317:157|358:156,1,83.9999974365235,4|0,1:2|0:0,0:0:0:0:
472,56,57503,2,0,P|430:54|392:72,1,83.9999974365235,10|0,0:2|0:0,0:0:0:0:
388,248,57753,2,0,P|446:272|484:176,1,167.999994873047,2|8,1:2|0:0,0:0:0:0:
380,340,58128,6,0,P|348:269|273:288,1,167.999994873047,2|0,0:0|0:0,0:0:0:0:
124,364,58503,2,0,L|240:348,1,83.9999974365235,10|0,0:0|0:0,0:0:0:0:
8,220,58753,2,0,B|68:228|68:228|100:260|100:260|192:272,1,167.999994873047,2|10,1:2|0:0,0:0:0:0:
248,192,59128,1,0,0:0:0:0:
151,92,59253,6,0,P|148:133|143:175,1,83.9999974365235,2|0,1:2|0:0,0:0:0:0:
40,40,59503,2,0,P|42:81|47:123,1,83.9999974365235,8|0,0:0|0:0,0:0:0:0:
308,96,59753,2,0,P|284:62|244:53,1,83.9999974365235,2|0,1:2|0:0,0:0:0:0:
320,184,60003,2,0,P|360:175|383:141,1,83.9999974365235,8|0,0:0|0:0,0:0:0:0:
236,152,60253,5,2,1:2:0:0:
236,152,60378,2,0,P|168:148|128:240,1,167.999994873047,2|2,0:1|0:0,0:0:0:0:
208,324,60753,2,0,L|216:224,1,83.9999974365235,2|0,1:0|0:0,0:0:0:0:
380,276,61003,2,0,P|340:280|288:292,1,83.9999974365235,8|0,0:0|0:0,0:0:0:0:
384,188,61253,5,2,1:0:0:0:
468,160,61378,1,2,0:3:0:0:
500,240,61503,2,0,P|492:288|452:312,1,83.9999974365235,8|2,0:0|0:3,0:0:0:0:
368,172,61753,5,2,1:0:0:0:
352,92,61878,1,2,0:3:0:0:
428,52,62003,2,0,P|476:56|504:104,1,83.9999974365235,8|2,0:0|0:3,0:0:0:0:
360,196,62253,5,2,1:0:0:0:
264,152,62378,2,0,P|180:152|88:140,1,167.999994873047,2|2,0:3|0:1,0:0:0:0:
34,71,62753,2,0,P|75:48|116:48,1,83.9999974365235,0|2,1:0|0:3,0:0:0:0:
86,236,63003,2,0,P|47:222|18:193,1,83.9999974365235,8|2,0:0|0:3,0:0:0:0:
184,108,63253,6,0,P|190:152|196:220,1,83.9999974365235,2|2,1:0|0:3,0:0:0:0:
168,280,63503,2,0,P|201:303|242:301,1,83.9999974365235,8|2,0:0|0:3,0:0:0:0:
332,348,63753,1,2,1:0:0:0:
288,216,63878,1,2,0:3:0:0:
372,264,64003,2,0,P|376:222|388:172,1,83.9999974365235,8|2,0:0|0:3,0:0:0:0:
448,80,64253,5,2,1:2:0:0:
319,26,64378,1,2,1:2:0:0:
464,64,64628,6,0,B|368:52|396:120|288:112,1,167.999994873047,4|0,1:0|0:0,0:0:0:0:
224,68,65003,1,4,1:2:0:0:
276,210,66378,5,0,0:0:0:0:
276,210,66440,1,2,0:0:0:0:
276,210,66503,2,0,L|264:274,3,35,2|2|2|2,0:0|0:0|0:0|0:0,0:0:0:0:
288,274,66753,5,2,1:0:0:0:
180,180,66878,1,2,1:0:0:0:
153,320,67003,1,6,1:0:0:0:
139,338,67253,6,0,P|103:350|65:345,1,77.0000023498536,4|0,1:2|0:0,0:0:0:0:
9,200,67503,2,0,P|21:235|16:273,1,77.0000023498536,8|0,0:0|0:0,0:0:0:0:
107,218,67753,2,0,P|145:213|181:226,1,77.0000023498536,2|0,1:2|0:0,0:0:0:0:
257,108,68003,2,0,P|244:143|249:181,1,77.0000023498536,8|0,0:0|0:0,0:0:0:0:
162,136,68253,5,2,1:2:0:0:
162,136,68378,2,0,P|120:98|151:11,1,154.000004699707,2|2,0:1|0:0,0:0:0:0:
295,56,68753,2,0,L|218:64,1,77.0000023498536,2|0,1:0|0:0,0:0:0:0:
366,102,69003,1,8,0:0:0:0:
276,253,69253,6,0,P|317:249|358:278,1,77.0000023498536,2|0,1:2|0:0,0:0:0:0:
181,237,69503,2,0,P|194:281|182:317,1,77.0000023498536,8|0,0:0|0:0,0:0:0:0:
41,202,69753,2,0,P|92:204|123:181,1,77.0000023498536,2|0,1:2|0:0,0:0:0:0:
204,133,70003,2,0,P|191:177|203:213,1,77.0000023498536,8|0,0:0|0:0,0:0:0:0:
347,265,70253,5,2,1:2:0:0:
347,265,70378,2,0,B|340:213|340:213|368:174|368:174|360:104,1,154.000004699707,2|2,0:1|0:0,0:0:0:0:
428,236,70753,2,0,L|519:256,1,77.0000023498536,2|0,1:0|0:0,0:0:0:0:
281,149,71003,2,0,L|153:175,1,115.50000352478,12|0,0:2|0:0,0:0:0:0:
143,192,71253,6,0,P|92:138|113:68,1,154.000004699707,0|10,1:0|0:1,0:0:0:0:
188,18,71628,1,0,0:0:0:0:
244,111,71753,2,0,B|318:100|305:152|402:160,1,154.000004699707,0|10,1:0|0:1,0:0:0:0:
317,225,72128,1,0,0:0:0:0:
454,221,72253,6,0,P|476:190|478:152,1,77.0000023498536,0|0,1:0|0:0,0:0:0:0:
388,281,72503,2,0,L|401:362,1,77.0000023498536,10|0,0:1|0:0,0:0:0:0:
248,199,72753,2,0,P|285:202|317:225,1,77.0000023498536,2|0,1:0|0:0,0:0:0:0:
287,338,73003,2,0,L|195:359,1,77.0000023498536,10|0,0:2|0:0,0:0:0:0:
95,271,73253,6,0,P|115:200|187:187,1,154.000004699707,4|10,1:2|0:2,0:0:0:0:
256,256,73628,1,0,0:0:0:0:
417,271,73753,2,0,P|396:200|324:187,1,154.000004699707,2|10,1:2|0:2,0:0:0:0:
256,276,74128,1,2,0:0:0:0:
95,271,74253,6,0,P|88:194|77:118,1,154.000004699707,0|0,1:0|0:0,0:0:0:0:
417,270,74753,2,0,P|424:152|448:40,1,231.000007049561,2|0,0:0|0:0,0:0:0:0:
512,92,75253,6,0,P|464:124|384:96,1,140,4|8,1:0|0:0,0:0:0:0:
267,46,75628,2,0,L|344:33,1,70,0|0,1:0|0:0,0:0:0:0:
308,130,75878,1,0,1:0:0:0:
165,82,76003,1,12,0:0:0:0:
142,73,76253,6,0,B|129:91|104:104|104:104|134:169|131:211,1,140,0|8,1:0|0:0,0:0:0:0:
24,248,76628,2,0,P|39:215|40:175,1,70,0|0,1:0|0:0,0:0:0:0:
24,93,76878,1,0,1:0:0:0:
112,277,77003,1,12,0:0:0:0:
302,135,77253,5,0,1:0:0:0:
287,121,77503,2,0,L|200:107,1,70,8|0,0:0|1:0,0:0:0:0:
339,211,77753,2,0,L|296:297,1,70,0|0,0:0|1:0,0:0:0:0:
437,210,78003,2,0,L|496:270,1,70,8|0,0:0|0:0,0:0:0:0:
378,334,78253,5,2,1:2:0:0:
211,287,78378,1,2,1:2:0:0:
307,273,78503,1,2,1:2:0:0:
170,371,78628,2,0,P|118:376|85:230,1,210,2|0,1:2|0:0,0:0:0:0:
132,181,79128,2,0,L|176:173,2,35,8|8|4,0:3|0:3|0:0,0:0:0:0:
320,248,80253,6,0,P|330:291|328:329,2,70,2|0|2,0:0|0:0|0:0,0:0:0:0:
256,192,81003,1,0,0:0:0:0:
192,248,81753,6,0,P|182:291|184:329,2,70,2|0|2,0:0|0:0|0:0,0:0:0:0:
256,192,82503,2,0,P|264:152|192:88,1,140,0|0,0:0|0:0,0:0:0:0:
112,52,83253,6,0,L|128:204,1,140,2|0,0:0|0:0,0:0:0:0:
213,227,84003,2,0,L|197:75,1,140,2|0,0:0|0:0,0:0:0:0:
264,32,84753,1,2,0:0:0:0:
388,152,85253,1,2,0:0:0:0:
488,12,85753,2,0,L|404:20,1,70,2|0,0:0|0:0,0:0:0:0:
472,92,86253,6,0,L|316:104,1,140,2|0,0:0|0:0,0:0:0:0:
256,148,87003,2,0,L|412:160,1,140,2|0,0:0|0:0,0:0:0:0:
471,192,87753,2,0,P|445:319|316:317,1,280,2|0,0:0|0:0,0:0:0:0:
300,304,89503,6,0,P|320:240|304:144,1,140,4|0,1:0|1:0,0:0:0:0:
323,85,89878,2,0,P|287:85|255:113,1,70,0|0,1:0|0:0,0:0:0:0:
266,236,90128,2,0,P|295:253|330:249,1,70,0|0,1:0|0:0,0:0:0:0:
204,173,90378,6,0,P|136:163|48:157,1,140,4|0,1:2|0:0,0:0:0:0:
129,29,90753,2,0,P|143:73|138:120,1,93.3333333333333,0|0,3:0|3:0,0:0:0:0:
139,119,91003,1,0,0:0:0:0:
83,304,91169,6,0,B|154:320|146:261|217:268,1,140,6|0,1:0|0:0,0:0:0:0:
293,240,91503,5,4,1:2:0:0:
293,240,91753,2,0,L|277:87,2,140,8|0|8,0:0|1:0|0:0,0:0:0:0:
373,290,92419,1,0,0:0:0:0:
392,286,92503,1,0,1:0:0:0:
441,213,92669,1,2,0:1:0:0:
460,209,92753,6,0,P|404:202|354:194,1,93.3333333333333,8|2,0:0|0:0,0:0:0:0:
293,240,93003,2,0,P|256:282|159:270,1,140,2|8,1:0|0:0,0:0:0:0:
52,162,93503,5,0,1:0:0:0:
52,162,93753,2,0,P|44:117|71:80,1,93.3333333333333,8|0,0:0|0:0,0:0:0:0:
149,64,94003,2,0,P|191:79|210:121,1,93.3333333333333,0|0,1:0|0:0,0:0:0:0:
166,187,94253,2,0,P|184:228|227:244,1,93.3333333333333,8|0,0:0|0:0,0:0:0:0:
292,200,94503,5,0,1:0:0:0:
356,118,94669,1,2,0:1:0:0:
361,140,94753,1,8,0:0:0:0:
416,239,94919,1,2,0:0:0:0:
411,217,95003,2,0,P|459:225|512:232,1,93.3333333333333,2|2,1:0|0:0,0:0:0:0:
503,231,95253,2,0,P|516:165|451:129,1,140,8|0,0:0|1:0,0:0:0:0:
228,114,95753,6,0,P|158:124|88:129,2,140,8|0|8,0:0|1:0|0:0,0:0:0:0:
353,202,96503,2,0,P|370:249|312:313,1,140,0|8,1:0|0:0,0:0:0:0:
220,260,96919,1,2,0:0:0:0:
201,277,97003,2,0,P|159:268|98:262,1,93.3333333333333,2|0,1:0|0:0,0:0:0:0:
58,195,97253,2,0,P|100:186|161:180,1,93.3333333333333,8|0,0:0|0:0,0:0:0:0:
218,135,97503,5,0,1:0:0:0:
340,353,97753,2,0,P|344:285|355:213,2,140,8|0|8,0:0|1:0|0:0,0:0:0:0:
278,203,98503,2,0,P|310:144|377:138,1,140,0|8,1:0|0:0,0:0:0:0:
487,194,98919,1,2,0:0:0:0:
503,175,99003,2,0,L|496:70,1,93.3333333333333,2|0,1:2|0:0,0:0:0:0:
419,141,99253,2,0,L|412:36,1,93.3333333333333,10|0,0:0|0:0,0:0:0:0:
333,12,99503,6,0,B|257:2|275:54|207:59,1,140,4|8,1:2|0:0,0:0:0:0:
85,150,99919,1,0,0:0:0:0:
78,128,100003,2,0,P|123:140|182:142,1,93.3333333333333,2|0,1:0|0:0,0:0:0:0:
225,201,100253,1,8,0:0:0:0:
32,284,100503,6,0,P|90:265|186:266,1,140,0|8,1:0|0:0,0:0:0:0:
267,316,100919,1,0,0:0:0:0:
261,338,101003,1,2,1:0:0:0:
376,308,101169,1,0,0:0:0:0:
389,328,101253,2,0,P|422:334|474:287,1,93.3333333333333,8|0,0:0|0:0,0:0:0:0:
496,288,101503,6,0,P|488:218|485:136,1,140,2|10,1:0|0:0,0:0:0:0:
416,91,101878,2,0,P|392:118|344:119,1,70,0|2,0:0|1:0,0:0:0:0:
243,67,102169,1,0,0:0:0:0:
256,50,102253,2,0,L|154:41,1,93.3333333333333,8|0,0:0|0:0,0:0:0:0:
86,81,102503,6,0,L|96:223,2,140,2|2|2,1:2|1:0|1:0,0:0:0:0:
235,219,103253,2,0,L|240:173,3,35,0|0|0|0,3:0|3:0|3:0|3:0,0:0:0:0:
167,274,103503,6,0,P|214:261|289:321,1,140,0|8,1:0|0:0,0:0:0:0:
284,309,103878,2,0,P|376:313|363:222,1,210,4|0,1:2|3:0,0:0:0:0:
404,140,104378,1,0,3:0:0:0:
404,140,104440,1,0,3:0:0:0:
404,140,104503,6,0,P|357:127|282:187,1,140,0|8,1:0|0:0,0:0:0:0:
286,175,104878,2,0,P|194:178|207:87,1,210,4|2,1:2|0:0,0:0:0:0:
458,210,105503,5,4,1:2:0:0:
458,210,105753,1,0,0:0:0:0:
374,204,106003,1,2,0:0:0:0:
298,237,106253,1,0,0:0:0:0:
245,299,106503,6,0,P|174:301|135:243,2,146.999995513916,2|2|2,1:2|0:0|0:0,0:0:0:0:
374,204,107503,2,0,L|371:178,15,24.4999992523194,4|0|0|0|0|0|0|0|0|0|0|0|0|0|0|0,3:2|3:0|3:0|3:0|3:0|3:0|3:0|3:0|3:0|3:0|3:0|3:0|3:0|3:0|3:0|3:0,0:0:0:0:
295,200,108503,6,0,L|291:163,3,28,0|0|0|0,1:0|3:0|3:0|3:0,0:0:0:0:
216,196,108753,2,0,L|213:162,3,31.4999990386963,4|0|0|0,3:2|3:0|3:0|3:0,0:0:0:0:
137,192,109003,2,0,L|133:154,3,35,4|0|0|0,3:2|3:0|3:0|3:0,0:0:0:0:
58,188,109253,2,0,L|54:147,3,38.5000011749268,4|0|0|0,3:2|3:0|3:0|3:0,0:0:0:0:
71,109,109503,6,0,L|80:15,1,83.9999974365235,4|0,1:2|0:0,0:0:0:0:
144,271,109753,2,0,L|156:364,1,83.9999974365235,10|0,0:0|0:0,0:0:0:0:
213,164,110003,2,0,B|218:111|218:111|252:78|252:78|260:2,1,167.999994873047,2|8,1:2|0:0,0:0:0:0:
78,24,110378,6,0,P|120:32|162:35,1,83.9999974365235,2|0,0:0|1:0,0:0:0:0:
124,125,110628,1,0,0:0:0:0:
58,188,110753,2,0,P|33:152|40:105,1,83.9999974365235,8|0,0:2|0:0,0:0:0:0:
149,211,111003,2,0,P|124:294|114:380,1,167.999994873047,2|10,1:2|0:2,0:0:0:0:
205,322,111378,1,0,0:0:0:0:
291,357,111503,5,2,1:2:0:0:
261,127,111753,1,8,0:0:0:0:
380,324,112003,1,2,1:2:0:0:
350,94,112253,1,8,0:0:0:0:
180,204,112503,5,2,1:2:0:0:
180,204,112628,2,0,B|232:212|232:212|268:246|268:246|342:261,1,167.999994873047,0|2,0:0|0:2,0:0:0:0:
428,201,113003,2,0,L|435:311,1,83.9999974365235,2|0,1:0|0:0,0:0:0:0:
350,94,113253,2,0,L|343:204,1,83.9999974365235,10|0,0:1|0:0,0:0:0:0:
316,347,113503,6,0,P|284:373|243:374,2,83.9999974365235,2|2|8,1:0|0:3|0:0,0:0:0:0:
249,289,113878,1,2,0:3:0:0:
89,359,114003,2,0,P|81:318|101:282,2,83.9999974365235,2|2|8,1:0|0:3|0:0,0:0:0:0:
173,330,114378,1,2,0:1:0:0:
177,236,114503,6,0,P|173:198|160:133,1,83.9999974365235,0|2,1:0|0:1,0:0:0:0:
214,48,114753,1,8,0:0:0:0:
122,83,114878,2,0,P|178:127|283:121,1,167.999994873047,2|2,0:3|0:3,0:0:0:0:
357,49,115253,2,0,L|370:111,3,41.9999987182618,8|2|2|2,0:0|0:0|0:3|0:0,0:0:0:0:
396,108,115503,6,0,P|373:156|374:205,1,83.9999974365235,2|2,1:2|0:3,0:0:0:0:
501,287,115753,2,0,P|496:245|476:208,1,83.9999974365235,10|2,0:2|0:3,0:0:0:0:
314,287,116003,1,2,1:2:0:0:
425,357,116128,1,2,0:3:0:0:
403,267,116253,1,10,0:2:0:0:
336,377,116378,1,2,0:3:0:0:
224,299,116503,5,4,1:0:0:0:
224,299,116628,2,0,P|176:289|125:282,1,83.9999974365235,2|0,1:0|0:0,0:0:0:0:
288,85,116878,2,0,P|336:94|387:102,1,83.9999974365235,2|0,1:0|0:0,0:0:0:0:
352,212,117128,1,8,0:3:0:0:
256,195,117253,1,4,1:3:0:0:
161,179,117378,1,10,0:3:0:0:
56,248,117503,6,0,L|68:164,1,83.9999974365235,4|0,1:2|0:0,0:0:0:0:
120,12,117753,2,0,L|132:96,1,83.9999974365235,10|0,0:2|0:0,0:0:0:0:
168,264,118003,2,0,B|180:204|180:204|216:164|216:164|224:112,1,167.999994873047,2|8,1:2|0:0,0:0:0:0:
308,64,118378,6,0,P|336:104|392:104,1,83.9999974365235,2|0,0:2|1:0,0:0:0:0:
392,28,118628,1,0,0:0:0:0:
456,96,118753,2,0,P|464:148|452:196,1,83.9999974365235,10|0,0:2|0:0,0:0:0:0:
496,264,119003,2,0,P|460:216|360:216,1,167.999994873047,2|10,1:2|0:2,0:0:0:0:
412,288,119378,1,0,0:0:0:0:
344,344,119503,6,0,P|300:348|260:364,1,83.9999974365235,2|0,1:2|0:0,0:0:0:0:
120,292,119753,2,0,P|144:324|185:327,1,83.9999974365235,8|0,0:0|0:0,0:0:0:0:
181,160,120003,2,0,P|188:204|188:244,1,83.9999974365235,2|0,1:2|0:0,0:0:0:0:
100,148,120253,2,0,P|108:108|144:87,1,83.9999974365235,8|0,0:0|0:0,0:0:0:0:
240,176,120503,5,2,1:2:0:0:
240,176,120628,2,0,P|224:96|224:0,1,167.999994873047,2|2,0:1|0:0,0:0:0:0:
344,64,121003,2,0,B|308:88|308:88|260:84,1,83.9999974365235,2|0,1:0|0:0,0:0:0:0:
188,243,121253,2,0,B|225:263|225:263|273:255,1,83.9999974365235,8|0,0:0|0:0,0:0:0:0:
352,168,121503,5,2,1:0:0:0:
408,232,121628,1,2,0:3:0:0:
480,192,121753,2,0,P|480:152|488:92,1,83.9999974365235,8|2,0:0|0:3,0:0:0:0:
472,288,122003,5,2,1:0:0:0:
396,248,122128,1,2,0:3:0:0:
348,320,122253,2,0,P|308:332|256:336,1,83.9999974365235,8|2,0:0|0:3,0:0:0:0:
116,328,122503,5,2,1:0:0:0:
116,328,122628,2,0,P|96:276|196:228,1,167.999994873047,2|2,0:3|0:1,0:0:0:0:
260,260,123003,2,0,L|248:352,1,83.9999974365235,0|2,1:0|0:3,0:0:0:0:
152,204,123253,2,0,P|120:140|152:80,1,125.999996154785,8|0,0:0|0:0,0:0:0:0:
200,44,123503,5,2,1:0:0:0:
312,340,124003,1,2,1:0:0:0:
296,140,124503,5,2,1:2:0:0:
216,240,124628,2,0,P|175:230|133:227,1,83.9999974365235,2|0,1:2|0:0,0:0:0:0:
296,140,124878,6,0,B|358:157|426:158|426:158|464:196|459:256|412:266,1,262.500010013581,4|2,1:2|0:0,0:0:0:0:
101,259,129503,5,2,1:2:0:0:
84,138,130003,1,2,1:2:0:0:
205,122,130503,2,0,L|210:162,7,35,2|0|0|0|0|0|0|0,1:2|3:0|3:0|3:0|3:0|3:0|3:0|3:0,0:0:0:0:
221,242,131003,2,0,L|179:247,7,35,2|0|0|0|0|0|0|0,3:2|3:0|3:0|3:0|3:0|3:0|3:0|3:0,0:0:0:0:
302,233,131503,5,0,1:0:0:0:
317,249,131753,2,0,L|308:336,1,70,10|0,0:2|0:0,0:0:0:0:
401,280,132003,2,0,L|393:349,1,70,2|0,1:2|0:0,0:0:0:0:
414,183,132253,1,8,0:0:0:0:
477,237,132378,1,0,0:0:0:0:
394,191,132503,6,0,B|346:185|346:185|312:160|312:160|241:150,1,140,2|8,1:2|0:0,0:0:0:0:
206,223,132878,2,0,P|165:235|122:226,2,70,2|0|0,0:0|1:0|0:0,0:0:0:0:
164,82,133253,2,0,L|158:152,1,70,10|0,0:2|0:0,0:0:0:0:
69,277,133503,6,0,L|79:333,3,35,4|0|0|0,1:2|0:0|0:0|0:0,0:0:0:0:
102,329,133753,2,0,P|136:329|189:338,1,70,8|0,0:0|0:0,0:0:0:0:
309,278,134003,2,0,P|274:277|240:273,1,70,0|0,1:0|0:0,0:0:0:0:
366,350,134253,2,0,P|400:350|435:355,1,70,8|0,0:0|0:0,0:0:0:0:
487,274,134503,6,0,L|478:221,3,35,4|0|0|0,1:2|3:0|3:0|3:0,0:0:0:0:
507,169,134753,2,0,L|516:116,3,35,8|0|0|0,0:0|3:0|3:0|3:0,0:0:0:0:
448,95,135003,2,0,L|386:105,3,35,0|0|0|0,1:0|3:0|3:0|3:0,0:0:0:0:
353,152,135253,2,0,L|318:146,3,35,8|2|2|2,0:0|3:0|3:0|3:0,0:0:0:0:
252,102,135503,6,0,P|196:96|159:200,1,183.750007009506,2|0,0:0|0:0,0:0:0:0:
183,229,136003,2,0,L|191:194,7,35,12|8|8|8|8|8|8|8,0:0|0:0|0:0|0:0|0:0|0:0|0:0|0:0,0:0:0:0:
134,293,136503,6,0,L|144:371,1,70,4|0,1:2|0:0,0:0:0:0:
173,370,136690,1,0,0:0:0:0:
173,370,136753,2,0,P|216:356|255:359,1,70,8|2,0:0|0:0,0:0:0:0:
323,293,137003,2,0,P|346:329|440:334,1,140,2|8,1:2|0:0,0:0:0:0:
487,265,137378,1,2,0:0:0:0:
423,196,137503,6,0,L|414:140,3,35,2|0|0|0,1:2|0:0|0:0|0:0,0:0:0:0:
449,122,137753,2,0,L|458:66,3,35,10|0|0|0,0:2|0:0|0:0|0:0,0:0:0:0:
418,47,138003,1,2,1:2:0:0:
280,188,138253,2,0,L|191:204,1,70,10|0,1:0|0:0,0:0:0:0:
114,168,138503,6,0,P|96:129|110:88,1,70,2|0,1:2|0:0,0:0:0:0:
122,79,138690,1,0,0:0:0:0:
122,79,138753,2,0,L|206:92,1,70,8|2,0:0|0:0,0:0:0:0:
293,108,139003,2,0,B|301:66|301:66|288:-16,2,105,2|2|2,1:2|0:0|0:0,0:0:0:0:
224,198,139503,6,0,L|231:274,1,70,2|0,1:2|0:0,0:0:0:0:
331,218,139753,2,0,L|338:294,1,70,10|0,0:2|0:0,0:0:0:0:
438,238,140003,2,0,L|445:314,1,70,2|0,1:2|0:0,0:0:0:0:
483,132,140253,2,0,P|452:80|390:96,1,105,10|0,1:1|0:0,0:0:0:0:
385,101,140503,6,0,P|318:116|237:119,1,140,4|10,1:0|0:0,0:0:0:0:
169,79,140878,1,2,0:0:0:0:
108,152,141003,2,0,B|130:183|130:183|108:230|113:296,1,140,2|10,1:2|0:0,0:0:0:0:
184,339,141378,1,2,0:0:0:0:
254,274,141503,6,0,P|249:240|221:214,1,70,0|2,1:0|0:0,0:0:0:0:
331,334,141753,2,0,P|350:306|349:267,1,70,10|2,0:0|0:0,0:0:0:0:
408,162,142003,2,0,P|421:151|438:146,3,35,2|0|0|0,1:0|0:0|0:0|0:0,0:0:0:0:
340,115,142253,2,0,P|326:104|309:99,3,35,10|0|2|0,0:2|0:0|0:0|0:0,0:0:0:0:
334,194,142503,6,0,B|268:181|274:236|200:226,1,140,4|10,1:2|0:2,0:0:0:0:
36,111,143003,1,2,1:0:0:0:
36,111,143128,6,0,P|46:162|40:190,1,70,0|10,0:0|0:2,0:0:0:0:
116,225,143378,2,0,P|127:192|127:158,1,70,2|0,0:1|1:0,0:0:0:0:
202,226,143628,2,0,P|193:259|174:288,1,70,2|10,0:1|0:2,0:0:0:0:
95,310,143878,1,0,0:0:0:0:
127,158,144003,2,0,P|176:126|272:152,1,140,2|10,1:0|0:2,0:0:0:0:
414,311,144503,6,0,B|420:267|420:267|452:229|452:229|460:161,1,140,4|10,1:2|0:2,0:0:0:0:
389,116,144878,1,0,0:0:0:0:
472,64,145003,1,2,1:0:0:0:
472,64,145128,6,0,L|392:78,1,70,0|10,0:0|0:2,0:0:0:0:
261,18,145378,2,0,L|341:32,1,70,2|0,0:1|1:0,0:0:0:0:
337,180,145628,2,0,L|327:111,1,70,2|10,0:1|0:2,0:0:0:0:
246,164,145878,1,2,0:1:0:0:
347,268,146003,2,0,P|389:267|421:181,2,140,2|10|4,1:0|0:2|1:2,0:0:0:0:
256,192,146565,12,4,148253,0:3:0:0:
90,69,148503,5,4,1:2:0:0:
100,203,148753,1,4,1:2:0:0:
110,337,149003,1,4,1:2:0:0:
402,337,149378,5,4,1:2:0:0:
412,203,149628,1,0,1:0:0:0:
412,203,149753,1,4,1:2:0:0:
422,69,150003,1,4,1:2:0:0:
422,69,150253,2,0,P|383:77|349:82,1,70,2|0,0:0|0:0,0:0:0:0:
279,129,150503,6,0,P|213:120|187:59,1,140,4|0,1:2|0:0,0:0:0:0:
232,254,151003,2,0,P|298:263|324:324,1,140,2|0,1:2|0:0,0:0:0:0:
146,197,151503,2,0,B|65:188|95:249|-14:240,1,140,2|0,1:2|0:0,0:0:0:0:
132,276,151878,2,0,P|206:284|292:299,1,157.500006008148,2|2,1:0|0:0,0:0:0:0:
448,348,152503,6,0,L|439:294,2,52.5000020027161,4|0|2,1:2|0:0|0:1,0:0:0:0:
436,190,153003,2,0,L|393:224,2,52.5000020027161,2|0|0,0:1|0:0|0:0,0:0:0:0:
306,280,153503,2,0,L|357:299,2,52.5000020027161,0|2|0,0:0|0:1|0:0,0:0:0:0:
236,320,153878,1,0,0:0:0:0:
236,320,154003,2,0,P|204:310|140:346,1,105.000004005432,2|4,0:1|0:3,0:0:0:0:
361,212,154503,6,0,P|352:161|347:109,1,105.000004005432,2|0,1:0|0:0,0:0:0:0:
165,108,155003,2,0,P|159:161|150:212,1,105.000004005432,2|0,1:0|0:0,0:0:0:0:
256,316,155503,5,2,1:2:0:0:
256,232,155628,2,0,L|256:152,1,70,2|0,1:2|0:0,0:0:0:0:
256,72,155878,1,4,1:2:0:0:
256,232,156128,6,0,L|256:302,2,70,8|4|10,0:3|1:3|0:3,0:0:0:0:
336,192,156503,6,0,P|378:181|424:176,1,83.9999974365235,4|0,1:2|0:0,0:0:0:0:
174,143,156753,2,0,P|132:132|86:127,1,83.9999974365235,10|0,0:2|0:0,0:0:0:0:
140,296,157003,2,0,P|186:311|255:225,1,167.999994873047,2|8,1:2|0:0,0:0:0:0:
97,218,157378,6,0,L|0:210,1,83.9999974365235,2|0,0:0|1:0,0:0:0:0:
174,143,157628,1,0,0:0:0:0:
70,122,157753,2,0,P|50:84|62:36,1,83.9999974365235,10|0,0:2|0:0,0:0:0:0:
166,8,158003,2,0,P|212:73|174:143,1,167.999994873047,2|10,1:2|0:2,0:0:0:0:
194,241,158378,1,0,0:0:0:0:
263,177,158503,6,0,L|351:167,1,83.9999974365235,2|0,1:2|0:0,0:0:0:0:
406,284,158753,2,0,P|363:282|327:242,1,83.9999974365235,8|0,0:0|0:0,0:0:0:0:
416,105,159003,1,2,1:2:0:0:
416,105,159128,2,0,P|432:151|432:199,2,83.9999974365235,0|8|2,0:0|0:0|0:0,0:0:0:0:
325,50,159503,6,0,P|282:116|205:96,1,167.999994873047,0|8,1:0|0:0,0:0:0:0:
240,21,159878,1,2,0:0:0:0:
292,147,160003,2,0,P|292:188|276:237,1,83.9999974365235,0|0,1:0|0:0,0:0:0:0:
175,297,160253,2,0,P|162:238|209:201,1,125.999996154785,8|0,0:0|0:0,0:0:0:0:
279,228,160503,6,0,P|322:227|361:191,1,83.9999974365235,2|2,1:0|0:3,0:0:0:0:
348,82,160753,2,0,P|312:60|271:63,1,83.9999974365235,8|2,0:0|0:3,0:0:0:0:
414,140,161003,2,0,L|500:120,1,83.9999974365235,2|2,1:0|0:3,0:0:0:0:
292,147,161253,2,0,L|186:136,1,83.9999974365235,8|2,0:0|0:3,0:0:0:0:
64,62,161503,5,2,1:0:0:0:
88,183,161628,1,2,0:3:0:0:
15,134,161753,1,8,0:0:0:0:
136,110,161878,2,0,P|177:111|211:144,2,83.9999974365235,2|0|2,0:1|1:0|0:3,0:0:0:0:
13,216,162253,2,0,P|22:266|25:319,1,83.9999974365235,8|2,0:0|0:3,0:0:0:0:
94,349,162503,5,2,1:0:0:0:
170,312,162628,1,0,0:0:0:0:
239,360,162753,2,0,P|292:360|319:322,1,83.9999974365235,8|0,0:0|0:0,0:0:0:0:
399,266,163003,5,2,1:0:0:0:
346,203,163128,1,0,0:0:0:0:
389,133,163253,1,8,0:0:0:0:
468,152,163378,1,0,0:0:0:0:
475,234,163503,5,2,1:2:0:0:
346,203,163628,2,0,B|286:196|286:196|240:216|240:216|158:207,2,167.999994873047,2|4|8,1:2|1:2|0:3,0:0:0:0:
468,152,164253,2,0,L|455:41,1,83.9999974365235,4|0,1:3|0:0,0:0:0:0:
399,266,164503,5,4,1:2:0:0:
399,266,164753,1,0,0:0:0:0:
325,319,165003,1,2,0:0:0:0:
232,312,165253,1,0,0:0:0:0:
179,242,165503,5,2,0:0:0:0:
284,288,165753,1,0,0:0:0:0:
394,255,166003,1,2,0:0:0:0:
458,160,166253,1,2,0:0:0:0:
445,45,166503,6,0,B|380:25|360:60|365:130|303:129|260:88|310:53|328:66,1,210.000008010865,4|0,1:2|0:0,0:0:0:0:
67,45,167503,2,0,B|131:25|151:60|146:130|208:129|251:88|201:53|183:66,1,210.000008010865,2|2,0:0|0:0,0:0:0:0:
269,190,168503,6,0,B|280:176|338:147|398:205|366:300|306:265|258:344|258:344|207:266|193:304|124:291|98:162|211:128|282:164|276:237|245:250,1,595.34998183136,4|0,1:2|0:0,0:0:0:0:
257,238,170253,6,0,P|229:270|176:258,1,90.9999958343508,2|0,0:1|0:0,0:0:0:0:
53,109,170503,6,0,P|97:108|151:90,1,77.0000023498536,4|0,1:2|0:0,0:0:0:0:
39,219,170753,2,0,P|44:181|27:147,1,77.0000023498536,8|0,0:0|0:0,0:0:0:0:
184,264,171003,2,0,P|140:265|104:253,1,77.0000023498536,2|0,1:2|0:0,0:0:0:0:
192,371,171253,2,0,P|186:333|203:299,1,77.0000023498536,8|0,0:0|0:0,0:0:0:0:
347,244,171503,5,2,1:2:0:0:
347,244,171628,2,0,P|292:252|240:165,1,154.000004699707,2|2,0:1|0:0,0:0:0:0:
296,102,172003,2,0,L|219:90,1,77.0000023498536,2|0,1:0|0:0,0:0:0:0:
439,148,172253,2,0,L|362:159,1,77.0000023498536,8|0,0:0|0:0,0:0:0:0:
217,220,172503,6,0,P|246:243|255:280,1,77.0000023498536,2|0,1:2|0:0,0:0:0:0:
163,365,172753,2,0,P|170:327|172:289,1,77.0000023498536,8|0,0:0|0:0,0:0:0:0:
78,150,173003,2,0,P|107:173|145:177,1,77.0000023498536,2|0,1:2|0:0,0:0:0:0:
212,83,173253,2,0,P|175:91|137:95,1,77.0000023498536,8|0,0:0|0:0,0:0:0:0:
217,220,173503,5,2,1:2:0:0:
217,220,173628,2,0,B|300:208|275:266|359:265,1,154.000004699707,2|2,0:1|0:0,0:0:0:0:
426,176,174003,2,0,P|388:180|350:182,1,77.0000023498536,2|0,1:0|0:0,0:0:0:0:
298,33,174253,2,0,B|342:27|375:41|375:41|361:90,1,115.50000352478,12|0,0:2|0:0,0:0:0:0:
373,100,174503,6,0,P|298:107|212:116,1,154.000004699707,0|10,1:0|0:1,0:0:0:0:
260,196,174878,1,0,0:0:0:0:
188,252,175003,2,0,P|244:240|304:316,1,154.000004699707,0|10,1:0|0:1,0:0:0:0:
240,360,175378,1,0,0:0:0:0:
160,332,175503,6,0,L|68:348,2,77.0000023498536,0|0|10,1:0|0:0|0:1,0:0:0:0:
188,252,175878,1,0,0:0:0:0:
196,168,176003,2,0,P|157:167|128:192,1,77.0000023498536,2|0,1:0|0:0,0:0:0:0:
212,268,176253,2,0,P|269:284|297:340,1,115.50000352478,10|0,0:2|0:0,0:0:0:0:
328,320,176503,6,0,L|352:140,1,154.000004699707,4|10,1:2|0:2,0:0:0:0:
256,192,176878,1,0,0:0:0:0:
184,64,177003,2,0,L|160:244,1,154.000004699707,2|10,1:2|0:2,0:0:0:0:
256,192,177378,1,0,0:0:0:0:
348,167,177503,6,0,P|396:171|416:263,1,154.000004699707,2|0,1:2|0:0,0:0:0:0:
164,217,178003,2,0,P|116:213|148:84,1,231.000007049561,2|0,0:0|0:0,0:0:0:0:
220,116,178503,6,0,P|285:102|300:38,1,140,4|8,1:0|0:0,0:0:0:0:
316,120,178878,2,0,L|328:196,1,70,0|0,1:0|0:0,0:0:0:0:
376,264,179128,1,0,1:0:0:0:
236,204,179253,1,12,0:0:0:0:
216,220,179503,6,0,B|188:224|156:212|156:212|128:252|72:244,1,140,0|8,1:0|0:0,0:0:0:0:
30,139,179878,2,0,P|55:162|89:165,1,70,0|0,1:0|0:0,0:0:0:0:
167,134,180128,1,0,1:0:0:0:
74,38,180253,1,12,0:0:0:0:
254,139,180503,5,0,1:0:0:0:
272,148,180753,2,0,P|306:151|337:137,1,70,10|0,0:0|1:0,0:0:0:0:
314,6,181003,2,0,P|293:33|290:68,1,70,2|0,0:0|1:0,0:0:0:0:
415,113,181253,2,0,P|400:81|372:61,1,70,10|0,0:0|0:0,0:0:0:0:
207,76,181503,5,2,1:2:0:0:
272,148,181628,1,2,1:2:0:0:
234,242,181753,1,2,1:2:0:0:
141,258,181878,2,0,B|88:276|88:249|108:232|123:284|80:296|33:277|0:211|53:147,1,210,2|6,1:2|1:0,0:0:0:0:
256,192,182315,12,2,183503,0:0:0:0:
