osu file format v14

[General]
AudioFilename: audio.mp3
AudioLeadIn: 0
PreviewTime: 48107
Countdown: 0
SampleSet: Soft
StackLeniency: 0.7
Mode: 0
LetterboxInBreaks: 0
WidescreenStoryboard: 0

[Editor]
Bookmarks: 91502,103502
DistanceSpacing: 0.4
BeatDivisor: 4
GridSize: 32
TimelineZoom: 3.099999

[Metadata]
Title:Presenter*
TitleUnicode:ぷれぜんたー☆
Artist:Aitsuki Nakuru
ArtistUnicode:藍月なくる
Creator:Hanazawa Kana
Version:Gift
Source:
Tags:japanese pop A than_Lily Nacollection!! 2 newton- -Aqua Nokris Reya Lunar Blossom Eir Lobelia Abhor Tsumia DalouBot Affirmation Neoskylove
BeatmapID:1599393
BeatmapSetID:760473

[Difficulty]
HPDrainRate:5
CircleSize:4
OverallDifficulty:9
ApproachRate:9.7
SliderMultiplier:1.6
SliderTickRate:1

[Events]
//Background and Video events
0,0,"bg.jpg",0,0
//Break Periods
2,125682,128987
//Storyboard Layer 0 (Background)
//Storyboard Layer 1 (Fail)
//Storyboard Layer 2 (Pass)
//Storyboard Layer 3 (Foreground)
//Storyboard Layer 4 (Overlay)
//Storyboard Sound Samples

[TimingPoints]
232,250,4,2,1,40,1,0
2232,-200,4,2,1,50,0,0
2669,-200,4,2,1,5,0,0
2732,-200,4,2,1,50,0,0
3169,-200,4,2,1,5,0,0
3232,-200,4,2,1,50,0,0
3669,-200,4,2,1,5,0,0
3732,-200,4,2,1,50,0,0
4669,-200,4,2,1,5,0,0
4732,-200,4,2,1,50,0,0
5169,-200,4,2,1,5,0,0
5232,-200,4,2,1,50,0,0
6232,-200,4,2,1,50,0,0
7982,-200,4,2,1,50,0,0
8232,-200,4,2,1,65,0,0
9982,-66.6666666666667,4,2,1,65,0,0
10169,-66.6666666666667,4,2,1,5,0,0
10232,-83.3333333333333,4,2,1,70,0,0
11232,-71.4285714285714,4,2,1,70,0,0
11419,-71.4285714285714,4,2,1,5,0,0
11482,-83.3333333333333,4,2,1,70,0,0
11544,-83.3333333333333,4,2,1,5,0,0
11607,-83.3333333333333,4,2,2,70,0,0
11732,-66.6666666666667,4,2,1,70,0,0
11982,-83.3333333333333,4,2,1,70,0,0
13232,-66.6666666666667,4,2,1,70,0,0
13419,-66.6666666666667,4,2,1,5,0,0
13482,-83.3333333333333,4,2,1,70,0,0
13544,-83.3333333333333,4,2,1,5,0,0
13607,-83.3333333333333,4,2,2,70,0,0
13732,-66.6666666666667,4,2,1,70,0,0
13982,-58.8235294117647,4,2,1,70,0,0
14169,-58.8235294117647,4,2,1,5,0,0
14232,-76.9230769230769,4,2,1,70,0,0
14482,-58.8235294117647,4,2,1,70,0,0
14669,-58.8235294117647,4,2,1,5,0,0
14732,-83.3333333333333,4,2,1,70,0,0
14982,-58.8235294117647,4,2,1,70,0,0
15169,-58.8235294117647,4,2,1,5,0,0
15232,-90.9090909090909,4,2,1,70,0,0
15482,-58.8235294117647,4,2,1,70,0,0
15669,-58.8235294117647,4,2,1,5,0,0
15732,-52.6315789473684,4,2,1,70,0,0
15919,-52.6315789473684,4,2,1,5,0,0
15982,-166.666666666667,4,2,1,70,0,0
17232,-200,4,2,1,70,0,0
17669,-200,4,2,1,5,0,0
17732,-142.857142857143,4,2,1,70,0,0
18169,-142.857142857143,4,2,1,5,0,0
18232,-83.3333333333334,4,2,1,65,0,0
18419,-83.3333333333334,4,2,1,5,0,0
18482,-83.3333333333334,4,2,1,65,0,0
18607,-200,4,2,1,65,0,0
18982,-71.4285714285714,4,2,1,65,0,0
19169,-71.4285714285714,4,2,1,5,0,0
19232,-83.3333333333333,4,2,1,65,0,0
19419,-83.3333333333333,4,2,1,5,0,0
19482,-83.3333333333333,4,2,1,65,0,0
19607,-166.666666666667,4,2,1,65,0,0
19982,-66.6666666666667,4,2,1,65,0,0
20169,-66.6666666666667,4,2,1,5,0,0
20232,-83.3333333333333,4,2,1,65,0,0
20419,-83.3333333333333,4,2,1,5,0,0
20482,-125,4,2,1,65,0,0
22232,-166.666666666667,4,2,1,55,0,0
22732,-166.666666666667,4,2,1,55,0,0
23732,-166.666666666667,4,2,1,55,0,0
23982,-111.111111111111,4,2,1,55,0,0
24169,-111.111111111111,4,2,1,5,0,0
24232,-83.3333333333333,4,2,1,55,0,0
24419,-83.3333333333333,4,2,1,5,0,0
24482,-83.3333333333333,4,2,1,55,0,0
25482,-76.9230769230769,4,2,1,55,0,0
25544,-76.9230769230769,4,2,1,5,0,0
25607,-76.9230769230769,4,2,1,55,0,0
25669,-76.9230769230769,4,2,1,5,0,0
25732,-76.9230769230769,4,2,1,55,0,0
25982,-62.5,4,2,1,55,0,0
26169,-62.5,4,2,1,5,0,0
26232,-90.9090909090909,4,2,1,55,0,0
27482,-76.9230769230769,4,2,1,55,0,0
27732,-111.111111111111,4,2,1,55,0,0
27982,-166.666666666666,4,2,1,55,0,0
28232,-90.9090909090907,4,2,1,55,0,0
28419,-90.9090909090907,4,2,1,5,0,0
28482,-90.9090909090907,4,2,1,55,0,0
28607,-111.111111111111,4,2,1,55,0,0
28857,-142.857142857143,4,2,1,55,0,0
29107,-111.111111111111,4,2,1,55,0,0
29982,-71.4285714285714,4,2,1,55,0,0
30169,-71.4285714285714,4,2,1,5,0,0
30232,-111.111111111111,4,2,1,55,0,0
30419,-111.111111111111,4,2,1,5,0,0
30482,-142.857142857143,4,2,1,55,0,0
30669,-142.857142857143,4,2,1,5,0,0
30732,-142.857142857143,4,2,1,55,0,0
31732,-111.111111111111,4,2,1,55,0,0
32232,-83.3333333333333,4,2,1,55,0,0
32419,-83.3333333333333,4,2,1,5,0,0
32482,-83.3333333333333,4,2,1,55,0,0
32857,-100,4,2,1,55,0,0
34169,-100,4,2,1,5,0,0
34232,-125,4,2,1,55,0,0
34419,-125,4,2,1,5,0,0
34482,-125,4,2,1,55,0,0
35107,-111.111111111111,4,2,1,55,0,0
35294,-111.111111111111,4,2,1,5,0,0
35357,-111.111111111111,4,2,1,55,0,0
35732,-90.9090909090908,4,2,1,55,0,0
35982,-125,4,2,1,55,0,0
36232,-200,4,2,3,55,0,0
37232,-142.857142857143,4,2,1,55,0,0
37732,-111.111111111111,4,2,1,55,0,0
39482,-90.9090909090908,4,2,1,55,0,0
39857,-142.857142857143,4,2,1,55,0,0
40232,-142.857142857143,4,2,3,50,0,0
40357,-166.666666666667,4,2,3,50,0,0
40732,-166.666666666667,4,2,1,50,0,0
40982,-166.666666666667,4,2,1,50,0,0
41232,-166.666666666667,4,2,1,50,0,0
41482,-166.666666666667,4,2,1,50,0,0
41607,-111.111111111111,4,2,1,50,0,0
41794,-111.111111111111,4,2,1,5,0,0
41857,-166.666666666666,4,2,1,50,0,0
42232,-166.666666666666,4,2,1,50,0,0
42482,-166.666666666666,4,2,1,50,0,0
42732,-166.666666666666,4,2,1,50,0,0
42982,-166.666666666666,4,2,1,50,0,0
43232,-166.666666666666,4,2,1,50,0,0
43482,-166.666666666666,4,2,1,50,0,0
43732,-166.666666666666,4,2,1,50,0,0
43982,-166.666666666666,4,2,1,50,0,0
44232,-166.666666666666,4,2,1,55,0,0
44732,-166.666666666666,4,2,1,55,0,0
45107,-166.666666666666,4,2,1,55,0,0
45732,-166.666666666666,4,2,1,55,0,0
46232,-166.666666666666,4,2,1,55,0,0
46732,-166.666666666666,4,2,1,55,0,0
47232,-166.666666666666,4,2,2,55,0,0
47794,-166.666666666666,4,2,4,55,0,0
48232,-166.666666666666,4,2,1,55,0,0
48857,-166.666666666666,4,2,1,55,0,0
49232,-90.9090909090909,4,2,1,80,0,1
49482,-90.9090909090909,4,2,5,80,0,1
49607,-90.9090909090909,4,2,1,80,0,1
49982,-90.9090909090909,4,2,2,80,0,1
50232,-90.9090909090909,4,2,1,80,0,1
50482,-90.9090909090909,4,2,5,80,0,1
50607,-90.9090909090909,4,2,1,80,0,1
50982,-90.9090909090909,4,2,5,80,0,1
51107,-90.9090909090909,4,2,1,80,0,1
51482,-90.9090909090909,4,2,5,80,0,1
51607,-90.9090909090909,4,2,1,80,0,1
51982,-90.9090909090909,4,2,2,80,0,1
52107,-90.9090909090909,4,2,1,80,0,1
52482,-90.9090909090909,4,2,2,80,0,1
52732,-71.4285714285714,4,2,1,80,0,1
52982,-71.4285714285714,4,2,2,80,0,1
53107,-71.4285714285714,4,2,1,80,0,1
53482,-71.4285714285714,4,2,5,80,0,1
53607,-71.4285714285714,4,2,1,80,0,1
53982,-71.4285714285714,4,2,5,80,0,1
54107,-71.4285714285714,4,2,1,80,0,1
54482,-71.4285714285714,4,2,5,80,0,1
54607,-71.4285714285714,4,2,1,80,0,1
54732,-66.6666666666667,4,2,1,80,0,1
54982,-66.6666666666667,4,2,5,80,0,1
55107,-66.6666666666667,4,2,1,80,0,1
55482,-66.6666666666667,4,2,5,80,0,1
55607,-66.6666666666667,4,2,1,80,0,1
55982,-66.6666666666667,4,2,5,80,0,1
56107,-66.6666666666667,4,2,1,80,0,1
56232,-66.6666666666667,4,2,5,80,0,1
56357,-76.9230769230769,4,2,5,80,0,1
56544,-76.9230769230769,4,2,5,5,0,1
56607,-90.9090909090909,4,2,5,80,0,1
56732,-90.9090909090909,4,2,4,80,0,1
57232,-90.9090909090909,4,2,1,80,0,1
57482,-76.9230769230769,4,2,5,80,0,1
57607,-76.9230769230769,4,2,1,80,0,1
57982,-76.9230769230769,4,2,2,80,0,1
58107,-90.9090909090909,4,2,2,80,0,1
58232,-90.9090909090909,4,2,1,80,0,1
58482,-90.9090909090909,4,2,5,80,0,1
58607,-90.9090909090909,4,2,1,80,0,1
58982,-71.4285714285714,4,2,5,80,0,1
59107,-71.4285714285714,4,2,1,80,0,1
59169,-71.4285714285714,4,2,1,5,0,1
59232,-90.9090909090909,4,2,1,80,0,1
59482,-90.9090909090909,4,2,5,80,0,1
59607,-90.9090909090909,4,2,1,80,0,1
59982,-90.9090909090909,4,2,2,80,0,1
60107,-90.9090909090909,4,2,1,80,0,1
60232,-66.6666666666667,4,2,1,80,0,1
60419,-66.6666666666667,4,2,1,5,0,1
60482,-66.6666666666667,4,2,2,80,0,1
60732,-83.3333333333333,4,2,1,80,0,1
60982,-83.3333333333333,4,2,2,80,0,1
61107,-83.3333333333333,4,2,1,80,0,1
61482,-83.3333333333333,4,2,5,80,0,1
61607,-83.3333333333333,4,2,1,80,0,1
61982,-83.3333333333333,4,2,5,80,0,1
62107,-83.3333333333333,4,2,1,80,0,1
62232,-62.5,4,2,1,80,0,1
62419,-62.5,4,2,1,5,0,1
62482,-62.5,4,2,5,80,0,1
62607,-62.5,4,2,1,80,0,1
62982,-62.5,4,2,5,80,0,1
63107,-62.5,4,2,1,80,0,1
63232,-71.4285714285714,4,2,1,80,0,1
63482,-71.4285714285714,4,2,5,80,0,1
63607,-71.4285714285714,4,2,1,80,0,1
63982,-71.4285714285714,4,2,5,80,0,1
64107,-71.4285714285714,4,2,1,80,0,1
64232,-71.4285714285714,4,2,5,80,0,1
64357,-125,4,2,5,80,0,1
64732,-125,4,2,4,80,0,1
64857,-125,4,2,4,80,0,1
64982,-90.9090909090909,4,2,4,80,0,1
65232,-111.111111111111,4,2,1,50,0,1
66232,-111.111111111111,4,2,1,50,0,0
66357,-111.111111111111,4,2,1,50,0,0
66482,-111.111111111111,4,2,1,50,0,0
66607,-111.111111111111,4,2,1,50,0,0
66732,-111.111111111111,4,2,5,65,0,0
67232,-99.9999999999999,4,2,1,70,0,0
68232,-76.9230769230769,4,2,1,70,0,0
68607,-71.4285714285714,4,2,2,70,0,0
68732,-250,4,2,1,70,0,0
68982,-99.9999999999999,4,2,1,70,0,0
70232,-71.4285714285714,4,2,1,70,0,0
70607,-66.6666666666667,4,2,2,70,0,0
70732,-250,4,2,1,70,0,0
70982,-62.5,4,2,1,70,0,0
71169,-62.5,4,2,1,5,0,0
71232,-111.111111111111,4,2,1,70,0,0
71482,-62.5,4,2,1,70,0,0
71669,-62.5,4,2,1,5,0,0
71732,-111.111111111111,4,2,1,70,0,0
71982,-62.5,4,2,1,70,0,0
72169,-62.5,4,2,1,5,0,0
72232,-111.111111111111,4,2,1,70,0,0
72482,-62.5,4,2,1,70,0,0
72669,-62.5,4,2,1,5,0,0
72732,-58.8235294117647,4,2,1,70,0,0
72919,-58.8235294117647,4,2,1,5,0,0
72982,-111.111111111111,4,2,1,70,0,0
74232,-166.666666666667,4,2,1,70,0,0
74732,-200,4,2,1,70,0,0
75232,-66.6666666666667,4,2,1,70,0,0
75419,-66.6666666666667,4,2,1,5,0,0
75482,-66.6666666666667,4,2,1,70,0,0
75544,-66.6666666666667,4,2,1,5,0,0
75607,-200,4,2,1,70,0,0
75982,-58.8235294117647,4,2,1,70,0,0
76232,-66.6666666666667,4,2,1,70,0,0
76419,-66.6666666666667,4,2,1,5,0,0
76482,-66.6666666666667,4,2,1,70,0,0
76544,-66.6666666666667,4,2,1,5,0,0
76607,-200,4,2,1,70,0,0
76982,-58.8235294117647,4,2,1,70,0,0
77232,-66.6666666666667,4,2,1,70,0,0
77419,-66.6666666666667,4,2,1,5,0,0
77482,-100,4,2,1,70,0,0
79232,-200,4,2,1,70,0,0
79732,-200,4,2,1,70,0,0
80232,250,3,2,1,50,1,0
80232,-200,4,2,1,50,0,0
81732,-200,3,2,1,50,0,0
83232,-200,3,2,1,50,0,0
83732,-200,3,2,1,50,0,0
84482,-200,3,2,1,50,0,0
86732,-200,3,2,1,50,0,0
86982,-200,3,2,1,50,0,0
88732,-200,3,2,1,50,0,0
89232,-200,3,2,1,50,0,0
89482,250,4,2,1,60,1,0
89669,-100,4,2,1,5,0,0
89732,-100,4,2,1,60,0,0
90044,-100,4,2,1,5,0,0
90107,-76.9230769230769,4,2,1,60,0,0
90294,-76.9230769230769,4,2,1,5,0,0
90357,-111.111111111111,4,2,1,60,0,0
90607,-111.111111111111,4,2,4,60,0,0
90982,-111.111111111111,4,2,4,60,0,0
91148,-111.111111111111,4,2,1,60,0,0
91482,-125,4,2,1,55,0,0
91648,-125,4,2,1,5,0,0
91732,-125,4,2,1,55,0,0
91898,-125,4,2,1,5,0,0
91982,-125,4,2,1,55,0,0
92148,-125,4,2,1,5,0,0
92232,-125,4,2,1,55,0,0
93482,-83.3333333333333,4,2,1,55,0,0
93732,-125,4,2,1,55,0,0
93898,-125,4,2,1,5,0,0
93982,-125,4,2,1,55,0,0
94148,-125,4,2,1,5,0,0
94232,-125,4,2,1,55,0,0
95482,-83.3333333333333,4,2,1,55,0,0
95732,-125,4,2,1,55,0,0
95898,-125,4,2,1,5,0,0
95982,-125,4,2,1,55,0,0
96148,-125,4,2,1,5,0,0
96232,-125,4,2,1,55,0,0
96732,-90.9090909090909,4,2,1,55,0,0
96898,-90.9090909090909,4,2,1,5,0,0
96982,-125,4,2,1,55,0,0
97148,-125,4,2,1,5,0,0
97232,-125,4,2,1,55,0,0
97482,-83.3333333333333,4,2,1,55,0,0
97732,-125,4,2,1,55,0,0
97898,-125,4,2,1,5,0,0
97982,-125,4,2,1,55,0,0
98148,-125,4,2,1,5,0,0
98232,-125,4,2,1,55,0,0
99482,-90.9090909090909,4,2,1,60,0,0
99898,-111.111111111111,4,2,1,60,0,0
100482,-83.3333333333333,4,2,1,60,0,0
100898,-111.111111111111,4,2,1,60,0,0
101482,-83.3333333333333,4,2,1,60,0,0
101898,-125,4,2,1,60,0,0
102544,-125,4,2,1,60,0,0
102732,-125,4,2,1,60,0,0
102794,-125,4,2,1,60,0,0
102982,-125,4,2,1,60,0,0
103044,-125,4,2,1,60,0,0
103107,-125,4,2,4,60,0,0
103232,-125,4,2,4,60,0,0
103482,-166.666666666667,4,2,1,60,0,0
104232,-125,4,2,4,60,0,0
104482,-166.666666666667,4,2,1,60,0,0
105482,-166.666666666667,4,2,1,55,0,0
107482,-166.666666666667,4,2,1,55,0,0
108482,-90.909090909091,4,2,1,55,0,0
108732,-90.909090909091,4,2,1,55,0,0
108982,-90.909090909091,4,2,1,55,0,0
109107,-90.909090909091,4,2,1,55,0,0
109482,-90.9090909090909,4,2,1,80,0,1
109732,-90.9090909090909,4,2,5,80,0,1
109857,-90.9090909090909,4,2,1,80,0,1
110232,-90.9090909090909,4,2,2,80,0,1
110482,-90.9090909090909,4,2,1,80,0,1
110732,-90.9090909090909,4,2,5,80,0,1
110857,-90.9090909090909,4,2,1,80,0,1
111232,-90.9090909090909,4,2,5,80,0,1
111357,-90.9090909090909,4,2,1,80,0,1
111732,-90.9090909090909,4,2,5,80,0,1
111857,-90.9090909090909,4,2,1,80,0,1
112232,-90.9090909090909,4,2,2,80,0,1
112357,-90.9090909090909,4,2,1,80,0,1
112732,-90.9090909090909,4,2,2,80,0,1
112982,-90.9090909090909,4,2,1,80,0,1
113232,-90.9090909090909,4,2,2,80,0,1
113357,-90.9090909090909,4,2,1,80,0,1
113732,-90.9090909090909,4,2,5,80,0,1
113857,-90.9090909090909,4,2,1,80,0,1
114232,-90.9090909090909,4,2,5,80,0,1
114357,-90.9090909090909,4,2,1,80,0,1
114732,-90.9090909090909,4,2,5,80,0,1
114857,-90.9090909090909,4,2,1,80,0,1
114982,-66.6666666666667,4,2,1,80,0,1
115169,-66.6666666666667,4,2,1,5,0,1
115232,-66.6666666666667,4,2,5,80,0,1
115357,-66.6666666666667,4,2,1,80,0,1
115732,-66.6666666666667,4,2,5,80,0,1
115857,-66.6666666666667,4,2,1,80,0,1
116232,-66.6666666666667,4,2,5,80,0,1
116357,-66.6666666666667,4,2,1,80,0,1
116482,-66.6666666666667,4,2,5,80,0,1
116607,-76.9230769230769,4,2,5,80,0,1
116794,-76.9230769230769,4,2,5,5,0,1
116857,-90.9090909090909,4,2,5,80,0,1
116982,-90.9090909090909,4,2,4,80,0,1
117107,-125,4,2,4,80,0,1
117482,-90.9090909090909,4,2,1,80,0,1
117732,-90.9090909090909,4,2,5,80,0,1
117857,-90.9090909090909,4,2,1,80,0,1
118232,-90.9090909090909,4,2,2,80,0,1
118482,-90.9090909090909,4,2,1,80,0,1
118732,-90.9090909090909,4,2,5,80,0,1
118857,-90.9090909090909,4,2,1,80,0,1
118982,-76.9230769230769,4,2,1,80,0,1
119169,-76.9230769230769,4,2,1,5,0,1
119232,-90.9090909090909,4,2,5,80,0,1
119357,-90.9090909090909,4,2,1,80,0,1
119732,-90.9090909090909,4,2,5,80,0,1
119857,-90.9090909090909,4,2,1,80,0,1
120232,-90.9090909090909,4,2,2,80,0,1
120357,-90.9090909090909,4,2,1,80,0,1
120482,-76.9230769230769,4,2,1,80,0,1
120669,-76.9230769230769,4,2,1,5,0,1
120732,-90.9090909090909,4,2,2,80,0,1
120982,-90.9090909090909,4,2,1,80,0,1
121232,-90.9090909090909,4,2,2,80,0,1
121357,-90.9090909090909,4,2,1,80,0,1
121732,-90.9090909090909,4,2,5,80,0,1
121857,-90.9090909090909,4,2,1,80,0,1
122232,-90.9090909090909,4,2,5,80,0,1
122357,-90.9090909090909,4,2,1,80,0,1
122482,-90.9090909090909,4,2,6,80,0,1
122544,-90.9090909090909,4,2,6,80,0,1
122607,-90.9090909090909,4,2,4,80,0,1
122732,-90.9090909090909,4,2,7,80,0,1
122794,-90.9090909090909,4,2,4,80,0,1
122982,-90.9090909090909,4,2,6,80,0,1
123044,-90.9090909090909,4,2,4,80,0,1
123232,-90.9090909090909,4,2,7,80,0,1
123294,-90.9090909090909,4,2,4,80,0,1
123482,-90.9090909090909,4,2,1,80,0,1
124482,-90.9090909090909,4,2,5,80,0,1
124857,-1000,4,2,5,80,0,0
125482,-1000,4,2,1,50,0,0
129482,-200,4,2,1,50,0,0
130482,-125,4,2,4,50,0,0
130544,-125,4,2,4,50,0,0
130982,-125,4,2,4,50,0,0
131044,-125,4,2,4,50,0,0
131482,-125,4,2,6,60,0,0
131607,-125,4,2,1,60,0,0
134482,-125,4,2,1,60,0,0
134544,-125,4,2,1,60,0,0
134732,-125,4,2,1,60,0,0
134794,-125,4,2,1,60,0,0
134982,-125,4,2,1,60,0,0
135044,-125,4,2,1,60,0,0
135232,-125,4,2,1,60,0,0
135294,-125,4,2,1,60,0,0
135482,-125,4,2,1,50,0,0
135982,-125,4,2,1,50,0,0
136044,-125,4,2,1,50,0,0
136482,-125,4,2,1,60,0,0
136732,-125,4,2,5,60,0,0
136857,-111.111111111111,4,2,5,60,0,0
136982,-100,4,2,1,60,0,0
137232,-100,4,2,5,60,0,0
137482,-100,4,2,1,60,0,0
137544,-100,4,2,1,60,0,0
137732,-100,4,2,5,60,0,0
137794,-100,4,2,5,60,0,0
137982,-100,4,2,1,60,0,0
138232,-100,4,2,5,60,0,0
138482,-100,4,2,1,60,0,0
138732,-100,4,2,5,60,0,0
138982,-100,4,2,1,60,0,0
139232,-100,4,2,5,60,0,0
139482,-100,4,2,1,60,0,0
139732,-66.6666666666667,4,2,5,60,0,0
139982,-62.5,4,2,1,60,0,0
140232,-83.3333333333333,4,2,5,60,0,0
140482,-83.3333333333333,4,2,1,60,0,0
140732,-83.3333333333333,4,2,5,60,0,0
140982,-111.111111111111,4,2,1,60,0,0
141232,-83.3333333333333,4,2,5,60,0,0
141482,-83.3333333333333,4,2,1,60,0,0
141732,-83.3333333333333,4,2,5,60,0,0
141857,-83.3333333333333,4,2,5,60,0,0
141982,-83.3333333333333,4,2,1,60,0,0
142232,-83.3333333333333,4,2,5,60,0,0
142482,-83.3333333333333,4,2,1,60,0,0
142732,-83.3333333333333,4,2,5,60,0,0
142982,-83.3333333333333,4,2,1,60,0,0
143232,-83.3333333333333,4,2,5,60,0,0
143482,-83.3333333333333,4,2,1,60,0,0
143732,-83.3333333333333,4,2,5,60,0,0
143982,-83.3333333333333,4,2,1,60,0,0
144232,-83.3333333333333,4,2,5,60,0,0
144482,-83.3333333333333,4,2,1,60,0,0
144544,-83.3333333333333,4,2,1,40,0,0
144732,-83.3333333333333,4,2,5,60,0,0
144794,-83.3333333333333,4,2,5,40,0,0
144982,-83.3333333333333,4,2,1,60,0,0
145044,-83.3333333333333,4,2,1,40,0,0
145232,-83.3333333333333,4,2,5,60,0,0
145294,-83.3333333333333,4,2,5,40,0,0
145482,-83.3333333333333,4,2,6,60,0,0
145544,-83.3333333333333,4,2,4,60,0,0
145732,-83.3333333333333,4,2,7,60,0,0
145794,-83.3333333333333,4,2,4,60,0,0
145982,-83.3333333333333,4,2,6,60,0,0
146044,-83.3333333333333,4,2,4,60,0,0
146232,-83.3333333333333,4,2,7,60,0,0
146294,-83.3333333333333,4,2,4,60,0,0
146482,-1000,4,2,1,60,0,0
148482,-166.666666666667,4,2,5,70,0,0
150232,-166.666666666667,4,2,1,70,0,0
150982,-200,4,2,1,70,0,0
152357,-200,4,2,1,70,0,0
152482,-142.857142857143,4,2,1,70,0,0
152857,-142.857142857143,4,2,1,70,0,0
154482,-111.111111111111,4,2,1,70,0,0
154982,-90.9090909090908,4,2,1,70,0,0
155544,-90.9090909090908,4,2,1,5,0,0
155607,-125,4,2,1,70,0,0
155982,-125,4,2,4,70,0,0
156232,-111.111111111111,4,2,4,70,0,0
156357,-99.9999999999999,4,2,4,70,0,0
156482,-100,4,2,1,80,0,1
156732,-100,4,2,5,80,0,1
156857,-100,4,2,1,80,0,1
156919,-100,4,2,1,5,0,1
156982,-125,4,2,1,80,0,1
157232,-125,4,2,2,80,0,1
157357,-100,4,2,2,80,0,1
157482,-100,4,2,1,80,0,1
157732,-100,4,2,5,80,0,1
157857,-100,4,2,1,80,0,1
158232,-100,4,2,5,80,0,1
158357,-100,4,2,1,80,0,1
158732,-100,4,2,5,80,0,1
158857,-100,4,2,1,80,0,1
159232,-100,4,2,2,80,0,1
159357,-83.3333333333333,4,2,1,80,0,1
159732,-83.3333333333333,4,2,2,80,0,1
159982,-83.3333333333333,4,2,1,80,0,1
160232,-83.3333333333333,4,2,2,80,0,1
160357,-83.3333333333333,4,2,1,80,0,1
160732,-83.3333333333333,4,2,5,80,0,1
160857,-83.3333333333333,4,2,1,80,0,1
161232,-83.3333333333333,4,2,5,80,0,1
161357,-83.3333333333333,4,2,1,80,0,1
161732,-83.3333333333333,4,2,5,80,0,1
161857,-83.3333333333333,4,2,1,80,0,1
162232,-83.3333333333333,4,2,5,80,0,1
162357,-100,4,2,1,80,0,1
162732,-100,4,2,5,80,0,1
162857,-100,4,2,1,80,0,1
163232,-100,4,2,5,80,0,1
163357,-100,4,2,1,80,0,1
163482,-100,4,2,5,80,0,1
163607,-83.3333333333333,4,2,5,80,0,1
163794,-83.3333333333333,4,2,5,5,0,1
163857,-83.3333333333333,4,2,5,80,0,1
164107,-83.3333333333333,4,2,4,80,0,1
164482,-400,4,2,1,50,0,0
166357,-400,4,2,1,5,0,0
166482,-400,4,2,1,50,0,0
168357,-400,4,2,1,5,0,0
168482,-142.857142857143,4,2,1,50,0,0
169482,-142.857142857143,4,2,4,45,0,0
169982,-142.857142857143,4,2,4,55,0,0
170232,-66.6666666666667,4,2,4,55,0,0
170419,-66.6666666666667,4,2,4,5,0,0
170482,-83.3333333333333,4,2,1,70,0,0
171857,-83.3333333333333,4,2,2,70,0,0
171982,-83.3333333333333,4,2,1,70,0,0
172169,-83.3333333333333,4,2,1,5,0,0
172232,-83.3333333333333,4,2,1,70,0,0
173857,-83.3333333333333,4,2,2,70,0,0
173982,-83.3333333333333,4,2,1,70,0,0
174169,-83.3333333333333,4,2,1,5,0,0
174232,-71.4285714285714,4,2,1,70,0,0
174419,-71.4285714285714,4,2,1,5,0,0
174482,-111.111111111111,4,2,1,70,0,0
174732,-71.4285714285714,4,2,1,70,0,0
174919,-71.4285714285714,4,2,1,5,0,0
174982,-111.111111111111,4,2,1,70,0,0
175232,-71.4285714285714,4,2,1,70,0,0
175419,-71.4285714285714,4,2,1,5,0,0
175482,-111.111111111111,4,2,1,70,0,0
175732,-71.4285714285714,4,2,1,70,0,0
175919,-71.4285714285714,4,2,1,5,0,0
175982,-71.4285714285714,4,2,1,70,0,0
176169,-71.4285714285714,4,2,1,5,0,0
176232,-71.4285714285714,4,2,1,70,0,0
177482,-166.666666666666,4,2,1,70,0,0
177919,-166.666666666666,4,2,1,5,0,0
177982,-125,4,2,1,70,0,0
178419,-125,4,2,1,5,0,0
178482,-100,4,2,1,70,0,0
178732,-83.3333333333333,4,2,1,70,0,0
179232,-71.4285714285715,4,2,1,70,0,0
179482,-100,4,2,1,70,0,0
179732,-83.3333333333333,4,2,1,70,0,0
180232,-71.4285714285715,4,2,1,70,0,0
180482,-200,4,2,1,70,0,0
182232,-200,4,2,5,70,0,0

[Colours]
Combo1 : 253,219,198
Combo2 : 139,235,252
Combo3 : 250,163,248
Combo4 : 204,248,156

[HitObjects]
120,155,232,6,0,L|128:211,3,40,2|0|0|0,0:2|0:0|0:0|0:0,0:0:0:0:
186,245,482,2,0,L|176:294,3,40,0|0|0|0,0:0|0:0|0:0|0:0,0:0:0:0:
262,288,732,2,0,L|272:341,3,40,0|0|0|0,0:0|0:0|0:0|0:0,0:0:0:0:
295,209,982,2,0,L|302:155,3,40
344,279,1232,5,2,0:2:0:0:
356,269,1294,1,2,2:0:0:0:
371,263,1357,1,2,2:0:0:0:
386,261,1419,1,2,2:0:0:0:
412,263,1482,5,2,2:0:0:0:
433,279,1544,1,2,2:0:0:0:
440,306,1607,1,2,2:0:0:0:
431,332,1669,1,2,2:0:0:0:
400,357,1732,5,2,2:0:0:0:
401,317,1794,1,2,2:0:0:0:
394,277,1857,1,2,2:0:0:0:
385,238,1919,1,2,2:0:0:0:
387,197,1982,1,2,2:0:0:0:
394,158,2044,1,2,2:0:0:0:
410,113,2107,1,2,2:0:0:0:
415,61,2169,1,2,2:0:0:0:
429,12,2232,6,0,P|382:74|319:54,1,140,6|2,3:2|0:2,0:0:0:0:
287,39,2732,2,0,P|323:78|414:74,1,140,0|0,0:0|0:0,0:0:0:0:
429,12,3232,2,0,P|423:73|416:156,1,140,2|0,0:2|0:0,0:0:0:0:
416,187,3732,1,2,0:2:0:0:
0,173,4232,6,0,P|16:208|112:193,1,140,2|0,0:2|0:0,0:0:0:0:
148,136,4732,2,0,L|123:268,1,120,2|0,0:2|0:0,0:0:0:0:
121,294,5232,1,2,0:2:0:0:
409,366,6232,6,0,P|439:362|491:331,1,80,2|0,0:2|0:0,0:0:0:0:
456,269,6732,2,0,P|425:272|373:303,1,80,0|0,0:0|0:0,0:0:0:0:
191,302,7232,2,0,B|235:286|272:318,1,80,2|0,0:2|0:0,0:0:0:0:
279,350,7607,1,2,0:2:0:0:
133,88,7982,5,2,0:2:0:0:
133,88,8107,1,2,0:2:0:0:
184,324,8232,1,6,3:2:0:0:
218,50,8482,5,2,0:2:0:0:
218,50,8607,1,2,0:2:0:0:
121,268,8732,1,6,3:2:0:0:
301,81,8982,5,2,0:2:0:0:
42,251,9107,1,6,3:2:0:0:
46,264,9357,5,2,3:2:0:0:
296,301,9482,2,0,L|344:292,1,40,6|0,3:2|0:0,0:0:0:0:
104,350,9732,1,2,3:2:0:0:
263,227,9982,6,0,B|273:176|320:159|320:159|276:128|251:163|234:186,1,180.000006866455,0|0,0:0|0:0,0:0:0:0:
189,255,10232,2,0,P|205:303|212:357,1,95.9999970703126,6|2,3:2|0:3,0:0:0:0:
370,358,10482,1,2,3:2:0:0:
381,264,10607,1,2,0:3:0:0:
197,352,10732,2,0,P|137:359|94:344,1,95.9999970703126,2|2,3:2|0:3,0:0:0:0:
302,181,10982,1,2,3:2:0:0:
303,290,11107,1,2,0:3:0:0:
23,371,11232,6,0,B|18:323|18:323|60:272|60:272|29:255|25:230,1,167.999994873047,2|0,3:2|0:0,0:0:0:0:
1,209,11482,2,0,P|-1:179|3:156,1,47.9999985351563,0|0,3:0|0:0,0:0:0:0:
37,90,11607,1,2,0:2:0:0:
142,262,11732,2,0,P|209:260|223:177,1,120.000004577637,0|2,3:0|0:3,0:0:0:0:
210,123,11982,2,0,P|221:69|232:28,1,95.9999970703126,0|2,3:0|0:3,0:0:0:0:
488,254,12232,6,0,P|432:237|380:243,1,95.9999970703126,2|2,3:2|0:3,0:0:0:0:
282,317,12482,1,2,3:2:0:0:
384,344,12607,1,2,0:3:0:0:
341,175,12732,2,0,P|282:180|217:199,1,95.9999970703126,2|2,3:2|0:3,0:0:0:0:
178,347,12982,1,2,3:2:0:0:
282,317,13107,1,2,0:3:0:0:
162,146,13232,6,0,B|163:190|163:190|110:230|110:230|121:258|120:314,1,180.000006866455,2|0,3:2|0:0,0:0:0:0:
106,315,13482,2,0,P|77:303|50:300,1,47.9999985351563,0|0,3:0|0:0,0:0:0:0:
0,360,13607,1,2,0:2:0:0:
73,147,13732,2,0,P|55:100|1:126,1,120.000004577637,0|2,3:0|0:3,0:0:0:0:
110,213,13982,6,0,B|140:189|157:155|157:155|161:74|96:37,1,204.000003890991,0|0,3:0|0:0,0:0:0:0:
35,15,14232,6,0,P|94:24|146:75,1,103.999995239258,4|2,3:2|0:3,0:0:0:0:
315,136,14482,6,0,B|290:77|248:60|248:60|261:111|260:174,1,204.000003890991,2|0,3:2|0:0,0:0:0:0:
244,256,14732,6,0,P|257:202|259:147,1,95.9999970703126,0|2,3:0|0:3,0:0:0:0:
455,82,14982,6,0,B|429:147|389:176|389:176|398:129|385:78,1,204.000003890991,2|0,3:2|0:0,0:0:0:0:
390,2,15232,6,0,P|383:60|394:111,1,88.000002685547,0|2,3:0|0:3,0:0:0:0:
385,259,15482,6,0,B|345:252|325:222|325:222|344:292|331:366,1,204.000003890991,2|0,3:2|0:0,0:0:0:0:
451,347,15732,6,0,B|516:297|491:187|491:187|484:218|459:254,1,227.999993911743,2|0,3:2|0:0,0:0:0:0:
329,347,15982,6,0,P|355:360|385:369,1,47.9999985351563,2|2,3:2|0:3,0:0:0:0:
57,353,16232,5,4,3:2:0:0:
131,330,16357,1,2,0:3:0:0:
236,234,16482,5,0,3:0:0:0:
281,243,16607,1,2,0:3:0:0:
116,209,16732,5,0,3:0:0:0:
113,235,16857,1,2,0:3:0:0:
240,310,16982,5,0,3:0:0:0:
242,322,17107,1,2,0:3:0:0:
259,100,17232,6,0,P|254:152|325:150,1,140,4|0,3:2|0:0,0:0:0:0:
201,122,17732,6,0,P|228:167|336:117,1,195.999994018555,0|0,0:0|0:0,0:0:0:0:
408,101,18232,6,0,B|394:64|394:64|391:138|400:207,1,143.999995605469,4|0,3:2|0:0,0:0:0:0:
402,240,18482,1,0,1:0:0:0:
482,67,18607,6,0,B|494:108|494:108|481:156,1,80,0|0,3:0|3:0,0:0:0:0:
507,219,18982,6,0,B|521:284|513:317|513:317|482:250,1,167.999994873047,0|0,1:0|0:0,0:0:0:0:
402,240,19232,6,0,B|354:226|354:226|246:261,1,143.999995605469,0|0,3:0|0:0,0:0:0:0:
198,298,19482,1,0,1:0:0:0:
428,335,19607,6,0,P|379:323|326:332,1,95.9999970703126,0|0,3:0|3:0,0:0:0:0:
257,354,19982,6,0,P|195:382|125:277,1,180.000006866455,0|0,1:0|0:0,0:0:0:0:
145,239,20232,6,0,B|166:201|166:201|162:89,1,143.999995605469,0|0,3:0|0:0,0:0:0:0:
182,26,20482,6,0,P|202:65|226:91,1,64,0|0,1:0|3:0,0:0:0:0:
256,175,20732,2,0,P|303:169|336:150,1,64,0|0,0:0|3:0,0:0:0:0:
435,154,20982,2,0,P|447:105|444:68,1,64,0|0,1:0|0:0,0:0:0:0:
374,20,21232,5,4,3:2:0:0:
385,283,21357,1,0,3:0:0:0:
62,293,21482,1,0,3:0:0:0:
53,31,21607,1,4,1:2:0:0:
80,115,22232,6,0,P|116:97|144:39,1,95.9999970703126,6|0,3:2|0:0,0:0:0:0:
145,20,22732,2,0,P|138:62|92:113,1,95.9999970703126,0|0,0:0|0:0,0:0:0:0:
6,138,23232,6,0,L|15:198,1,47.9999985351563,2|0,0:2|0:0,0:0:0:0:
58,267,23482,1,2,0:0:0:0:
78,255,23544,1,2,0:0:0:0:
101,249,23607,1,2,0:0:0:0:
124,250,23669,1,2,0:0:0:0:
146,258,23732,2,0,L|211:251,1,47.9999985351563,0|0,3:0|3:0,0:0:0:0:
215,337,23982,6,0,B|141:345|141:345|95:324,1,107.999996704102,0|0,1:0|0:0,0:0:0:0:
101,249,24232,6,0,P|122:196|228:207,1,143.999995605469,6|0,3:2|0:0,0:0:0:0:
277,181,24482,2,0,L|165:152,1,95.9999970703126,0|2,0:0|0:2,0:0:0:0:
93,102,24732,1,0,3:0:0:0:
125,3,24857,1,2,3:2:0:0:
23,177,24982,1,0,0:0:0:0:
113,91,25107,6,0,L|236:79,1,95.9999970703126,2|0,3:2|0:0,0:0:0:0:
387,59,25357,1,0,3:0:0:0:
401,161,25482,2,0,L|393:219,1,51.999997619629,0|0,0:0|0:0,0:0:0:0:
297,114,25607,2,0,L|299:166,1,51.999997619629,0|0,0:0|0:0,0:0:0:0:
466,97,25732,1,0,1:0:0:0:
333,274,25857,1,0,3:0:0:0:
512,350,25982,6,0,B|482:322|482:322|430:349|430:349|383:340|339:367,1,192,2|0,3:2|0:0,0:0:0:0:
254,362,26232,2,0,P|246:303|252:238,1,88.000002685547,2|0,3:2|0:0,0:0:0:0:
298,165,26482,1,0,0:0:0:0:
161,329,26607,1,2,0:2:0:0:
333,274,26732,1,0,3:0:0:0:
124,245,26857,1,2,1:2:0:0:
254,362,26982,1,0,0:0:0:0:
224,132,27107,6,0,B|198:122|177:101|177:101|199:235,1,176.000005371094,2|0,3:2|3:0,0:0:0:0:
370,357,27482,1,0,0:0:0:0:
435,274,27607,1,0,0:0:0:0:
254,362,27732,6,0,P|206:353|162:354,1,71.9999978027344,2|0,1:2|3:0,0:0:0:0:
77,292,27982,2,0,P|116:285|139:283,1,47.9999985351563,2|0,3:2|0:0,0:0:0:0:
206,272,28232,6,0,B|193:226|193:226|201:183|201:183|189:109,1,132.00000402832,2|0,3:2|0:0,0:0:0:0:
180,106,28482,1,0,0:0:0:0:
92,176,28607,2,0,L|15:163,1,71.9999978027344,2|0,0:2|3:0,0:0:0:0:
64,72,28857,6,0,L|4:73,1,55.9999982910157,2|0,3:2|0:0,0:0:0:0:
195,35,29107,2,0,L|174:128,1,71.9999978027344,2|0,3:2|0:0,0:0:0:0:
233,194,29357,1,2,3:2:0:0:
344,126,29482,1,0,0:0:0:0:
343,140,29607,1,0,0:0:0:0:
413,291,29732,1,0,1:0:0:0:
455,187,29857,1,0,3:0:0:0:
319,354,29982,6,0,P|294:291|192:319,1,167.999994873047,0|0,3:0|0:0,0:0:0:0:
137,371,30232,6,0,P|133:309|129:262,1,107.999996704102,6|0,3:2|0:0,0:0:0:0:
108,232,30482,6,0,P|112:178|111:145,1,83.9999974365235,0|0,1:0|0:0,0:0:0:0:
104,112,30732,1,0,3:0:0:0:
190,218,30857,1,0,3:0:0:0:
8,230,30982,1,0,0:0:0:0:
289,97,31107,2,0,P|291:62|292:39,1,55.9999982910157,0|2,3:0|0:2,0:0:0:0:
196,139,31357,1,0,3:0:0:0:
333,196,31482,1,0,0:0:0:0:
443,60,31607,1,0,3:0:0:0:
422,187,31732,2,0,P|415:223|406:283,1,71.9999978027344,0|0,1:0|3:0,0:0:0:0:
302,345,31982,2,0,P|293:293|288:264,1,71.9999978027344,0|0,3:0|0:0,0:0:0:0:
59,360,32232,6,0,P|117:362|202:310,1,143.999995605469,6|0,3:2|0:0,0:0:0:0:
203,304,32482,1,0,1:0:0:0:
21,188,32607,1,2,0:2:0:0:
181,212,32732,1,0,3:0:0:0:
14,267,32857,2,0,L|22:175,1,80,2|0,3:2|0:0,0:0:0:0:
117,101,33107,6,0,B|93:77|93:77|107:217,1,160,2|0,3:2|3:0,0:0:0:0:
118,278,33482,1,0,0:0:0:0:
255,240,33607,1,0,3:0:0:0:
105,202,33732,1,0,1:0:0:0:
315,187,33857,1,0,3:0:0:0:
199,66,33982,2,0,P|187:111|182:193,1,120,2|0,3:2|0:0,0:0:0:0:
255,240,34232,6,0,P|261:281|260:351,1,96,2|0,3:2|0:0,0:0:0:0:
254,360,34482,1,0,1:0:0:0:
467,314,34607,1,2,0:2:0:0:
373,266,34732,1,0,3:0:0:0:
355,363,34857,1,2,3:2:0:0:
485,307,34982,1,0,1:0:0:0:
332,189,35107,6,0,P|389:170|456:182,1,107.999996704102,2|0,3:2|0:0,0:0:0:0:
475,192,35357,1,0,3:0:0:0:
247,134,35482,1,0,0:0:0:0:
305,276,35607,1,0,0:0:0:0:
470,18,35732,6,0,P|463:66|461:116,1,88.000002685547,2|0,1:2|3:0,0:0:0:0:
446,121,35982,6,0,P|441:72|440:46,1,64,2|0,3:2|0:0,0:0:0:0:
411,24,36232,6,0,B|409:51|416:75|416:75|398:107|370:126|336:121|308:106|287:78|309:35|322:23|322:23|323:46|338:61,1,280,6|0,3:2|0:0,0:0:0:0:
290,222,37232,6,0,B|252:200|243:157|243:157|191:192|150:181,1,167.999994873047,6|0,1:2|0:0,0:0:0:0:
57,194,37732,2,0,P|63:235|66:287,1,71.9999978027344,6|0,1:2|0:0,0:0:0:0:
169,356,37982,2,0,P|172:308|175:274,1,71.9999978027344,2|0,0:2|0:0,0:0:0:0:
202,28,38232,5,6,3:2:0:0:
202,28,38482,1,0,3:0:0:0:
124,45,38732,2,0,P|131:119|134:197,1,143.999995605469,0|0,3:0|1:0,0:0:0:0:
311,358,39107,1,0,3:0:0:0:
228,384,39357,1,0,3:0:0:0:
218,293,39482,2,0,L|206:394,1,88.000002685547,0|0,1:0|3:0,0:0:0:0:
370,212,39732,1,0,3:0:0:0:
293,244,39857,6,0,L|288:185,1,55.9999982910157,0|0,0:0|3:0,0:0:0:0:
201,148,40107,1,0,0:0:0:0:
131,342,40232,5,6,3:2:0:0:
105,265,40357,2,0,P|67:260|41:259,2,47.9999985351563,0|0|0,0:0|0:0|0:0,0:0:0:0:
4,343,40732,2,0,P|44:342|54:342,1,47.9999985351563,0|0,1:0|0:0,0:0:0:0:
105,265,40982,2,0,P|67:260|41:259,1,47.9999985351563,0|0,0:0|0:0,0:0:0:0:
16,182,41232,1,2,3:2:0:0:
91,148,41357,1,0,0:0:0:0:
31,97,41482,1,0,0:0:0:0:
122,72,41607,6,0,P|120:120|125:197,1,107.999996704102,0|0,0:0|0:0,0:0:0:0:
198,207,41857,6,0,P|195:245|191:260,1,47.9999985351563,0|0,0:0|0:0,0:0:0:0:
112,312,42107,2,0,P|105:277|105:255,1,47.9999985351563,0|2,0:0|3:2,0:0:0:0:
196,354,42357,2,0,P|224:354|251:352,2,47.9999985351563,0|0|0,0:0|0:0|0:0,0:0:0:0:
239,257,42732,6,0,P|216:254|191:254,1,47.9999985351563,0|0,1:0|0:0,0:0:0:0:
196,354,42982,2,0,P|224:354|251:352,1,47.9999985351563,0|0,0:0|0:0,0:0:0:0:
346,342,43232,2,0,P|373:319|394:296,1,47.9999985351563,2|0,3:2|0:0,0:0:0:0:
466,276,43482,2,0,P|468:237|464:211,1,47.9999985351563,0|0,0:0|0:0,0:0:0:0:
411,152,43732,5,0,1:0:0:0:
105,136,43982,2,0,P|101:94|100:75,1,47.9999985351563,0|0,0:0|0:0,0:0:0:0:
0,224,44232,6,0,L|62:233,1,47.9999985351563,2|0,0:2|0:0,0:0:0:0:
102,291,44482,2,0,L|152:280,1,47.9999985351563,0|0,0:0|0:0,0:0:0:0:
303,215,44732,2,0,L|305:161,1,47.9999985351563,4|0,1:2|0:0,0:0:0:0:
509,324,45107,6,0,L|405:337,1,95.9999970703126,0|0,0:0|0:0,0:0:0:0:
215,366,45607,1,0,0:0:0:0:
223,271,45732,2,0,L|221:217,1,47.9999985351563,4|0,1:2|0:0,0:0:0:0:
47,69,46232,5,4,1:2:0:0:
211,121,46398,1,0,0:0:0:0:
101,165,46565,1,0,0:0:0:0:
255,44,46732,5,4,1:2:0:0:
296,207,46898,1,0,0:0:0:0:
372,118,47065,1,0,0:0:0:0:
127,302,47232,6,0,L|135:370,1,47.9999985351563,4|0,3:2|0:0,0:0:0:0:
494,157,47482,2,0,L|488:217,1,47.9999985351563,4|0,3:2|0:0,0:0:0:0:
20,86,47732,2,0,L|19:148,1,47.9999985351563,4|0,3:2|3:0,0:0:0:0:
45,209,47919,1,0,3:0:0:0:
67,231,47982,1,0,3:0:0:0:
97,231,48044,1,0,3:0:0:0:
126,219,48107,1,0,3:0:0:0:
168,213,48169,1,0,3:0:0:0:
203,240,48232,6,0,P|202:274|204:301,1,47.9999985351563,2|0,0:2|0:0,0:0:0:0:
288,289,48482,2,0,P|283:323|279:348,1,47.9999985351563,2|0,0:2|0:0,0:0:0:0:
353,215,48732,1,2,0:2:0:0:
390,295,48857,2,0,P|420:288|441:284,2,47.9999985351563,0|0|0,0:0|0:0|0:0,0:0:0:0:
294,134,49232,5,6,3:2:0:0:
288,289,49357,1,2,0:3:0:0:
501,226,49482,2,0,P|505:178|508:134,1,88.000002685547,2|2,3:2|0:3,0:0:0:0:
474,28,49732,1,2,3:2:0:0:
396,158,49857,1,2,0:3:0:0:
343,51,49982,1,0,3:0:0:0:
398,274,50107,6,0,L|496:247,1,88.000002685547,2|0,0:2|3:0,0:0:0:0:
286,210,50357,1,2,0:3:0:0:
118,344,50482,2,0,L|104:239,1,88.000002685547,2|2,3:2|0:3,0:0:0:0:
194,118,50732,1,2,3:2:0:0:
199,228,50857,1,2,0:3:0:0:
71,154,50982,2,0,P|75:102|77:55,1,88.000002685547,2|2,3:2|0:3,0:0:0:0:
199,228,51232,6,0,P|198:291|194:330,1,88.000002685547,6|2,3:2|0:3,0:0:0:0:
388,161,51482,2,0,P|386:103|382:51,1,88.000002685547,2|2,3:2|0:3,0:0:0:0:
140,186,51732,2,0,P|157:245|166:295,1,88.000002685547,2|2,3:2|0:3,0:0:0:0:
431,217,51982,2,0,P|420:158|408:109,1,88.000002685547,0|2,3:0|0:3,0:0:0:0:
286,175,52232,5,2,3:2:0:0:
358,247,52357,1,2,0:3:0:0:
314,92,52482,1,0,3:0:0:0:
249,273,52607,1,2,0:2:0:0:
90,56,52732,2,0,B|86:120|98:189,1,111.999996582031,0|2,3:0|0:3,0:0:0:0:
150,275,52982,1,0,3:0:0:0:
269,184,53107,5,2,0:3:0:0:
243,353,53232,1,6,3:2:0:0:
286,175,53357,1,2,0:3:0:0:
265,360,53482,1,2,3:2:0:0:
76,265,53607,5,2,0:3:0:0:
321,303,53732,1,2,3:2:0:0:
59,274,53857,1,2,0:3:0:0:
338,314,53982,1,2,3:2:0:0:
303,103,54107,5,2,0:3:0:0:
381,247,54232,1,2,3:2:0:0:
196,42,54357,1,2,0:3:0:0:
150,275,54482,1,2,3:2:0:0:
269,184,54607,1,2,0:3:0:0:
471,297,54732,6,0,P|437:248|358:267,1,120.000004577637,2|2,3:2|0:3,0:0:0:0:
166,199,54982,5,2,3:2:0:0:
356,145,55107,1,2,0:3:0:0:
34,278,55232,5,6,3:2:0:0:
213,331,55357,1,2,0:3:0:0:
77,358,55482,5,2,3:2:0:0:
297,292,55607,1,2,0:3:0:0:
97,212,55732,5,6,3:2:0:0:
364,359,55857,1,2,0:3:0:0:
50,144,55982,5,2,3:2:0:0:
196,107,56107,1,2,0:3:0:0:
227,246,56232,5,6,3:2:0:0:
342,37,56357,2,0,P|332:95|332:200,1,155.999992858887,4|0,3:2|0:0,0:0:0:0:
411,199,56607,6,0,P|406:243|401:305,1,88.000002685547,6|0,3:2|3:0,0:0:0:0:
197,364,56857,1,0,3:0:0:0:
218,358,56982,1,0,3:0:0:0:
240,353,57107,1,0,3:0:0:0:
133,258,57232,5,6,3:2:0:0:
402,286,57357,1,2,0:3:0:0:
490,67,57482,2,0,P|484:137|483:193,1,103.999995239258,2|2,3:2|0:3,0:0:0:0:
491,333,57732,5,2,3:2:0:0:
319,290,57857,1,2,0:3:0:0:
474,249,57982,1,0,3:0:0:0:
233,276,58107,6,0,P|228:325|225:375,1,88.000002685547,2|0,0:2|3:0,0:0:0:0:
356,217,58357,1,2,0:3:0:0:
214,63,58482,2,0,L|312:47,1,88.000002685547,2|2,3:2|0:3,0:0:0:0:
41,246,58732,1,2,3:2:0:0:
163,127,58857,1,2,0:3:0:0:
87,168,58982,6,0,B|124:203|124:203|113:334,1,167.999994873047,2|0,3:2|0:0,0:0:0:0:
133,355,59232,6,0,P|196:346|234:346,1,88.000002685547,6|2,3:2|0:3,0:0:0:0:
473,246,59482,2,0,P|420:239|379:235,1,88.000002685547,2|2,3:2|0:3,0:0:0:0:
70,160,59732,2,0,P|132:147|193:146,1,88.000002685547,2|2,3:2|0:3,0:0:0:0:
493,81,59982,2,0,P|434:71|380:67,1,88.000002685547,0|2,3:0|0:3,0:0:0:0:
107,74,60232,6,0,P|86:155|14:122,1,180.000006866455,2|0,3:2|0:0,0:0:0:0:
20,50,60482,1,0,3:0:0:0:
179,254,60607,1,2,0:2:0:0:
270,109,60732,2,0,P|263:177|264:234,1,95.9999970703126,0|2,3:0|0:3,0:0:0:0:
306,331,60982,1,0,3:0:0:0:
175,173,61107,1,2,0:3:0:0:
335,60,61232,5,6,3:2:0:0:
379,261,61357,1,2,0:3:0:0:
92,92,61482,2,0,P|86:150|87:200,1,95.9999970703126,2|2,3:2|0:3,0:0:0:0:
346,155,61732,1,6,3:2:0:0:
306,331,61857,1,2,0:3:0:0:
87,188,61982,1,2,3:2:0:0:
124,297,62107,1,2,0:3:0:0:
289,59,62232,6,0,B|260:49|250:29|250:29|274:191,1,192,6|0,3:2|0:0,0:0:0:0:
295,242,62482,1,2,3:2:0:0:
456,205,62607,1,2,0:3:0:0:
456,205,62669,1,0,0:0:0:0:
456,205,62732,2,0,P|463:166|465:138,1,64,2|0,3:2|0:0,0:0:0:0:
405,375,62857,2,0,P|391:330|383:281,1,64,2|0,0:3|0:0,0:0:0:0:
233,341,62982,2,0,P|166:294|105:304,1,128,2|2,3:2|0:3,0:0:0:0:
26,303,63232,5,6,3:2:0:0:
295,242,63357,1,2,0:3:0:0:
229,44,63482,5,2,3:2:0:0:
175,249,63607,1,2,0:3:0:0:
127,114,63732,1,6,3:2:0:0:
359,147,63857,1,2,0:3:0:0:
333,353,63982,1,2,3:2:0:0:
101,325,64107,1,2,0:3:0:0:
42,70,64232,5,6,3:2:0:0:
37,328,64357,2,0,P|87:323|128:331,1,64,4|0,3:2|0:0,0:0:0:0:
415,344,64607,2,0,L|399:277,1,64,6|0,3:2|3:0,0:0:0:0:
238,236,64857,1,0,3:0:0:0:
238,236,64982,6,0,L|336:257,1,88.000002685547,0|0,3:0|3:0,0:0:0:0:
153,225,65232,6,2,P|157:186|160:150,1,71.9999978027344,2|0,0:2|0:0,0:0:0:0:
102,83,65482,1,0,0:0:0:0:
52,145,65607,1,0,0:0:0:0:
256,73,65732,1,0,0:0:0:0:
196,18,65857,1,0,0:0:0:0:
181,101,65982,1,0,0:0:0:0:
345,52,66107,2,0,P|335:89|329:131,1,71.9999978027344,0|0,0:0|0:0,0:0:0:0:
373,198,66357,5,2,0:2:0:0:
406,209,66419,1,2,0:2:0:0:
445,199,66482,1,2,0:2:0:0:
477,166,66544,1,2,0:2:0:0:
479,115,66607,2,0,L|468:69,1,35.9999989013672,2|2,0:2|0:2,0:0:0:0:
480,335,66732,5,6,3:2:0:0:
256,311,66857,1,6,3:2:0:0:
32,335,66982,1,6,3:2:0:0:
110,288,67232,6,0,P|106:339|105:378,1,80,6|2,3:2|0:3,0:0:0:0:
256,311,67482,1,2,3:2:0:0:
348,258,67607,1,2,0:3:0:0:
69,195,67732,2,0,P|81:243|92:287,1,80,2|2,3:2|0:3,0:0:0:0:
276,200,67982,1,2,3:2:0:0:
346,111,68107,1,2,0:3:0:0:
12,113,68232,6,0,P|39:154|187:113,1,207.999990478516,2|0,3:2|3:0,0:0:0:0:
250,93,68607,2,0,L|240:20,1,55.9999982910157,2|0,0:2|0:0,0:0:0:0:
203,256,68732,6,0,L|201:296,1,32,0|2,3:0|0:3,0:0:0:0:
179,235,68982,2,0,P|189:280|195:328,1,80,0|2,3:0|0:3,0:0:0:0:
410,299,69232,6,0,P|416:246|425:206,1,80,2|2,3:2|0:3,0:0:0:0:
250,173,69482,1,2,3:2:0:0:
287,255,69607,1,2,0:3:0:0:
493,185,69732,2,0,P|476:116|467:91,1,80,2|2,3:2|0:3,0:0:0:0:
193,99,69982,1,2,3:2:0:0:
181,217,70107,1,2,0:3:0:0:
370,47,70232,6,0,P|299:46|259:188,1,223.999993164063,2|0,3:2|3:0,0:0:0:0:
181,217,70607,2,0,P|185:247|191:284,1,60.0000022888184,2|0,0:2|0:0,0:0:0:0:
403,166,70732,6,0,L|406:122,1,32,0|2,3:0|0:3,0:0:0:0:
397,186,70982,6,0,P|351:162|285:279,1,192,0|0,3:0|0:0,0:0:0:0:
288,280,71232,6,0,P|282:328|279:363,1,71.9999978027344,4|2,3:2|0:3,0:0:0:0:
186,384,71482,6,0,B|180:251|180:251|171:295|126:309,1,192,2|0,3:2|0:0,0:0:0:0:
111,303,71732,6,0,P|70:295|9:294,1,71.9999978027344,0|2,3:0|0:3,0:0:0:0:
99,214,71982,6,0,B|137:181|140:128|140:128|169:172|228:184,1,192,2|0,3:2|0:0,0:0:0:0:
248,197,72232,6,0,P|288:192|326:193,1,71.9999978027344,0|2,3:0|0:3,0:0:0:0:
444,141,72482,6,0,B|425:177|419:210|419:210|430:159|403:48,1,192,2|0,3:2|0:0,0:0:0:0:
422,20,72732,6,0,P|413:97|320:62,1,204.000003890991,2|0,3:2|0:0,0:0:0:0:
317,26,72982,6,0,P|275:28|235:32,1,71.9999978027344,2|2,3:2|0:3,0:0:0:0:
142,67,73232,5,4,3:2:0:0:
210,117,73357,1,2,0:3:0:0:
64,130,73482,5,0,3:0:0:0:
135,148,73607,1,2,0:3:0:0:
56,212,73732,5,0,3:0:0:0:
83,205,73857,1,2,0:3:0:0:
92,294,73982,5,0,3:0:0:0:
97,289,74107,1,2,0:3:0:0:
243,352,74232,6,0,B|270:308|270:308|263:205,1,143.999995605469,4|0,3:2|0:0,0:0:0:0:
272,333,74732,6,0,B|280:287|280:287|260:202,1,120,0|0,0:0|0:0,0:0:0:0:
228,148,75232,6,0,B|260:91|260:91|407:117,1,180.000006866455,4|0,3:2|0:0,0:0:0:0:
459,114,75482,2,0,P|449:147|428:174,1,60.0000022888184,0|0,1:0|0:0,0:0:0:0:
361,274,75607,6,0,L|361:190,1,80,0|0,3:0|3:0,0:0:0:0:
365,184,75982,6,0,L|354:371,1,136.000002593994,0|0,1:0|0:0,0:0:0:0:
265,363,76232,6,0,B|225:324|225:324|95:356,1,180.000006866455,0|0,3:0|0:0,0:0:0:0:
19,364,76482,2,0,P|22:328|29:294,1,60.0000022888184,0|0,1:0|0:0,0:0:0:0:
119,164,76607,6,0,L|109:260,1,80,0|0,3:0|3:0,0:0:0:0:
106,133,76982,6,0,L|113:281,1,136.000002593994,0|0,1:0|0:0,0:0:0:0:
223,250,77232,6,0,B|260:216|260:216|395:237,1,180.000006866455,0|0,3:0|0:0,0:0:0:0:
485,236,77482,6,0,P|468:185|428:161,1,80,0|0,1:0|3:0,0:0:0:0:
316,147,77732,2,0,P|345:101|377:78,1,80,0|0,0:0|3:0,0:0:0:0:
512,54,77982,2,0,P|475:27|432:11,1,80,0|0,1:0|0:0,0:0:0:0:
362,12,78232,5,4,3:2:0:0:
350,307,78357,1,0,3:0:0:0:
3,286,78482,1,0,3:0:0:0:
24,0,78607,1,4,1:2:0:0:
93,334,79232,6,0,L|266:319,1,160,4|0,3:1|0:0,0:0:0:0:
334,325,79982,1,0,0:0:0:0:
433,183,80232,6,0,P|430:224|431:271,1,80,2|2,0:2|0:2,0:0:0:0:
329,140,80732,2,0,P|336:181|341:236,1,80,2|2,0:2|0:2,0:0:0:0:
79,183,81732,6,0,P|82:224|81:271,1,80,2|2,0:2|0:2,0:0:0:0:
183,140,82232,2,0,P|175:181|171:236,1,80,2|2,0:2|0:2,0:0:0:0:
344,284,82982,5,2,0:2:0:0:
399,353,83232,2,0,B|432:307|432:307|413:190,1,160,2|2,0:2|0:2,0:0:0:0:
384,130,83982,2,0,P|336:111|265:190,1,160,2|2,0:2|0:2,0:0:0:0:
251,264,84732,2,0,L|165:254,1,80,2|0,0:2|0:0,0:0:0:0:
92,244,85232,1,2,0:2:0:0:
55,75,85732,6,0,L|144:66,1,80,2|2,0:2|0:2,0:0:0:0:
224,39,86232,2,0,P|222:100|215:205,1,160,2|2,0:2|0:2,0:0:0:0:
338,315,86982,2,0,P|325:235|323:154,1,160,2|2,0:2|0:2,0:0:0:0:
444,35,87732,6,0,B|426:85|364:122|331:93|318:56|340:13|385:13|406:42|433:129|405:183,1,320,2|0,0:2|0:0,0:0:0:0:
338,350,89232,6,0,P|318:351|298:352,1,40,0|0,0:0|0:0,0:0:0:0:
455,345,89482,6,0,P|458:281|471:212,1,120,4|0,3:2|0:0,0:0:0:0:
478,195,89732,1,4,3:2:0:0:
326,258,89857,2,0,P|280:245|200:233,1,120,4|0,3:2|0:0,0:0:0:0:
177,274,90107,6,0,P|134:229|51:262,1,155.999992858887,4|0,3:2|0:0,0:0:0:0:
38,307,90357,6,0,P|50:224|43:154,1,143.999995605469,4|0,3:2|3:0,0:0:0:0:
66,37,90732,2,0,B|106:59|106:59|188:45,1,107.999996704102,0|0,3:0|3:0,0:0:0:0:
211,40,90982,1,0,3:0:0:0:
428,142,91148,2,0,L|278:123,1,143.999995605469,4|0,0:2|0:0,0:0:0:0:
126,179,91482,6,0,P|136:218|143:263,1,85.3333333333333,4|0,3:1|0:0,0:0:0:0:
242,371,91732,2,0,P|252:324|255:278,1,85.3333333333333,2|0,1:2|0:0,0:0:0:0:
354,212,91982,2,0,P|335:246|331:300,1,85.3333333333333,2|0,3:2|0:0,0:0:0:0:
389,370,92232,2,0,P|388:346|330:322,1,85.3333333333333,2|0,1:2|0:0,0:0:0:0:
507,345,92482,2,0,P|464:388|400:350,1,128,2|0,3:2|1:0,0:0:0:0:
232,207,92898,1,0,2:0:0:0:
269,200,92982,2,0,P|316:205|366:214,1,85.3333333333333,0|0,3:0|0:0,0:0:0:0:
412,153,93232,2,0,P|458:150|506:142,1,85.3333333333333,0|0,1:0|0:0,0:0:0:0:
512,71,93482,6,0,P|509:28|432:59,1,127.99999609375,0|0,3:0|0:0,0:0:0:0:
370,73,93732,6,0,P|327:66|276:50,1,85.3333333333333,2|0,1:2|0:0,0:0:0:0:
131,47,93982,2,0,P|177:38|229:11,1,85.3333333333333,2|0,3:2|2:0,0:0:0:0:
257,150,94232,2,0,P|228:118|188:137,1,85.3333333333333,0|0,1:0|0:0,0:0:0:0:
74,113,94482,2,0,P|122:96|174:156,1,128,2|0,3:2|1:0,0:0:0:0:
30,231,94898,1,0,0:0:0:0:
6,212,94982,2,0,P|3:161|-1:121,1,85.3333333333333,0|0,3:0|0:0,0:0:0:0:
81,296,95232,2,0,P|74:347|69:394,1,85.3333333333333,0|0,1:0|0:0,0:0:0:0:
149,224,95482,6,0,B|235:201|235:201|290:213,1,127.99999609375,0|0,3:0|0:0,0:0:0:0:
363,245,95732,6,0,P|359:284|346:335,1,85.3333333333333,2|0,1:2|0:0,0:0:0:0:
363,151,95982,2,0,P|387:195|394:267,1,85.3333333333333,2|0,3:2|0:0,0:0:0:0:
304,80,96232,2,0,P|345:101|378:133,1,85.3333333333333,2|0,1:2|0:0,0:0:0:0:
156,77,96482,6,0,P|173:43|232:74,1,85.3333333333333,2|0,3:2|2:0,0:0:0:0:
198,141,96732,6,0,L|70:118,1,117.333336914063,0|0,1:0|2:0,0:0:0:0:
0,222,96982,2,0,P|43:198|99:214,1,85.3333333333333,0|0,3:0|0:0,0:0:0:0:
316,343,97232,2,0,P|271:349|222:326,1,85.3333333333333,0|0,1:0|0:0,0:0:0:0:
133,352,97482,6,0,P|149:271|161:215,1,127.99999609375,0|0,3:0|2:0,0:0:0:0:
211,137,97732,6,0,P|216:89|225:45,1,85.3333333333333,2|0,1:2|0:0,0:0:0:0:
272,227,97982,2,0,P|267:186|246:148,1,85.3333333333333,2|0,3:2|0:0,0:0:0:0:
234,335,98232,2,0,P|244:287|258:249,1,85.3333333333333,2|0,1:2|0:0,0:0:0:0:
460,242,98482,2,0,P|452:194|426:85,1,128,2|0,3:2|1:0,0:0:0:0:
229,39,98898,1,0,2:0:0:0:
246,74,98982,2,0,P|291:84|338:97,1,85.3333333333333,0|0,3:0|0:0,0:0:0:0:
364,190,99232,2,0,P|408:180|481:164,1,85.3333333333333,2|0,1:2|0:0,0:0:0:0:
441,362,99482,6,0,P|396:305|280:316,1,176.000005371094,6|2,3:2|1:2,0:0:0:0:
156,335,99898,1,2,0:2:0:0:
184,315,99982,2,0,P|198:256|169:210,1,95.9999970703126,0|0,3:0|0:0,0:0:0:0:
96,198,100232,2,0,P|80:141|102:101,1,95.9999970703126,2|0,1:2|0:0,0:0:0:0:
358,102,100482,6,0,P|295:160|191:122,1,191.999994140625,2|2,3:2|1:2,0:0:0:0:
43,51,100898,1,0,2:0:0:0:
68,30,100982,2,0,P|117:26|163:56,1,95.9999970703126,0|0,3:0|0:0,0:0:0:0:
266,80,101232,2,0,P|296:50|295:-13,1,95.9999970703126,2|0,1:2|0:0,0:0:0:0:
3,186,101482,6,0,P|75:162|139:258,1,191.999994140625,2|0,3:2|1:0,0:0:0:0:
294,331,101898,1,0,2:0:0:0:
273,304,101982,2,0,P|254:253|269:216,1,85.3333333333333,0|0,3:0|2:0,0:0:0:0:
207,140,102232,2,0,P|231:98|274:83,1,85.3333333333333,2|0,1:2|0:0,0:0:0:0:
499,145,102482,6,0,L|488:180,1,32,6|0,3:2|0:0,0:0:0:0:
447,239,102732,2,0,L|455:269,1,32,4|0,3:2|0:0,0:0:0:0:
445,346,102982,2,0,L|474:389,1,32,4|0,3:2|0:0,0:0:0:0:
362,303,103232,5,0,3:0:0:0:
354,314,103294,1,0,3:0:0:0:
349,327,103357,1,0,3:0:0:0:
348,340,103419,1,0,3:0:0:0:
352,348,103482,6,0,B|312:342|312:342|246:354,1,95.9999970703126,4|0,3:2|0:0,0:0:0:0:
163,292,103857,2,0,L|261:274,1,95.9999970703126,4|0,3:2|0:0,0:0:0:0:
431,164,104232,5,0,3:0:0:0:
420,165,104294,1,0,3:0:0:0:
410,166,104357,1,0,3:0:0:0:
399,164,104419,1,0,3:0:0:0:
387,162,104482,6,0,B|372:123|372:123|381:50,1,95.9999970703126,4|0,3:2|0:0,0:0:0:0:
310,5,104857,2,0,L|296:102,1,95.9999970703126,4|0,3:2|0:0,0:0:0:0:
73,346,105482,5,4,3:2:0:0:
110,337,106482,5,2,3:2:0:0:
197,358,107482,6,0,P|222:350|251:342,7,47.9999985351563,2|0|0|0|0|0|0|0,0:2|0:0|0:0|0:0|0:0|0:0|0:0|0:0,0:0:0:0:
264,357,108482,5,0,3:0:0:0:
269,333,108544,1,2,0:0:0:0:
264,307,108607,1,2,0:0:0:0:
249,279,108669,1,2,0:0:0:0:
214,262,108732,1,2,0:3:0:0:
175,263,108794,1,2,0:0:0:0:
138,274,108857,1,2,0:0:0:0:
98,266,108919,1,2,0:0:0:0:
69,233,108982,1,2,0:3:0:0:
70,187,109044,1,2,0:0:0:0:
85,148,109107,6,0,L|128:154,1,44.0000013427735,0|0,0:0|0:0,0:0:0:0:
196,186,109232,2,0,L|251:176,1,44.0000013427735,0|0,0:0|0:0,0:0:0:0:
315,140,109357,2,0,L|376:151,1,44.0000013427735,0|0,0:0|0:0,0:0:0:0:
320,225,109482,5,6,3:2:0:0:
231,96,109607,1,2,0:3:0:0:
383,295,109732,2,0,P|438:284|483:284,1,88.000002685547,2|2,3:2|0:3,0:0:0:0:
236,359,109982,2,0,P|174:353|138:342,1,88.000002685547,2|2,3:2|0:3,0:0:0:0:
98,266,110232,1,0,3:0:0:0:
231,96,110357,6,0,P|234:148|236:188,1,88.000002685547,2|0,0:2|3:0,0:0:0:0:
245,272,110607,1,2,0:3:0:0:
457,94,110732,2,0,P|412:84|364:72,1,88.000002685547,2|2,3:2|0:3,0:0:0:0:
375,372,110982,2,0,P|421:356|468:344,1,88.000002685547,2|2,3:2|0:3,0:0:0:0:
150,205,111232,2,0,P|196:193|251:180,1,88.000002685547,2|2,3:2|0:3,0:0:0:0:
402,288,111482,6,0,P|383:339|370:389,1,88.000002685547,6|2,3:2|0:3,0:0:0:0:
235,183,111732,2,0,P|249:132|259:78,1,88.000002685547,2|2,3:2|0:3,0:0:0:0:
283,298,111982,2,0,P|294:349|297:395,1,88.000002685547,2|2,3:2|0:3,0:0:0:0:
80,158,112232,2,0,P|67:107|46:40,1,88.000002685547,0|2,3:0|0:3,0:0:0:0:
95,353,112482,5,2,3:2:0:0:
173,222,112607,2,0,P|171:274|178:330,1,88.000002685547,2|0,0:3|3:0,0:0:0:0:
346,258,112857,1,2,0:2:0:0:
383,150,112982,2,0,P|368:196|361:244,1,88.000002685547,0|2,3:0|0:3,0:0:0:0:
335,353,113232,1,0,3:0:0:0:
250,106,113357,5,2,0:3:0:0:
464,208,113482,1,6,3:2:0:0:
273,98,113607,1,2,0:3:0:0:
454,182,113732,1,2,3:2:0:0:
234,210,113857,5,2,0:3:0:0:
472,89,113982,1,2,3:2:0:0:
259,197,114107,1,2,0:3:0:0:
449,100,114232,1,2,3:2:0:0:
343,299,114357,5,2,0:3:0:0:
371,98,114482,1,2,3:2:0:0:
476,334,114607,1,2,0:3:0:0:
295,53,114732,1,2,3:2:0:0:
242,299,114857,1,2,0:3:0:0:
508,215,114982,6,0,B|457:181|457:181|323:192,1,180.000006866455,2|0,3:2|0:0,0:0:0:0:
259,197,115232,1,2,3:2:0:0:
436,266,115357,1,2,0:3:0:0:
90,169,115482,5,6,3:2:0:0:
278,115,115607,1,2,0:3:0:0:
4,197,115732,5,2,3:2:0:0:
308,259,115857,1,2,0:3:0:0:
68,266,115982,5,6,3:2:0:0:
392,175,116107,1,2,0:3:0:0:
152,234,116232,5,2,3:2:0:0:
492,334,116357,1,2,0:3:0:0:
321,38,116482,5,6,3:2:0:0:
512,173,116607,6,0,P|409:149|389:204,1,155.999992858887,4|0,3:2|0:0,0:0:0:0:
312,208,116857,2,0,P|345:199|395:229,1,88.000002685547,6|0,3:2|3:0,0:0:0:0:
287,365,117107,2,0,L|298:293,2,64,0|0|0,3:0|3:0|3:0,0:0:0:0:
201,256,117482,5,6,3:2:0:0:
399,354,117607,1,2,0:3:0:0:
207,168,117732,2,0,P|203:226|200:266,1,88.000002685547,2|2,3:2|0:3,0:0:0:0:
84,365,117982,1,2,3:2:0:0:
296,301,118107,1,2,0:3:0:0:
115,285,118232,1,0,3:0:0:0:
314,107,118357,2,0,P|308:152|303:216,1,88.000002685547,2|0,0:2|3:0,0:0:0:0:
399,354,118607,1,2,0:3:0:0:
440,92,118732,6,0,P|434:154|432:193,1,88.000002685547,2|2,3:2|0:3,0:0:0:0:
484,344,118982,6,0,P|447:288|327:308,1,155.999992858887,2|0,3:2|0:0,0:0:0:0:
269,296,119232,2,0,P|262:345|256:397,1,88.000002685547,2|2,3:2|0:3,0:0:0:0:
419,191,119482,2,0,P|464:182|518:172,1,88.000002685547,6|2,3:2|0:3,0:0:0:0:
269,296,119732,2,0,P|209:283|167:274,1,88.000002685547,2|2,3:2|0:3,0:0:0:0:
358,81,119982,2,0,P|407:95|455:103,1,88.000002685547,2|2,3:2|0:3,0:0:0:0:
208,189,120232,2,0,P|153:199|86:213,1,88.000002685547,0|2,3:0|0:3,0:0:0:0:
113,63,120482,6,0,B|146:109|146:109|115:232,1,155.999992858887,2|0,3:2|0:0,0:0:0:0:
89,287,120732,1,0,3:0:0:0:
202,47,120857,1,2,0:2:0:0:
349,271,120982,2,0,P|290:261|248:254,1,88.000002685547,0|2,3:0|0:3,0:0:0:0:
191,300,121232,1,0,3:0:0:0:
296,177,121357,1,2,0:3:0:0:
2,239,121482,5,6,3:2:0:0:
263,257,121607,1,2,0:3:0:0:
21,323,121732,1,2,3:2:0:0:
282,335,121857,1,2,0:3:0:0:
167,141,121982,5,6,3:2:0:0:
392,272,122107,1,2,0:3:0:0:
161,231,122232,1,2,3:2:0:0:
430,201,122357,1,2,0:3:0:0:
85,205,122482,6,0,P|82:226|82:250,3,44.0000013427735,6|0|2|0,3:2|0:0|3:3|3:0,0:0:0:0:
243,337,122732,2,0,P|254:358|268:381,3,44.0000013427735,2|0|2|0,3:2|3:0|3:3|3:0,0:0:0:0:
455,347,122982,5,2,3:2:0:0:
481,312,123044,1,0,3:0:0:0:
484,267,123107,1,2,3:3:0:0:
472,224,123169,1,0,3:0:0:0:
443,190,123232,5,2,3:2:0:0:
414,145,123294,1,0,3:0:0:0:
410,91,123357,1,2,3:3:0:0:
434,44,123419,1,0,3:0:0:0:
484,28,123482,5,6,3:2:0:0:
512,371,123982,5,6,3:2:0:0:
494,114,124482,5,6,3:2:0:0:
494,114,124607,1,4,3:2:0:0:
408,357,124857,6,0,L|400:318,1,40,6|2,3:2|0:2,0:0:0:0:
40,168,129482,6,0,P|42:209|46:262,1,80,6|0,3:2|0:0,0:0:0:0:
161,302,129982,2,0,P|155:342|153:386,1,80,6|0,0:2|0:0,0:0:0:0:
241,142,130482,5,6,3:2:0:0:
240,157,130544,1,0,3:0:0:0:
239,173,130607,1,0,3:0:0:0:
238,188,130669,1,0,3:0:0:0:
238,204,130732,1,0,3:0:0:0:
237,218,130794,1,0,3:0:0:0:
237,234,130857,1,0,3:0:0:0:
236,249,130919,1,0,3:0:0:0:
253,271,130982,5,0,3:0:0:0:
278,288,131044,1,0,3:0:0:0:
307,296,131107,1,0,3:0:0:0:
337,292,131169,1,0,3:0:0:0:
367,273,131232,1,0,3:0:0:0:
396,256,131294,1,0,3:0:0:0:
430,249,131357,1,0,3:0:0:0:
458,264,131419,1,0,3:0:0:0:
475,286,131482,6,0,P|468:254|468:222,1,64,4|2,3:2|0:3,0:0:0:0:
322,149,131732,2,0,P|314:199|314:232,1,64,0|2,3:0|0:3,0:0:0:0:
410,152,131982,1,0,3:0:0:0:
410,152,132107,1,2,0:3:0:0:
355,365,132232,1,0,3:0:0:0:
355,365,132357,1,2,0:3:0:0:
182,333,132482,6,0,P|183:295|179:258,2,64,0|2|0,3:0|0:3|3:0,0:0:0:0:
44,232,132857,2,0,P|48:204|57:167,2,64,2|0|2,0:3|3:0|0:3,0:0:0:0:
206,146,133232,2,0,P|201:102|198:77,1,64,0|2,3:0|0:3,0:0:0:0:
384,87,133482,6,0,L|378:134,7,32,4|0|2|0|0|0|2|0,3:2|0:0|0:3|0:0|3:0|0:0|0:3|0:0,0:0:0:0:
325,187,133982,2,0,L|331:228,7,32,0|0|2|0|0|0|2|0,3:0|0:0|0:3|0:0|3:0|0:0|0:3|0:0,0:0:0:0:
387,274,134482,5,4,3:2:0:0:
397,272,134544,1,2,0:0:0:0:
407,270,134607,1,2,0:3:0:0:
418,268,134669,1,2,0:0:0:0:
455,256,134732,5,0,3:0:0:0:
476,271,134794,1,2,0:0:0:0:
487,289,134857,1,2,0:3:0:0:
490,313,134919,1,2,0:0:0:0:
476,352,134982,5,0,3:0:0:0:
432,367,135044,1,2,0:0:0:0:
384,361,135107,1,2,0:3:0:0:
339,340,135169,1,2,0:0:0:0:
298,309,135232,1,0,3:0:0:0:
251,285,135294,1,2,0:0:0:0:
196,289,135357,1,2,0:3:0:0:
153,317,135419,1,2,0:0:0:0:
132,364,135482,5,2,0:2:0:0:
46,275,135982,5,2,1:2:0:0:
52,256,136044,1,0,1:0:0:0:
57,237,136107,1,0,1:0:0:0:
60,217,136169,1,0,1:0:0:0:
62,197,136232,1,0,1:0:0:0:
63,177,136294,1,0,1:0:0:0:
63,157,136357,1,0,1:0:0:0:
62,137,136419,1,0,1:0:0:0:
57,117,136482,6,0,L|68:38,1,64,6|0,3:2|0:0,0:0:0:0:
137,37,136669,1,0,0:0:0:0:
140,23,136732,2,0,L|182:27,1,32,2|0,3:2|0:0,0:0:0:0:
247,58,136857,2,0,L|245:111,1,35.9999989013672,0|0,0:0|0:0,0:0:0:0:
140,198,136982,2,0,P|179:182|228:170,1,80,2|0,3:2|0:0,0:0:0:0:
289,207,137169,1,0,0:0:0:0:
289,207,137232,1,2,3:2:0:0:
412,238,137357,6,0,L|421:184,1,40,0|0,0:0|0:0,0:0:0:0:
433,119,137482,1,2,3:2:0:0:
413,119,137544,1,2,0:0:0:0:
390,124,137607,1,2,0:0:0:0:
370,134,137669,1,2,0:0:0:0:
350,143,137732,5,2,3:2:0:0:
335,119,137794,1,2,0:0:0:0:
333,88,137857,1,2,0:0:0:0:
342,57,137919,1,2,0:0:0:0:
373,32,137982,5,2,3:2:0:0:
412,238,138232,2,0,L|505:229,1,80,2|0,3:2|0:0,0:0:0:0:
390,339,138482,6,0,L|429:342,1,40,6|0,3:2|0:0,0:0:0:0:
284,309,138607,1,0,0:0:0:0:
284,309,138669,1,0,0:0:0:0:
284,309,138732,2,0,L|241:307,1,40,2|0,3:2|0:0,0:0:0:0:
181,360,138857,2,0,L|134:348,1,40,0|0,0:0|0:0,0:0:0:0:
189,218,138982,2,0,L|279:212,1,80,2|0,3:2|0:0,0:0:0:0:
312,136,139169,2,0,L|211:139,1,80,0|0,0:0|0:0,0:0:0:0:
138,137,139357,2,0,L|146:88,1,40,0|0,0:0|0:0,0:0:0:0:
223,50,139482,6,0,P|165:79|88:107,1,120,2|0,3:2|0:0,0:0:0:0:
28,101,139732,6,0,P|88:72|148:194,1,180.000006866455,2|0,3:2|0:0,0:0:0:0:
180,220,139982,6,0,B|144:232|114:209|114:209|56:257|56:257|32:224|0:227,1,192,2|0,3:2|0:0,0:0:0:0:
13,214,140232,6,0,P|28:269|34:308,1,95.9999970703126,2|0,3:2|0:0,0:0:0:0:
38,330,140419,1,0,0:0:0:0:
36,348,140482,1,6,3:2:0:0:
162,304,140607,1,0,0:0:0:0:
167,321,140669,1,0,0:0:0:0:
176,337,140732,2,0,P|226:329|271:328,1,95.9999970703126,2|0,3:2|0:0,0:0:0:0:
398,320,140982,2,0,P|428:342|459:380,1,71.9999978027344,2|0,3:2|0:0,0:0:0:0:
329,254,141232,2,0,P|370:228|395:179,1,95.9999970703126,2|0,3:2|0:0,0:0:0:0:
375,51,141482,5,2,3:2:0:0:
492,67,141607,1,0,0:0:0:0:
303,134,141732,2,0,P|267:132|235:127,1,47.9999985351563,2|0,3:2|0:0,0:0:0:0:
166,67,141857,1,0,0:0:0:0:
166,223,141982,2,0,P|213:212|266:206,1,95.9999970703126,2|0,3:2|0:0,0:0:0:0:
329,254,142169,5,0,0:0:0:0:
341,272,142232,2,0,L|391:273,1,47.9999985351563,2|0,3:2|0:0,0:0:0:0:
248,290,142357,1,0,0:0:0:0:
250,308,142419,1,0,0:0:0:0:
251,325,142482,6,0,P|240:354|232:377,7,47.9999985351563,2|0|0|0|2|0|0|0,3:2|0:0|0:0|0:0|3:2|0:0|0:0|0:0,0:0:0:0:
114,309,142982,2,0,P|125:333|135:358,3,47.9999985351563,2|0|0|0,3:2|0:0|0:0|0:0,0:0:0:0:
23,283,143232,2,0,P|38:252|47:229,1,47.9999985351563,2|0,3:2|0:0,0:0:0:0:
111,177,143357,6,0,L|110:121,3,47.9999985351563,0|0|2|0,0:0|0:0|3:2|0:0,0:0:0:0:
194,260,143607,2,0,L|207:213,3,47.9999985351563,0|0|2|0,0:0|0:0|3:2|0:0,0:0:0:0:
328,294,143857,1,0,0:0:0:0:
325,279,143919,1,0,0:0:0:0:
323,264,143982,2,0,P|319:235|317:210,7,47.9999985351563,2|0|0|0|2|0|0|0,3:2|0:0|0:0|0:0|3:2|0:0|0:0|0:0,0:0:0:0:
394,218,144482,5,6,3:2:0:0:
395,199,144544,1,2,0:0:0:0:
393,179,144607,1,2,0:0:0:0:
384,162,144669,1,2,0:0:0:0:
369,149,144732,1,2,3:2:0:0:
352,139,144794,1,2,0:0:0:0:
333,135,144857,1,2,0:0:0:0:
314,136,144919,1,2,0:0:0:0:
295,142,144982,5,2,3:2:0:0:
268,152,145044,1,2,0:0:0:0:
239,156,145107,1,2,0:0:0:0:
210,153,145169,1,2,0:0:0:0:
181,145,145232,1,2,3:2:0:0:
161,124,145294,1,2,0:0:0:0:
149,97,145357,1,2,0:0:0:0:
153,68,145419,1,2,0:0:0:0:
170,45,145482,5,6,3:2:0:0:
187,79,145544,1,0,3:0:0:0:
186,117,145607,1,0,3:0:0:0:
174,153,145669,1,0,3:0:0:0:
142,174,145732,1,2,3:2:0:0:
104,181,145794,1,0,3:0:0:0:
66,170,145857,1,0,3:0:0:0:
45,137,145919,1,0,3:0:0:0:
46,91,145982,5,2,3:2:0:0:
101,96,146044,1,0,3:0:0:0:
141,141,146107,1,0,3:0:0:0:
144,200,146169,1,0,3:0:0:0:
118,252,146232,1,2,3:2:0:0:
132,308,146294,1,0,3:0:0:0:
176,342,146357,1,0,3:0:0:0:
234,340,146419,1,0,3:0:0:0:
281,310,146482,6,0,L|303:201,1,112,6|0,0:2|0:0,0:0:0:0:
444,346,148482,5,6,3:2:0:0:
360,330,148732,1,6,3:2:0:0:
281,310,148982,1,6,3:2:0:0:
417,267,149357,5,6,3:2:0:0:
281,310,149607,1,6,3:2:0:0:
281,310,149732,1,6,3:2:0:0:
421,171,149982,2,0,L|416:273,1,95.9999970703126,6|2,3:2|0:2,0:0:0:0:
423,362,150482,6,0,L|416:261,1,95.9999970703126,4|0,3:2|0:0,0:0:0:0:
421,171,150982,6,0,L|415:260,1,80,4|0,3:2|0:0,0:0:0:0:
423,362,151482,5,4,3:2:0:0:
501,337,151857,1,4,3:2:0:0:
219,294,152357,1,0,0:0:0:0:
219,294,152482,6,0,L|212:354,2,55.9999982910157,6|0|0,3:2|0:0|0:0,0:0:0:0:
112,264,152857,1,0,0:0:0:0:
112,264,152982,2,0,L|102:325,2,55.9999982910157,2|0|0,0:2|0:0|0:0,0:0:0:0:
32,169,153357,1,0,0:0:0:0:
32,169,153482,6,0,L|23:237,1,55.9999982910157,2|0,0:2|0:0,0:0:0:0:
134,164,153732,2,0,L|125:102,1,55.9999982910157,0|0,0:0|0:0,0:0:0:0:
178,44,153982,2,0,L|239:45,2,55.9999982910157,0|0|0,0:0|0:0|0:0,0:0:0:0:
255,131,154357,1,0,0:0:0:0:
394,142,154482,6,0,B|351:126|351:126|302:135|302:135|221:127,1,143.999995605469,4|0,3:2|0:0,0:0:0:0:
245,228,154857,1,0,0:0:0:0:
416,247,154982,6,0,B|364:227|364:227|317:235|317:235|239:227,1,176.000005371094,4|0,3:2|0:0,0:0:0:0:
241,336,155357,1,0,0:0:0:0:
451,347,155482,6,0,L|398:341,1,44.0000013427735,6|0,3:2|0:0,0:0:0:0:
129,355,155607,1,6,3:2:0:0:
511,288,155857,1,6,3:2:0:0:
477,208,156107,6,0,L|531:203,1,32,0|0,3:0|3:0,0:0:0:0:
375,239,156232,2,0,L|423:259,1,35.9999989013672,0|0,3:0|3:0,0:0:0:0:
310,165,156357,2,0,L|361:152,1,40,0|0,3:0|3:0,0:0:0:0:
229,87,156482,6,0,L|242:145,1,40,6|0,3:2|0:0,0:0:0:0:
286,295,156607,2,0,L|296:236,1,40,2|0,0:3|0:0,0:0:0:0:
45,169,156732,2,0,B|117:138|117:138|173:160,1,120,2|0,3:2|0:0,0:0:0:0:
157,182,156982,6,0,L|162:263,1,64,2|2,3:2|0:3,0:0:0:0:
169,332,157232,1,0,3:0:0:0:
310,177,157357,2,0,P|295:232|290:276,1,80,2|0,0:2|3:0,0:0:0:0:
30,115,157607,1,2,0:3:0:0:
66,274,157732,2,0,P|69:328|66:375,1,80,2|2,3:2|0:3,0:0:0:0:
259,371,157982,1,2,3:2:0:0:
418,240,158107,1,2,0:3:0:0:
500,326,158232,2,0,L|398:321,1,80,2|2,3:2|0:3,0:0:0:0:
340,318,158482,6,0,L|438:323,1,80,6|2,3:2|0:3,0:0:0:0:
347,165,158732,2,0,L|254:166,1,80,2|2,3:2|0:3,0:0:0:0:
89,231,158982,1,2,3:2:0:0:
316,252,159107,1,2,0:3:0:0:
172,324,159232,1,0,3:0:0:0:
415,232,159357,2,0,P|435:171|355:68,1,191.999994140625,2|2,0:3|0:3,0:0:0:0:
192,142,159732,5,0,3:0:0:0:
347,165,159857,1,2,0:2:0:0:
228,253,159982,1,0,3:0:0:0:
228,253,160107,1,2,0:3:0:0:
415,233,160232,1,0,3:0:0:0:
149,328,160357,1,2,0:3:0:0:
347,165,160482,5,6,3:2:0:0:
109,228,160607,1,2,0:3:0:0:
363,321,160732,5,2,3:2:0:0:
18,261,160857,1,2,0:3:0:0:
440,211,160982,5,6,3:2:0:0:
54,355,161107,1,2,0:3:0:0:
453,359,161232,5,2,3:2:0:0:
80,133,161357,1,2,0:3:0:0:
327,248,161482,5,6,3:2:0:0:
149,328,161607,1,2,0:3:0:0:
284,49,161732,1,2,3:2:0:0:
509,282,161857,2,0,P|497:231|489:179,1,95.9999970703126,2|2,0:3|3:2,0:0:0:0:
308,167,162107,1,2,0:3:0:0:
423,252,162232,1,2,3:2:0:0:
398,103,162357,6,0,L|385:204,1,80,2|6,0:3|3:2,0:0:0:0:
420,332,162607,1,2,0:3:0:0:
165,323,162732,1,2,3:2:0:0:
308,167,162857,1,2,0:3:0:0:
131,167,162982,1,6,3:2:0:0:
286,359,163107,1,2,0:3:0:0:
235,83,163232,1,2,3:2:0:0:
236,235,163357,1,2,0:3:0:0:
475,134,163482,5,6,3:2:0:0:
308,167,163607,2,0,L|459:149,1,143.999995605469,4|0,3:2|0:0,0:0:0:0:
475,134,163857,1,6,3:2:0:0:
0,302,164107,2,0,L|67:311,1,47.9999985351563,0|0,3:0|3:0,0:0:0:0:
113,342,164232,2,0,L|137:296,3,47.9999985351563,0|0|0|0,3:0|3:0|3:0|3:0,0:0:0:0:
129,221,164482,6,0,B|112:173|81:144|5:192|-11:129|-16:78|32:47|57:38|90:53|106:83,1,300,6|0,0:2|0:0,0:0:0:0:
109,78,166482,2,0,B|113:50|140:25|166:26|222:41|233:91|237:156|150:133|129:171|128:222,1,300,6|0,3:2|0:0,0:0:0:0:
211,225,168482,6,0,B|201:280|170:339|111:353|45:310|41:243|95:188|144:168|170:209|205:260|241:296|246:366|268:410|318:425|395:377|425:285|318:193|263:274|235:314|221:360,1,671.999979492188,6|0,3:2|3:0,0:0:0:0:
345,125,170232,6,0,B|424:143|418:211|418:211|390:182|372:172,1,180.000006866455,2|0,3:2|3:0,0:0:0:0:
298,193,170482,6,0,P|290:112|273:92,1,95.9999970703126,6|2,3:2|0:3,0:0:0:0:
232,248,170732,1,2,3:2:0:0:
232,248,170857,1,2,0:3:0:0:
134,153,170982,6,0,P|184:142|225:165,1,95.9999970703126,2|2,3:2|0:3,0:0:0:0:
74,203,171232,1,2,3:2:0:0:
74,203,171357,1,2,0:3:0:0:
39,34,171482,6,0,P|30:79|56:132,1,95.9999970703126,2|2,3:2|0:3,0:0:0:0:
110,68,171732,1,0,3:0:0:0:
0,230,171857,2,0,L|14:282,1,47.9999985351563,2|0,0:2|0:0,0:0:0:0:
19,366,171982,2,0,P|71:379|135:308,1,143.999995605469,0|0,3:0|0:0,0:0:0:0:
143,245,172232,1,0,3:0:0:0:
143,245,172482,6,0,P|191:231|238:250,1,95.9999970703126,2|2,3:2|0:3,0:0:0:0:
269,327,172732,1,2,3:2:0:0:
269,327,172857,1,2,0:3:0:0:
412,251,172982,6,0,P|363:245|310:283,1,95.9999970703126,2|2,3:2|0:3,0:0:0:0:
292,187,173232,1,2,3:2:0:0:
292,187,173357,1,2,0:3:0:0:
273,92,173482,6,0,L|295:206,1,95.9999970703126,2|2,3:2|0:3,0:0:0:0:
335,35,173732,1,0,3:0:0:0:
118,60,173857,2,0,L|46:51,1,47.9999985351563,2|0,0:2|0:0,0:0:0:0:
0,122,173982,2,0,P|59:75|142:93,1,143.999995605469,0|0,3:0|0:0,0:0:0:0:
186,24,174232,6,0,P|171:103|152:218,1,167.999994873047,0|0,3:0|0:0,0:0:0:0:
186,274,174482,6,0,P|224:248|281:248,1,71.9999978027344,4|2,3:2|0:3,0:0:0:0:
339,236,174732,6,0,B|135:186,1,167.999994873047,2|0,3:2|0:0,0:0:0:0:
441,211,174982,6,0,P|418:172|412:138,1,71.9999978027344,0|2,3:0|0:3,0:0:0:0:
385,64,175232,6,0,B|350:253,1,167.999994873047,2|0,3:2|0:0,0:0:0:0:
412,306,175482,6,0,P|455:290|501:286,1,71.9999978027344,0|2,3:0|0:3,0:0:0:0:
336,361,175732,6,0,B|140:322,1,167.999994873047,2|0,3:2|0:0,0:0:0:0:
56,353,175982,2,0,P|153:338|159:272,1,167.999994873047,2|0,3:2|0:0,0:0:0:0:
100,183,176232,5,2,3:2:0:0:
268,94,176482,5,4,3:2:0:0:
260,135,176607,1,2,0:3:0:0:
451,139,176732,5,0,3:0:0:0:
455,167,176857,1,2,0:3:0:0:
323,225,176982,5,0,3:0:0:0:
317,244,177107,1,2,0:3:0:0:
437,267,177232,5,0,3:0:0:0:
439,277,177357,1,2,0:3:0:0:
475,357,177482,6,0,P|452:285|381:316,1,167.999994873047,4|0,3:2|0:0,0:0:0:0:
375,334,177982,6,0,P|384:278|259:298,1,224,0|0,0:0|0:0,0:0:0:0:
243,311,178482,6,0,P|234:236|224:174,1,120,4|0,3:2|0:0,0:0:0:0:
264,122,178732,2,0,L|332:135,1,47.9999985351563,0|0,1:0|0:0,0:0:0:0:
0,98,178857,1,0,3:0:0:0:
0,98,179107,5,0,3:0:0:0:
68,142,179232,2,0,P|133:130|191:121,1,111.999996582031,0|0,1:0|0:0,0:0:0:0:
458,237,179482,6,0,L|330:212,1,120,0|0,3:0|0:0,0:0:0:0:
251,212,179732,2,0,L|200:221,1,47.9999985351563,0|0,1:0|0:0,0:0:0:0:
7,334,179857,1,0,3:0:0:0:
7,334,180107,5,0,3:0:0:0:
86,331,180232,2,0,P|106:273|121:207,1,111.999996582031,0|0,1:0|0:0,0:0:0:0:
342,205,180482,6,0,L|333:251,1,40,0|0,3:0|0:0,0:0:0:0:
270,325,180732,2,0,P|292:345|305:354,1,40,0|0,1:0|3:0,0:0:0:0:
400,322,180982,2,0,P|428:331|443:334,1,40,0|0,0:0|3:0,0:0:0:0:
472,242,181232,2,0,P|493:228|508:224,1,40,0|0,1:0|0:0,0:0:0:0:
270,325,181482,5,4,3:2:0:0:
472,242,181607,1,0,3:0:0:0:
384,40,181732,1,0,3:0:0:0:
185,125,181857,1,4,1:2:0:0:
343,135,182232,6,0,B|274:152|221:154|221:154|185:123|185:123|178:152|159:195|159:195|129:170|129:170|72:167|17:187,1,400,6|0,3:2|0:0,0:0:0:0:
