osu file format v14

[General]
AudioFilename: audio.mp3
AudioLeadIn: 0
PreviewTime: 107087
Countdown: 0
SampleSet: Soft
StackLeniency: 0.3
Mode: 0
LetterboxInBreaks: 0
WidescreenStoryboard: 0

[Editor]
Bookmarks: 75287,96635,118577
DistanceSpacing: 0.5
BeatDivisor: 4
GridSize: 16
TimelineZoom: 2.5

[Metadata]
Title:Monochrome Butterfly
TitleUnicode:Monochrome Butterfly
Artist:Aitsuki Nakuru
ArtistUnicode:藍月なくる
Creator:jannahaaa
Version:Extreme
Source:
Tags:
BeatmapID:2005066
BeatmapSetID:957722

[Difficulty]
HPDrainRate:5
CircleSize:3.8
OverallDifficulty:9
ApproachRate:9.3
SliderMultiplier:2
SliderTickRate:1

[Events]
//Background and Video events
0,0,"cameron.jpg",0,0
//Break Periods
//Storyboard Layer 0 (Background)
//Storyboard Layer 1 (Fail)
//Storyboard Layer 2 (Pass)
//Storyboard Layer 3 (Foreground)
//Storyboard Sound Samples

[TimingPoints]
630,342.857142857143,4,2,1,70,1,0
630,-133.333333333333,4,2,1,70,0,0
1830,-133.333333333333,4,2,1,5,0,0
2001,-133.333333333333,4,2,1,70,0,0
3372,-100,4,2,1,70,0,0
14344,-133.333333333333,4,2,1,55,0,0
25315,-100,4,2,1,70,0,0
30801,-133.333333333333,4,2,1,70,0,0
41772,-200,4,2,1,55,0,0
52744,-100,4,2,1,75,0,1
63715,-100,4,2,1,85,0,1
74687,-100,4,2,1,70,0,0
85144,-133.333333333333,4,2,1,70,0,0
85658,-133.333333333333,4,2,1,55,0,0
94144,-133.333333333333,4,2,1,5,0,0
94230,-133.333333333333,4,2,1,55,0,0
96630,-200,4,2,1,55,0,0
107601,-100,4,2,1,75,0,1
118572,-100,4,2,1,85,0,1
129544,-133.333333333333,4,2,1,60,0,0
137772,-111.111111111111,4,2,1,60,0,0
138030,-111.111111111111,4,2,1,5,0,0
138115,-111.111111111111,4,2,1,60,0,0
138372,-111.111111111111,4,2,1,5,0,0
138458,-111.111111111111,4,2,1,60,0,0
138715,-111.111111111111,4,2,1,5,0,0
138801,-111.111111111111,4,2,1,60,0,0
139058,-111.111111111111,4,2,1,5,0,0
139144,-111.111111111111,4,2,1,70,0,0
140515,-200,4,2,1,55,0,0
144887,-200,4,2,1,5,0,0
144972,-200,4,2,1,55,0,0
148658,-200,4,2,1,5,0,0
148744,-200,4,2,1,55,0,0
151487,-100,4,2,1,75,0,1
162458,-100,4,2,1,85,0,1
173430,-100,4,2,1,70,0,0
178915,-66.6666666666667,4,2,1,85,0,0
184572,-500,4,2,1,70,0,0

[Colours]
Combo1 : 255,74,74
Combo2 : 0,183,183
Combo3 : 255,174,174
Combo4 : 169,83,255

[HitObjects]
256,192,630,12,0,1830,0:0:0:0:
121,51,2001,5,8,1:2:0:0:
339,178,2172,1,0,1:2:0:0:
65,273,2344,1,8,1:2:0:0:
243,53,2515,1,0,1:2:0:0:
336,304,2687,1,8,1:2:0:0:
52,163,2858,1,0,1:2:0:0:
347,43,3030,1,12,1:2:0:0:
346,44,3372,5,4,0:0:0:0:
269,296,3544,1,2,0:0:0:0:
494,166,3715,1,8,0:0:0:0:
210,83,3887,2,0,B|143:88|143:88|-21:48,1,200,2|2,0:0|0:0,0:0:0:0:
126,290,4401,2,0,P|133:235|152:172,1,100,8|2,0:0|0:0,0:0:0:0:
314,384,4744,5,2,0:0:0:0:
314,384,4915,1,2,0:0:0:0:
417,179,5087,2,0,P|457:170|524:146,1,100,8|2,0:0|0:0,0:0:0:0:
231,8,5430,1,0,0:0:0:0:
202,278,5601,1,2,0:0:0:0:
389,50,5772,1,8,0:0:0:0:
468,299,5944,1,2,0:0:0:0:
255,107,6115,5,0,0:0:0:0:
510,138,6287,1,2,0:0:0:0:
306,323,6458,1,8,0:0:0:0:
342,86,6630,2,2,P|390:28|507:47,1,200
314,212,7144,2,0,P|275:214|216:184,1,100,8|2,0:0|0:0,0:0:0:0:
66,19,7487,5,2,0:0:0:0:
66,19,7658,1,2,0:0:0:0:
27,245,7830,2,0,P|7:315|0:350,1,100,8|2,0:0|0:0,0:0:0:0:
144,79,8172,1,0,0:0:0:0:
157,355,8344,1,2,0:0:0:0:
284,183,8515,1,8,0:0:0:0:
285,177,8858,5,0,0:0:0:0:
412,349,9030,1,0,0:0:0:0:
425,73,9201,1,8,0:0:0:0:
222,288,9372,2,0,P|115:338|35:298,1,200,2|2,0:0|0:0,0:0:0:0:
112,138,9887,2,0,P|119:206|125:258,1,100,8|2,0:0|0:0,0:0:0:0:
341,44,10230,5,0,0:0:0:0:
341,44,10401,1,2,0:0:0:0:
360,345,10572,1,8,0:0:0:0:
433,55,10743,1,2,0:0:0:0:
313,269,10915,1,0,0:0:0:0:
251,62,11087,1,2,0:0:0:0:
238,359,11258,1,8,0:0:0:0:
442,161,11430,1,2,0:0:0:0:
202,181,11601,5,0,0:0:0:0:
419,344,11772,1,2,0:0:0:0:
122,296,11944,1,8,0:0:0:0:
327,109,12115,2,0,P|314:209|299:312,1,200,2|2,0:0|0:0,0:0:0:0:
106,193,12630,2,0,P|161:176|219:187,1,100,8|2,0:0|0:0,0:0:0:0:
0,303,12972,5,0,0:0:0:0:
0,303,13144,1,2,0:0:0:0:
240,264,13315,1,8,0:0:0:0:
97,100,13487,2,0,P|38:83|-28:69,1,100,2|0,0:0|0:0,0:0:0:0:
169,307,13830,2,0,P|160:283|159:258,1,50,10|0,0:0|0:0,0:0:0:0:
275,60,14001,2,0,P|273:84|265:108,1,50,10|0,0:0|0:0,0:0:0:0:
341,282,14172,1,10,0:0:0:0:
341,263,14258,1,10,0:0:0:0:
343,244,14344,6,2,P|401:208|482:246,1,150.000005722046,6|10,0:0|0:0,0:0:0:0:
248,215,14858,2,0,P|251:147|252:54,1,150.000005722046,2|2,0:0|0:0,0:0:0:0:
76,185,15372,1,8,0:0:0:0:
203,335,15544,6,0,P|269:351|336:301,1,150.000005722046
234,176,16058,2,0,P|189:163|148:159,1,75.0000028610231,10|2,0:0|0:0,0:0:0:0:
317,95,16401,2,0,P|363:91|403:80,1,75.0000028610231,2|2,0:0|0:0,0:0:0:0:
473,25,16744,1,10,0:0:0:0:
473,25,17087,6,8,P|468:74|459:194,1,150.000005722046,2|10,0:0|0:0,0:0:0:0:
409,368,17601,2,0,P|430:314|513:287,1,150.000005722046,2|2,0:0|0:0,0:0:0:0:
345,162,18115,1,8,0:0:0:0:
285,336,18287,6,0,B|258:322|220:331|220:331|183:356|128:342,1,150.000005722046
237,246,18801,2,0,P|250:204|267:166,1,75.0000028610231,8|0,0:0|0:0,0:0:0:0:
181,30,19144,2,0,P|196:65|206:101,1,75.0000028610231,0|0,0:0|0:0,0:0:0:0:
67,224,19487,1,8,0:0:0:0:
67,224,19830,6,0,B|36:290|36:290|66:338|64:390,1,150.000005722046,2|10,0:0|0:0,0:0:0:0:
156,197,20344,2,0,P|123:150|30:143,1,150.000005722046,2|2,0:0|0:0,0:0:0:0:
175,297,20858,1,8,0:0:0:0:
253,96,21030,6,0,P|253:187|256:245,1,150.000005722046
337,355,21544,2,0,L|244:340,1,75.0000028610231,10|2,0:0|0:0,0:0:0:0:
367,277,21887,2,0,L|460:262,1,75.0000028610231,2|2,0:0|0:0,0:0:0:0:
488,178,22230,1,10,0:0:0:0:
488,178,22572,6,0,P|473:100|470:58,1,112.500004291535,2|0,0:0|0:0,0:0:0:0:
477,49,22915,2,0,B|445:52|445:52|390:46,1,75.0000028610231,10|0,0:0|0:0,0:0:0:0:
269,151,23258,1,0,0:0:0:0:
335,16,23430,1,0,0:0:0:0:
353,219,23601,1,8,0:0:0:0:
229,74,23772,6,0,L|223:223,1,150.000005722046
134,237,24287,2,0,P|77:251|55:276,1,75.0000028610231,8|0,0:0|0:0,0:0:0:0:
247,358,24630,2,0,P|211:350|183:327,1,75.0000028610231
339,105,24972,1,10,0:0:0:0:
442,352,25144,1,10,0:0:0:0:
442,352,25230,1,10,0:0:0:0:
442,352,25315,5,10,0:0:0:0:
201,214,25487,1,0,0:0:0:0:
463,179,25658,1,10,0:0:0:0:
238,338,25830,2,0,B|172:338|172:338|130:354|130:354|36:354,1,200,2|2,0:0|0:0,0:0:0:0:
59,163,26344,2,0,P|74:212|84:261,1,100,8|2,0:0|0:0,0:0:0:0:
155,28,26687,5,2,0:0:0:0:
155,28,26858,1,2,0:0:0:0:
209,296,27030,1,8,0:0:0:0:
284,51,27201,1,2,0:0:0:0:
97,208,27373,1,0,0:0:0:0:
73,0,27544,1,2,0:0:0:0:
296,97,27715,1,8,0:0:0:0:
51,230,27887,1,2,0:0:0:0:
292,354,28058,5,0,0:0:0:0:
183,118,28230,1,2,0:0:0:0:
54,348,28401,1,8,0:0:0:0:
300,210,28572,2,0,L|323:6,1,200,2|2,0:0|0:0,0:0:0:0:
475,88,29087,2,0,L|488:207,1,100,8|2,0:0|0:0,0:0:0:0:
435,382,29430,5,0,0:0:0:0:
435,382,29601,1,2,0:0:0:0:
368,137,29772,1,8,0:0:0:0:
194,347,29944,2,0,B|86:326|86:326|-7:351,1,200,2|2,0:0|0:0,0:0:0:0:
168,142,30458,1,8,0:0:0:0:
194,371,30630,1,10,0:0:0:0:
266,122,30801,6,0,P|252:186|238:304,1,150.000005722046,2|10,0:0|0:0,0:0:0:0:
364,46,31315,2,2,P|378:110|392:228,1,150.000005722046,2|2,0:0|0:0,0:0:0:0:
293,344,31830,1,8,0:0:0:0:
176,163,32001,6,0,P|117:145|29:201,1,150.000005722046
230,273,32515,2,0,P|292:256|316:237,2,75.0000028610231,8|0|0,0:0|0:0|0:0,0:0:0:0:
43,306,33030,1,0,0:0:0:0:
105,85,33201,1,10,0:0:0:0:
105,85,33544,6,0,P|95:42|77:-2,1,75.0000028610231,2|2,0:0|0:0,0:0:0:0:
91,222,33887,1,8,0:0:0:0:
203,116,34058,2,0,L|370:97,1,150.000005722046,2|2,0:0|0:0,0:0:0:0:
509,148,34572,1,8,0:0:0:0:
371,257,34744,6,0,L|204:238,1,150.000005722046,2|2,0:0|0:0,0:0:0:0:
236,101,35258,2,0,P|272:107|308:120,1,75.0000028610231,10|2,0:0|0:0,0:0:0:0:
139,212,35601,2,0,P|109:234|74:248,1,75.0000028610231,2|2,0:0|0:0,0:0:0:0:
147,43,35944,1,10,0:0:0:0:
147,43,36287,6,0,B|86:43|86:43|49:59|49:59|-33:59,1,150.000005722046,2|10,0:0|0:0,0:0:0:0:
116,267,36801,2,0,P|149:229|113:137,1,150.000005722046,2|2,0:0|0:0,0:0:0:0:
21,227,37315,1,8,0:0:0:0:
187,347,37487,2,0,P|216:324|340:332,1,150.000005722046
488,360,38001,1,10,0:0:0:0:
424,192,38172,2,0,P|414:254|404:348,1,150.000005722046
217,225,38687,1,10,0:0:0:0:
217,225,39030,6,0,L|205:63,2,150.000005722046,2|10|0,0:0|0:0|0:0,0:0:0:0:
390,113,39887,2,0,L|284:106,1,75.0000028610231,0|8,0:0|0:0,0:0:0:0:
457,267,40230,2,0,L|485:106,1,150.000005722046
285,222,40744,1,8,0:0:0:0:
328,98,40915,1,0,0:0:0:0:
386,299,41087,1,2,0:0:0:0:
252,48,41258,1,8,0:0:0:0:
282,26,41343,1,8,0:0:0:0:
318,17,41430,1,8,0:0:0:0:
356,20,41515,1,8,0:0:0:0:
390,35,41600,1,8,0:3:0:0:
416,61,41686,1,8,0:3:0:0:
433,95,41772,6,0,P|420:166|412:211,1,100,2|10,0:0|0:0,0:0:0:0:
324,142,42287,1,2,0:0:0:0:
312,242,42458,2,0,P|325:313|333:358,1,100,2|10,0:0|0:0,0:0:0:0:
227,275,42972,1,2,0:0:0:0:
155,341,43144,6,2,P|121:357|98:365,2,50,2|0|8,0:0|0:0|0:0,0:0:0:0:
155,251,43658,1,2,0:0:0:0:
155,251,43830,2,0,L|146:178,1,50,2|2,0:0|0:0,0:0:0:0:
218,135,44172,2,0,L|227:62,1,50,10|2,0:0|0:0,0:0:0:0:
330,27,44515,6,0,P|382:14|435:33,1,100,2|10,0:0|0:0,0:0:0:0:
462,123,45029,2,0,L|522:102,1,50,2|2,0:0|0:0,0:0:0:0:
382,157,45372,2,8,L|371:87,1,50,2|8,0:0|0:0,0:0:0:0:
453,253,45715,1,0,0:0:0:0:
339,318,45887,6,0,L|349:248,1,50,2|0,0:0|0:0,0:0:0:0:
274,217,46230,2,0,L|268:147,1,50,10|0,0:0|0:0,0:0:0:0:
241,82,46572,2,0,P|201:66|175:64,1,50,2|0,0:0|0:0,0:0:0:0:
124,181,46915,2,0,P|163:164|183:147,1,50,10|0,0:0|0:0,0:0:0:0:
16,115,47258,6,0,L|35:229,1,100,2|8,0:0|0:0,0:0:0:0:
130,291,47772,1,2,0:0:0:0:
199,192,47944,2,0,P|212:144|220:123,1,50,2|0,0:0|0:0,0:0:0:0:
319,291,48287,2,0,P|306:243|298:222,1,50,10|0,0:0|0:0,0:0:0:0:
373,151,48630,6,0,P|411:129|437:125,1,50,2|0,0:0|0:0,0:0:0:0:
298,27,48972,1,10,0:0:0:0:
234,173,49144,2,0,P|211:181|179:185,1,50,2|0,0:0|0:0,0:0:0:0:
62,68,49487,1,2,0:0:0:0:
197,101,49658,1,10,0:0:0:0:
57,195,49830,1,2,0:0:0:0:
212,264,50001,6,0,L|329:252,1,100,2|8,0:0|0:0,0:0:0:0:
352,145,50515,1,2,0:0:0:0:
425,237,50687,2,0,P|407:270|402:288,1,50,2|0,0:0|0:0,0:0:0:0:
481,128,51030,1,8,0:0:0:0:
346,64,51201,6,0,P|382:57|414:61,1,50,2|0,0:0|0:0,0:0:0:0:
268,175,51544,2,0,P|232:182|200:178,1,50,2|8,0:0|0:0,0:0:0:0:
117,53,51887,2,0,P|65:34|23:50,1,100,2|0,0:0|0:0,0:0:0:0:
43,228,52401,1,0,0:0:0:0:
119,141,52572,1,0,0:0:0:0:
206,349,52744,6,0,P|211:272|225:150,1,200,6|10,0:0|0:0,0:0:0:0:
116,326,53258,2,0,P|68:342|19:350,1,100,2|0,0:0|0:0,0:0:0:0:
177,81,53601,1,2,0:0:0:0:
295,339,53772,2,0,P|311:283|341:212,1,100,8|2,0:0|0:0,0:0:0:0:
416,59,54115,5,2,0:0:0:0:
462,310,54287,1,2,0:0:0:0:
272,90,54458,1,10,0:0:0:0:
186,312,54630,2,0,P|64:339|27:279,1,200,2|0,0:0|0:0,0:0:0:0:
132,119,55144,2,0,L|148:218,1,100,8|0,0:0|0:0,0:0:0:0:
327,10,55487,5,2,0:0:0:0:
410,292,55658,1,2,0:0:0:0:
512,68,55830,1,10,0:0:0:0:
257,222,56001,1,2,0:0:0:0:
424,23,56172,1,2,0:0:0:0:
503,271,56344,1,2,0:0:0:0:
271,107,56515,1,10,0:0:0:0:
199,378,56687,1,2,0:0:0:0:
378,129,56858,5,2,0:0:0:0:
493,365,57029,1,2,0:0:0:0:
243,237,57201,1,10,0:0:0:0:
509,83,57372,2,0,P|493:236|491:303,1,200,2|0,0:0|0:0,0:0:0:0:
310,144,57887,2,0,P|357:118|412:117,1,100,10|0,0:0|0:0,0:0:0:0:
199,326,58230,6,0,B|181:240|181:240|199:191|199:191|183:101,1,200,2|10,0:0|0:0,0:0:0:0:
60,317,58744,2,0,P|40:259|12:206,1,100,2|0,0:0|0:0,0:0:0:0:
121,7,59087,1,2,0:0:0:0:
294,212,59258,2,0,P|314:154|342:101,1,100,8|0,0:0|0:0,0:0:0:0:
271,333,59601,5,2,0:0:0:0:
419,123,59772,1,2,0:0:0:0:
478,360,59944,1,10,0:0:0:0:
224,128,60115,2,0,B|144:128|144:128|112:144|112:144|16:144,1,200,2|0,0:0|0:0,0:0:0:0:
118,366,60630,2,0,P|126:316|134:267,1,100,8|0,0:0|0:0,0:0:0:0:
320,48,60972,5,2,0:0:0:0:
64,144,61144,1,2,0:0:0:0:
336,288,61315,1,10,0:0:0:0:
197,54,61487,2,0,B|143:46|143:46|-13:73,1,200,2|2,0:0|0:0,0:0:0:0:
128,352,62001,2,0,L|144:253,1,100,10|2,0:0|0:0,0:0:0:0:
272,64,62344,5,2,2:0:0:0:
400,320,62516,1,2,2:0:0:0:
368,16,62687,1,10,2:0:0:0:
214,224,62858,2,0,B|228:172|228:172|220:14,1,200,2|2,2:0|2:0,2:0:0:0:
438,94,63372,2,8,P|388:97|338:102,1,100,10|8,0:0|0:0,0:0:0:0:
126,201,63715,5,8,0:0:0:0:
442,265,63887,1,2,0:0:0:0:
213,17,64058,1,8,0:0:0:0:
153,360,64230,1,2,0:0:0:0:
312,86,64401,1,8,0:0:0:0:
383,363,64572,1,2,0:0:0:0:
123,180,64744,2,0,L|10:165,1,100,8|0,0:0|0:0,0:0:0:0:
378,193,65087,5,8,0:0:0:0:
95,350,65258,1,2,0:0:0:0:
205,59,65430,1,8,0:0:0:0:
439,293,65601,1,2,0:0:0:0:
106,218,65773,1,8,0:0:0:0:
393,80,65944,1,2,0:0:0:0:
212,324,66115,2,0,L|112:310,1,100,8|0,0:0|0:0,0:0:0:0:
295,15,66458,5,8,0:0:0:0:
401,289,66630,1,2,0:0:0:0:
182,111,66800,1,8,0:0:0:0:
450,29,66972,1,2,0:0:0:0:
259,289,67144,1,8,0:0:0:0:
493,156,67316,1,2,0:0:0:0:
182,111,67487,2,0,L|82:97,1,100,8|0,0:0|0:0,0:0:0:0:
375,358,67830,5,8,0:0:0:0:
109,213,68001,1,2,0:0:0:0:
419,160,68173,1,8,2:0:0:0:
183,7,68344,1,2,2:0:0:0:
254,324,68515,1,8,0:0:0:0:
289,17,68687,1,2,0:0:0:0:
121,273,68858,2,0,L|109:386,1,100,8|0,0:0|0:0,0:0:0:0:
79,66,69201,5,8,0:0:0:0:
25,321,69372,1,2,0:0:0:0:
196,37,69544,1,8,0:0:0:0:
304,324,69715,1,2,0:0:0:0:
40,161,69887,1,8,0:0:0:0:
342,75,70058,1,2,0:0:0:0:
155,286,70230,2,0,L|140:385,1,100,8|0,0:0|0:0,0:0:0:0:
273,104,70572,5,8,0:0:0:0:
463,357,70744,1,2,0:0:0:0:
285,78,70915,1,8,0:0:0:0:
204,352,71087,1,2,0:0:0:0:
125,49,71258,1,8,0:0:0:0:
400,195,71430,1,2,0:0:0:0:
99,274,71601,2,0,L|-1:260,1,100,8|0,0:0|0:0,0:0:0:0:
294,31,71944,5,8,0:0:0:0:
415,342,72115,1,2,0:0:0:0:
217,101,72287,1,8,2:0:0:0:
512,154,72458,1,2,2:0:0:0:
215,241,72630,1,8,2:0:0:0:
512,302,72801,1,2,2:0:0:0:
224,353,72972,2,0,L|124:339,1,100,8|0,2:0|2:0,2:0:0:0:
90,39,73315,5,8,0:0:0:0:
37,349,73487,1,2,0:0:0:0:
207,112,73658,1,8,0:0:0:0:
262,359,73830,1,2,0:0:0:0:
56,164,74001,2,8,P|73:145|87:125,1,50,10|10,0:0|0:0,0:0:0:0:
159,42,74172,1,10,0:0:0:0:
281,277,74344,1,8,0:3:0:0:
20,237,74515,2,8,P|69:240|96:229,1,50,8|10,0:0|0:0,0:0:0:0:
201,205,74687,5,4,0:0:0:0:
41,31,74858,1,2,0:0:0:0:
310,124,75030,1,8,0:0:0:0:
79,197,75201,2,0,B|99:231|99:231|81:252|81:252|117:317|88:379,1,200,0|0,2:1|0:1,0:1:0:0:
202,201,75715,2,0,P|256:182|316:165,1,100,8|0,0:0|0:0,0:0:0:0:
488,97,76058,5,2,0:0:0:0:
488,97,76229,1,2,0:0:0:0:
426,327,76401,2,0,P|417:282|399:206,1,100,8|2,0:0|0:0,0:0:0:0:
117,136,76744,1,0,0:0:0:0:
352,40,76915,1,2,0:0:0:0:
291,281,77087,1,8,0:0:0:0:
363,31,77258,1,2,0:0:0:0:
419,313,77429,5,0,0:0:0:0:
261,105,77601,1,2,0:0:0:0:
185,351,77772,1,8,0:0:0:0:
357,186,77944,2,0,P|400:70|452:-34,1,200
260,199,78458,2,0,P|289:261|312:327,1,100,8|0,0:0|0:0,0:0:0:0:
187,115,78801,5,2,0:0:0:0:
187,115,78972,1,2,0:0:0:0:
108,272,79144,2,0,P|88:342|81:377,1,100,8|2,0:0|0:0,0:0:0:0:
270,269,79486,1,0,0:0:0:0:
32,194,79658,1,2,0:0:0:0:
256,53,79829,1,8,0:0:0:0:
256,53,80172,5,0,0:0:0:0:
32,194,80344,1,2,0:0:0:0:
270,275,80515,1,8,0:0:0:0:
181,74,80687,2,0,B|119:79|80:42|80:42|41:83|-25:78,1,200
137,306,81201,2,0,P|143:256|154:208,1,100,8|2,0:0|0:0,0:0:0:0:
315,59,81544,5,0,0:0:0:0:
315,59,81715,1,2,0:0:0:0:
437,280,81887,1,8,0:0:0:0:
208,156,82057,1,2,0:0:0:0:
427,68,82230,1,0,0:0:0:0:
205,25,82401,1,2,0:0:0:0:
406,181,82572,1,8,0:0:0:0:
145,283,82744,1,2,0:0:0:0:
481,350,82915,5,0,0:0:0:0:
228,225,83086,1,2,0:0:0:0:
480,142,83258,1,8,0:0:0:0:
281,345,83430,2,0,B|221:323|221:323|169:354|169:354|93:364,1,200
210,126,83944,2,0,L|236:270,1,100,8|0,0:0|0:0,0:0:0:0:
492,368,84287,5,8,0:0:0:0:
177,75,85144,1,0,0:0:0:0:
259,55,85315,2,0,L|346:42,1,75.0000028610231
293,187,85658,6,0,P|279:284|277:370,1,150.000005722046,2|8,0:0|0:0,0:0:0:0:
382,157,86172,2,0,P|345:116|238:119,1,150.000005722046,2|0,0:0|0:0,0:0:0:0:
126,205,86687,1,8,0:0:0:0:
46,55,86858,6,0,P|26:147|21:222,1,150.000005722046
174,87,87372,1,8,0:0:0:0:
226,259,87544,1,0,0:0:0:0:
313,91,87715,2,0,P|327:57|333:20,2,75.0000028610231,0|0|8,0:0|0:0|0:0,0:0:0:0:
313,91,88401,5,0,0:0:0:0:
206,217,88572,1,0,0:0:0:0:
272,7,88744,1,8,0:0:0:0:
165,133,88915,1,0,0:0:0:0:
363,166,89087,1,0,0:0:0:0:
167,29,89258,1,0,0:0:0:0:
121,255,89430,1,8,0:0:0:0:
336,70,89601,6,0,B|361:52|400:55|400:55|450:75|517:68,1,150.000005722046
366,209,90115,2,0,P|379:167|396:129,1,75.0000028610231,8|0,0:0|0:0,0:0:0:0:
302,313,90458,2,0,P|291:276|277:242,1,75.0000028610231
168,76,90801,1,8,0:0:0:0:
168,76,91144,6,0,P|122:72|7:57,1,150.000005722046,0|8,0:0|0:0,0:0:0:0:
28,157,91658,2,0,P|74:161|189:176,1,150.000005722046
255,99,92172,1,8,0:0:0:0:
306,215,92344,6,0,P|283:262|347:340,1,150.000005722046
381,227,92858,2,0,L|288:212,1,75.0000028610231,10|2,0:0|0:0,0:0:0:0:
438,149,93201,2,0,L|531:134,1,75.0000028610231,2|2,0:0|0:0,0:0:0:0:
457,33,93544,1,10,0:0:0:0:
457,33,93887,6,0,P|452:107|454:154,1,112.500004291535,2|0,0:0|0:0,0:0:0:0:
464,160,94230,2,0,P|470:210|471:247,1,75.0000028610231,8|0,0:0|0:0,0:0:0:0:
337,116,94572,1,0,0:0:0:0:
300,259,94744,2,0,L|204:253,1,75.0000028610231,0|8,0:0|0:0,0:0:0:0:
49,152,95087,6,0,P|117:119|191:158,1,150.000005722046
72,300,95601,2,0,P|27:305|-15:288,1,75.0000028610231,8|0,0:0|0:0,0:0:0:0:
181,146,95944,1,0,0:0:0:0:
321,318,96116,1,8,0:3:0:0:
315,281,96202,1,8,0:3:0:0:
335,250,96287,1,8,0:0:0:0:
347,215,96372,1,8,0:0:0:0:
336,179,96459,1,8,0:0:0:0:
311,153,96544,1,8,0:0:0:0:
298,149,96630,6,0,P|241:158|182:170,1,100,0|8,0:0|0:0,0:0:0:0:
251,256,97144,1,0,0:0:0:0:
307,65,97315,2,0,P|314:114|324:163,1,100,0|8,0:0|0:0,0:0:0:0:
263,321,97830,1,0,0:0:0:0:
110,216,98001,6,0,P|150:202|177:197,1,50,0|0,0:0|0:0,0:0:0:0:
233,107,98344,1,8,0:0:0:0:
257,201,98516,1,0,0:0:0:0:
323,63,98687,2,0,L|330:113,1,50,0|0,0:0|0:0,0:0:0:0:
397,205,99030,2,0,L|406:132,1,50,8|0,0:0|0:0,0:0:0:0:
347,278,99373,6,0,B|392:305|414:350,1,100,0|8,0:0|0:0,0:0:0:0:
271,229,99888,1,0,0:0:0:0:
190,335,100058,2,0,L|253:325,1,50,0|0,0:0|0:0,0:0:0:0:
130,263,100401,2,0,L|67:253,1,50,8|0,0:0|0:0,0:0:0:0:
20,179,100744,6,0,P|28:147|31:109,1,50,0|0,0:0|0:0,0:0:0:0:
89,55,101087,2,0,P|104:83|130:112,1,50,8|0,0:0|0:0,0:0:0:0:
135,178,101430,2,0,P|163:162|192:136,1,50,0|0,0:0|0:0,0:0:0:0:
62,225,101772,2,0,P|34:209|-3:197,1,50,8|0,0:0|0:0,0:0:0:0:
134,277,102115,6,0,P|182:282|233:251,1,100,0|8,0:0|0:0,0:0:0:0:
278,174,102630,1,0,0:0:0:0:
355,249,102801,2,0,L|386:297,1,50,0|0,0:0|0:0,0:0:0:0:
395,172,103144,2,0,L|451:184,1,50,8|0,0:0|0:0,0:0:0:0:
336,90,103488,6,0,P|347:47|362:26,1,50,0|0,0:0|0:0,0:0:0:0:
314,177,103830,1,8,0:0:0:0:
252,113,104002,2,0,P|229:121|197:125,1,50,0|0,0:0|0:0,0:0:0:0:
67,96,104345,1,0,0:0:0:0:
144,42,104516,1,8,0:0:0:0:
128,193,104688,1,0,0:0:0:0:
239,37,104858,6,0,B|285:28|285:28|352:42,1,100,0|8,0:0|0:0,0:0:0:0:
391,108,105373,1,0,0:0:0:0:
312,169,105544,2,0,P|298:190|285:235,2,50,0|0|8,0:0|0:0|0:0,0:0:0:0:
194,232,106058,6,0,P|169:227|145:221,1,50,0|0,0:0|0:0,0:0:0:0:
271,308,106401,2,0,P|311:299|339:296,1,50,0|8,0:0|0:0,0:0:0:0:
410,214,106744,2,0,P|403:263|397:316,1,100
331,189,107259,1,0,0:0:0:0:
314,297,107430,1,0,0:0:0:0:
393,76,107601,6,0,B|332:32|273:79|273:79|246:118|166:103,1,200,6|8,0:0|0:0,0:0:0:0:
50,319,108115,2,0,P|104:331|170:358,1,100,2|0,0:0|0:0,0:0:0:0:
228,94,108459,1,0,0:0:0:0:
330,272,108630,2,0,P|320:321|314:370,1,100,8|2,0:0|0:0,2:0:0:0:
150,188,108973,5,2,0:0:0:0:
399,93,109145,1,2,0:0:0:0:
147,31,109316,1,10,0:0:0:0:
247,285,109488,2,0,P|153:317|72:261,1,200,2|0,0:0|0:0,0:0:0:0:
330,61,110001,2,0,P|337:110|345:159,1,100,8|0,0:0|0:0,0:0:0:0:
512,384,110345,5,2,0:0:0:0:
240,220,110516,1,2,0:0:0:0:
501,101,110688,1,10,0:0:0:0:
266,227,110859,1,2,0:0:0:0:
512,361,111030,1,2,0:0:0:0:
379,111,111202,1,2,0:0:0:0:
255,364,111373,1,10,0:0:0:0:
512,223,111545,1,2,0:0:0:0:
271,67,111716,5,2,0:0:0:0:
466,281,111887,1,2,0:0:0:0:
408,0,112059,1,10,0:0:0:0:
209,219,112230,2,0,B|124:191|63:230|63:230|31:211|-10:225,1,200,2|2,0:0|0:0,0:0:0:0:
301,81,112744,2,0,P|303:142|309:191,1,100,8|2,0:0|0:0,0:0:0:0:
35,285,113087,6,0,P|92:268|153:389,1,200,2|10,0:0|0:0,0:0:0:0:
372,269,113601,2,0,P|317:277|252:297,1,100,2|0,0:0|0:0,0:0:0:0:
414,105,113944,1,2,0:0:0:0:
491,365,114115,2,0,L|497:265,1,100,8|0,0:0|0:0,0:0:0:0:
254,57,114459,5,2,0:0:0:0:
512,164,114630,1,2,0:0:0:0:
251,232,114801,1,10,0:0:0:0:
428,32,114972,2,0,P|486:42|511:165,1,200
188,112,115487,2,0,L|309:119,1,100,8|0,0:0|0:0,0:0:0:0:
0,65,115830,5,2,0:0:0:0:
278,20,116002,1,2,0:0:0:0:
36,171,116173,1,10,0:0:0:0:
308,305,116345,2,0,B|362:313|362:313|518:286,1,200,2|2,0:0|0:0,0:0:0:0:
208,351,116859,2,0,L|192:252,1,100,10|2,0:0|0:0,0:0:0:0:
402,25,117202,5,2,2:0:0:0:
174,132,117372,1,2,2:0:0:0:
453,231,117544,1,10,2:0:0:0:
197,35,117715,2,0,B|143:27|143:27|-13:54,1,200,2|2,0:0|0:0,0:0:0:0:
210,353,118230,2,8,P|205:303|201:253,1,100,10|8,0:0|0:0,0:0:0:0:
436,74,118572,5,8,0:0:0:0:
192,140,118744,1,2,0:0:0:0:
481,204,118915,1,8,0:0:0:0:
246,50,119087,1,2,0:0:0:0:
403,320,119258,1,8,0:0:0:0:
133,208,119429,1,2,0:0:0:0:
411,105,119601,2,0,L|510:118,1,100,8|0,0:0|0:0,0:0:0:0:
231,322,119944,5,8,0:0:0:0:
273,39,120115,1,2,0:0:0:0:
458,260,120287,1,8,0:0:0:0:
144,202,120458,1,2,0:0:0:0:
406,81,120630,1,8,0:0:0:0:
155,291,120801,1,2,0:0:0:0:
406,363,120972,2,0,L|505:359,1,100,8|0,2:0|2:0,2:0:0:0:
255,40,121315,5,8,0:0:0:0:
277,326,121487,1,2,0:0:0:0:
147,90,121657,1,8,0:0:0:0:
24,341,121829,1,2,0:0:0:0:
320,199,122001,1,8,0:0:0:0:
67,64,122173,1,2,0:0:0:0:
209,341,122344,2,0,L|309:355,1,100,8|0,0:0|0:0,0:0:0:0:
260,99,122687,5,8,0:0:0:0:
117,349,122858,1,2,0:0:0:0:
384,217,123030,1,8,2:0:0:0:
97,176,123201,1,2,2:0:0:0:
323,362,123372,1,8,0:0:0:0:
329,57,123544,1,2,0:0:0:0:
132,284,123715,2,0,L|120:397,1,100,8|0,0:0|0:0,0:0:0:0:
257,97,124058,5,8,0:0:0:0:
396,358,124229,1,2,0:0:0:0:
183,137,124401,1,8,0:0:0:0:
113,358,124572,1,2,0:0:0:0:
367,212,124744,1,8,0:0:0:0:
94,160,124915,1,2,0:0:0:0:
240,286,125087,2,0,L|225:385,1,100,8|0,0:0|0:0,0:0:0:0:
448,174,125429,5,8,0:0:0:0:
182,79,125601,1,2,0:0:0:0:
346,348,125772,1,8,0:0:0:0:
309,40,125944,1,2,0:0:0:0:
84,265,126115,1,8,0:0:0:0:
353,199,126287,1,2,0:0:0:0:
106,56,126458,2,0,L|6:42,1,100,8|0,0:0|0:0,0:0:0:0:
357,146,126801,5,8,0:0:0:0:
113,313,126972,1,2,0:0:0:0:
292,84,127144,1,8,2:0:0:0:
55,182,127315,1,2,2:0:0:0:
364,289,127487,1,8,2:0:0:0:
197,60,127658,1,2,2:0:0:0:
99,357,127829,2,0,L|-1:343,1,100,8|0,2:0|2:0,2:0:0:0:
115,76,128172,5,8,0:0:0:0:
287,253,128344,1,2,0:0:0:0:
0,115,128515,1,8,0:0:0:0:
188,362,128687,1,2,0:0:0:0:
234,97,128858,2,8,L|217:51,1,50,10|10,0:0|0:0,0:0:0:0:
287,253,129029,1,10,0:0:0:0:
369,106,129201,2,8,L|386:59,1,50,10|10,0:0|0:0,0:0:0:0:
293,255,129372,2,8,L|338:276,1,50,10|10,0:0|0:0,0:0:0:0:
496,336,129544,5,2,0:0:0:0:
376,192,129715,1,2,0:0:0:0:
488,40,129887,1,10,0:0:0:0:
485,321,130058,5,2,0:0:0:0:
366,179,130229,1,2,0:0:0:0:
477,27,130401,1,2,0:0:0:0:
298,47,130572,2,0,P|259:53|196:59,1,75.0000028610231,10|2,0:0|0:0,0:0:0:0:
141,309,130915,5,2,0:0:0:0:
82,130,131087,1,2,0:0:0:0:
243,157,131258,1,10,0:0:0:0:
146,295,131430,5,2,0:0:0:0:
87,116,131602,1,2,0:0:0:0:
264,244,131772,2,0,B|245:248|227:250,1,37.5000014305115,2|0,0:0|0:0,0:0:0:0:
141,309,131944,2,0,P|131:249|119:171,1,112.500004291535,10|0,0:0|0:0,0:0:0:0:
87,116,132287,6,0,P|102:80|205:45,1,150.000005722046,2|8,0:0|0:0,0:0:0:0:
311,106,132801,2,0,P|347:120|444:72,1,150.000005722046,2|2,0:0|0:0,0:0:0:0:
356,213,133315,2,0,P|340:246|329:286,1,75.0000028610231,10|2,0:0|0:0,0:0:0:0:
208,361,133658,6,0,L|191:294,1,37.5000014305115
66,151,133830,2,0,L|56:192,1,37.5000014305115
23,363,134001,1,10,0:0:0:0:
207,224,134172,2,0,B|232:214|232:214|260:223|260:223|312:191|367:213,1,150.000005722046,2|2,0:0|0:0,0:0:0:0:
438,258,134687,2,0,L|517:251,1,75.0000028610231,8|0,0:0|0:0,0:0:0:0:
399,89,135030,5,2,0:0:0:0:
252,205,135201,1,2,0:0:0:0:
388,344,135372,1,10,0:0:0:0:
381,86,135544,5,2,0:0:0:0:
234,202,135715,1,2,0:0:0:0:
370,341,135886,1,2,0:0:0:0:
224,191,136058,1,10,0:0:0:0:
124,372,136230,6,0,P|73:374|22:377,1,75.0000028610231,2|0,0:0|0:0,0:0:0:0:
185,118,136572,2,0,B|193:164|193:164|189:180|189:180|198:189|198:189|216:297,1,150.000005722046,2|0,0:0|0:0,0:0:0:0:
319,220,137087,2,0,L|300:130,1,75.0000028610231,2|0,0:0|0:0,0:0:0:0:
202,26,137430,1,10,0:0:0:0:
202,26,137601,1,2,0:0:0:0:
47,241,137772,6,0,P|86:208|179:166,1,134.999995880127,2|0,0:0|0:0,0:0:0:0:
253,319,138115,6,0,P|202:314|107:278,1,134.999995880127,10|0,0:0|0:0,0:0:0:0:
237,223,138458,6,0,P|278:169|306:108,1,134.999995880127,2|0,0:0|0:0,0:0:0:0:
464,174,138801,6,0,P|422:120|394:59,1,134.999995880127,10|0,0:0|0:0,0:0:0:0:
151,161,139144,6,0,P|192:107|220:46,1,134.999995880127,2|0,0:0|0:0,0:0:0:0:
230,26,139487,1,10,0:0:0:0:
372,214,139658,2,0,B|375:264|375:264|365:302|365:302|370:374,1,134.999995880127,2|0,0:0|0:0,0:0:0:0:
129,325,140001,2,8,L|88:304,1,44.999998626709,10|10,0:0|0:0,0:0:0:0:
266,181,140172,2,8,L|327:154,1,44.999998626709,10|10,0:0|0:0,0:0:0:0:
86,126,140344,2,8,L|45:105,1,44.999998626709,10|10,0:0|0:0,0:0:0:0:
246,25,140515,6,0,P|299:15|364:4,1,100,0|8,0:0|0:0,0:0:0:0:
435,53,141030,2,0,P|417:119|433:165,1,100
364,212,141544,2,0,P|382:244|392:273,1,50,8|0,0:0|0:0,0:0:0:0:
259,372,141887,5,0,0:0:0:0:
165,238,142058,1,0,0:0:0:0:
303,287,142230,1,8,0:0:0:0:
145,323,142401,1,0,0:0:0:0:
268,212,142572,1,0,0:0:0:0:
165,319,142744,1,0,0:0:0:0:
299,199,142915,2,0,P|349:181|366:178,1,50,8|0,0:0|0:0,0:0:0:0:
302,48,143258,6,0,P|243:45|206:37,1,75
217,34,143601,1,8,0:0:0:0:
120,91,143772,2,0,P|124:115|128:140,1,50
181,226,144115,2,0,L|75:237,1,100,2|0,0:0|0:0,0:0:0:0:
217,347,144630,6,0,P|247:322|296:315,1,75
293,310,144972,2,0,P|300:282|307:244,1,50,8|0,0:0|0:0,0:0:0:0:
227,141,145315,2,0,P|232:165|238:189,1,50
336,97,145658,2,0,P|343:69|350:31,1,50,8|0,0:0|0:0,0:0:0:0:
253,54,146001,6,0,B|199:58|199:58|148:51,2,100,0|8|0,0:0|0:0|0:0,0:0:0:0:
324,140,146858,1,0,0:0:0:0:
242,187,147030,2,0,P|234:219|229:245,1,50,8|0,0:0|0:0,0:0:0:0:
290,316,147372,6,0,P|334:276|369:272,1,75
359,276,147715,1,8,0:0:0:0:
444,354,147887,2,0,L|447:254,1,100
323,183,148401,2,0,L|324:90,1,75,8|0,0:0|0:0,0:0:0:0:
324,95,148744,6,0,P|270:76|219:98,1,100,0|8,0:0|0:0,0:0:0:0:
157,153,149258,2,0,P|103:172|52:150,1,100
103,66,149772,1,8,0:0:0:0:
157,153,149944,6,0,L|145:271,1,100
244,362,150458,1,8,0:0:0:0:
259,216,150630,1,0,0:0:0:0:
259,216,150972,1,0,0:0:0:0:
344,192,151144,1,0,0:0:0:0:
424,224,151315,1,0,0:0:0:0:
362,63,151487,6,0,B|210:12|210:12|222:34|224:52,1,200,6|10,0:0|0:0,0:0:0:0:
124,293,152001,2,0,P|171:277|220:269,1,100,2|0,0:0|0:0,0:0:0:0:
468,189,152344,1,2,0:0:0:0:
175,88,152515,2,0,P|222:103|271:111,1,100,8|0,0:0|0:0,0:0:0:0:
473,224,152858,5,2,0:0:0:0:
226,276,153030,1,2,0:0:0:0:
485,357,153201,1,10,0:0:0:0:
296,106,153372,2,0,P|251:80|115:143,1,200,2|0,0:0|0:0,0:0:0:0:
348,324,153887,2,0,P|339:285|330:208,1,100,8|0,0:0|0:0,0:0:0:0:
461,62,154230,5,2,0:0:0:0:
198,36,154401,1,2,0:0:0:0:
436,178,154573,1,10,0:0:0:0:
143,169,154744,1,2,0:0:0:0:
377,98,154915,1,2,0:0:0:0:
283,365,155087,1,2,0:0:0:0:
167,129,155258,1,10,0:0:0:0:
389,251,155430,1,2,0:0:0:0:
98,331,155601,5,2,0:0:0:0:
323,198,155772,1,2,0:0:0:0:
50,155,155944,1,10,0:0:0:0:
297,55,156115,2,0,B|279:275,1,200,2|2,0:0|0:0,0:0:0:0:
435,25,156630,2,0,L|454:155,1,100,8|2,0:0|0:0,0:0:0:0:
218,43,156972,6,0,B|83:44|83:44|-5:24,1,200,6|8,0:0|0:0,0:0:0:0:
69,347,157487,2,0,P|90:280|105:239,1,100
220,124,157830,1,0,0:0:0:0:
327,373,158001,2,0,P|306:306|291:265,1,100,8|0,0:0|0:0,0:0:0:0:
336,33,158344,5,2,0:0:0:0:
148,270,158515,1,2,0:0:0:0:
449,175,158687,1,10,0:0:0:0:
197,56,158858,2,0,B|126:54|126:54|83:42|83:42|46:56|-2:45,1,200,2|0,0:0|0:0,0:0:0:0:
191,297,159372,2,0,P|218:238|255:175,1,100,8|0,0:0|0:0,0:0:0:0:
464,71,159715,5,2,0:0:0:0:
195,136,159887,1,2,0:0:0:0:
438,289,160058,1,10,0:0:0:0:
272,52,160230,2,2,P|216:46|159:39,1,100
318,190,160572,1,0,0:0:0:0:
116,295,160744,2,0,L|100:196,1,100,10|2,0:0|0:0,0:0:0:0:
379,27,161087,5,6,2:0:0:0:
456,367,161258,1,2,0:0:0:0:
456,367,162115,2,0,L|328:355,1,100
0,128,162458,5,8,0:0:0:0:
296,32,162630,1,2,0:0:0:0:
46,217,162801,1,8,0:0:0:0:
347,303,162973,1,2,0:0:0:0:
185,56,163144,1,8,0:0:0:0:
96,352,163315,1,2,0:0:0:0:
4,108,163487,2,0,L|19:-5,1,100,8|0,0:0|0:0,0:0:0:0:
158,240,163830,5,8,0:0:0:0:
262,0,164001,1,2,0:0:0:0:
65,154,164173,1,8,0:0:0:0:
369,192,164344,1,2,0:0:0:0:
136,35,164516,1,8,0:0:0:0:
161,332,164687,1,2,0:0:0:0:
338,99,164858,2,0,L|352:-1,1,100,8|0,0:0|0:0,0:0:0:0:
126,206,165201,5,8,0:0:0:0:
422,300,165373,1,2,0:0:0:0:
225,34,165543,1,8,0:0:0:0:
376,211,165715,1,2,0:0:0:0:
98,114,165887,1,8,0:0:0:0:
372,56,166059,1,2,0:0:0:0:
269,347,166230,2,0,L|283:247,1,100,8|0,0:0|0:0,0:0:0:0:
105,31,166573,5,8,0:0:0:0:
59,313,166744,1,2,0:0:0:0:
257,97,166916,1,8,2:0:0:0:
353,349,167087,1,2,2:0:0:0:
170,94,167258,1,8,0:0:0:0:
117,365,167430,1,2,0:0:0:0:
329,149,167601,2,0,L|442:161,1,100,8|0,0:0|0:0,0:0:0:0:
110,40,167944,5,8,0:0:0:0:
386,65,168115,1,2,0:0:0:0:
84,226,168287,1,8,0:0:0:0:
379,236,168458,1,2,0:0:0:0:
116,112,168630,1,8,0:0:0:0:
463,24,168801,1,2,0:0:0:0:
282,232,168973,2,0,L|267:331,1,100,8|0,0:0|0:0,0:0:0:0:
329,58,169315,5,8,0:0:0:0:
133,279,169487,1,2,0:0:0:0:
429,186,169658,1,8,0:0:0:0:
151,51,169830,1,2,0:0:0:0:
174,365,170001,1,8,0:0:0:0:
369,104,170173,1,2,0:0:0:0:
103,197,170344,2,0,L|3:183,1,100,8|0,0:0|0:0,0:0:0:0:
334,0,170687,5,8,0:0:0:0:
177,253,170858,1,2,0:0:0:0:
461,125,171030,1,8,2:0:0:0:
178,35,171201,1,2,2:0:0:0:
411,245,171373,1,8,2:0:0:0:
149,131,171544,1,2,2:0:0:0:
413,59,171715,2,0,L|513:73,1,100,8|0,2:0|2:0,2:0:0:0:
234,55,172058,5,8,0:0:0:0:
202,335,172230,1,2,0:0:0:0:
384,127,172401,1,8,0:0:0:0:
383,373,172573,1,2,0:0:0:0:
239,185,172744,2,8,L|228:96,1,50,10|10,0:0|0:0,0:0:0:0:
234,55,172915,1,10,0:0:0:0:
506,96,173087,1,8,0:3:0:0:
268,277,173258,2,8,L|215:267,1,50,8|10,0:0|0:0,0:0:0:0:
89,148,173430,5,8,0:0:0:0:
339,215,173601,1,0,0:0:0:0:
99,324,173772,1,8,0:0:0:0:
212,101,173944,2,0,P|289:43|380:75,1,200
504,219,174458,2,0,P|454:228|405:237,1,100,8|0,0:0|0:0,0:0:0:0:
115,348,174801,5,0,0:0:0:0:
115,348,174972,1,0,0:0:0:0:
204,162,175144,2,0,P|189:111|173:45,1,100,8|0,0:0|0:0,0:0:0:0:
369,271,175487,1,0,0:0:0:0:
404,60,175658,1,0,0:0:0:0:
239,304,175830,1,8,0:0:0:0:
291,96,176001,1,0,0:0:0:0:
433,176,176172,5,0,0:0:0:0:
308,10,176344,1,0,0:0:0:0:
258,232,176515,1,8,0:0:0:0:
487,111,176687,2,0,B|453:73|375:83|375:83|338:114|295:111,1,200
416,352,177201,2,0,L|400:240,1,100,8|0,0:0|0:0,0:0:0:0:
304,112,177544,5,0,0:0:0:0:
304,112,177715,1,0,0:0:0:0:
160,224,177887,2,0,P|110:219|60:211,1,100,8|0,0:0|0:0,0:0:0:0:
354,218,178230,1,0,0:0:0:0:
165,78,178401,1,0,0:0:0:0:
365,73,178572,2,0,P|415:78|465:86,1,100,8|0,0:0|0:0,0:0:0:0:
78,240,178915,5,8,0:0:0:0:
387,366,179087,1,0,0:0:0:0:
256,64,179258,1,8,0:0:0:0:
103,351,179430,1,0,0:0:0:0:
256,48,179601,1,8,0:0:0:0:
320,368,179772,1,0,0:0:0:0:
512,112,179944,2,0,P|437:113|362:116,1,150.000005722046,8|0,0:0|0:0,0:0:0:0:
48,64,180287,5,8,0:0:0:0:
160,368,180458,1,0,0:0:0:0:
282,63,180630,1,8,0:0:0:0:
32,256,180801,1,0,0:0:0:0:
352,304,180972,1,8,0:0:0:0:
176,32,181144,1,0,0:0:0:0:
16,336,181315,2,0,L|179:331,1,150.000005722046,8|0,0:0|0:0,0:0:0:0:
240,112,181658,5,8,0:0:0:0:
496,304,181830,1,0,0:0:0:0:
368,16,182001,1,8,0:0:0:0:
240,352,182172,1,0,0:0:0:0:
448,64,182344,1,8,0:0:0:0:
101,239,182515,1,8,0:0:0:0:
426,74,182687,1,8,0:0:0:0:
80,251,182858,1,8,0:0:0:0:
512,354,183030,5,8,0:0:0:0:
292,74,183201,1,8,0:0:0:0:
292,74,183287,1,8,0:0:0:0:
292,74,183372,1,8,0:0:0:0:
80,352,183544,1,8,0:3:0:0:
144,16,183715,1,8,0:3:0:0:
272,352,183887,1,8,0:3:0:0:
416,16,184058,1,8,0:3:0:0:
496,352,184230,1,8,0:3:0:0:
96,176,184401,5,8,0:0:0:0:
380,104,184572,2,0,B|437:109|496:65|496:65|375:187|456:333,1,420
