osu file format v14

[General]
AudioFilename: audio.mp3
AudioLeadIn: 0
PreviewTime: 42571
Countdown: 0
SampleSet: None
StackLeniency: 1
Mode: 0
LetterboxInBreaks: 0
WidescreenStoryboard: 1

[Editor]
DistanceSpacing: 2
BeatDivisor: 4
GridSize: 4
TimelineZoom: 1.8

[Metadata]
Title:Monochrome Butterfly (Speed Up Ver.)
TitleUnicode:Monochrome Butterfly (Speed Up Ver.)
Artist:Aitsuki Nakuru
ArtistUnicode:藍月なくる
Creator:Risen
Version:Extreme
Source:
Tags:
BeatmapID:1694272
BeatmapSetID:799962

[Difficulty]
HPDrainRate:5
CircleSize:4
OverallDifficulty:7.8
ApproachRate:9.3
SliderMultiplier:1.4
SliderTickRate:1

[Events]
//Background and Video events
0,0,"bg.jpg",0,0
//Break Periods
//Storyboard Layer 0 (Background)
//Storyboard Layer 1 (Fail)
//Storyboard Layer 2 (Pass)
//Storyboard Layer 3 (Foreground)
//Storyboard Sound Samples

[TimingPoints]
605,285.714285714286,4,3,3,75,1,0
605,-222.222222222222,4,3,3,75,0,0
2819,-100,4,3,3,75,0,0
12033,-125,4,3,3,75,0,0
21140,-100,4,3,3,75,0,0
34890,-142.857142857143,4,3,3,75,0,0
41747,-111.111111111111,4,3,3,75,0,0
44033,-83.3333333333333,4,3,3,75,0,0
51997,-166.666666666667,4,3,3,75,0,0
53176,-166.666666666667,4,3,3,75,0,1
54319,-111.111111111111,4,3,3,75,0,1
62319,-83.3333333333333,4,3,3,75,0,0
66890,-83.3333333333333,4,3,3,75,0,1
71605,-357.142857142857,4,3,3,75,0,0

[Colours]
Combo1 : 128,128,255
Combo2 : 0,128,192

[HitObjects]
204,112,605,6,0,B|160:73|109:139|164:180|164:180|208:213|188:264,1,220.499993270874
372,176,1747,1,0,0:0:0:0:
360,140,1890,1,0,0:0:0:0:
288,276,2033,1,0,0:0:0:0:
296,304,2176,1,0,0:0:0:0:
408,256,2319,1,0,0:0:0:0:
204,192,2462,1,0,0:0:0:0:
344,24,2605,1,0,0:0:0:0:
80,116,2890,6,0,P|164:92|208:24,1,140
252,128,3319,2,0,P|240:212|268:272,1,140
332,316,3747,1,0,0:0:0:0:
372,216,3890,1,0,0:0:0:0:
372,216,4033,6,0,P|392:180|384:144,1,70
304,104,4319,1,0,0:0:0:0:
272,208,4462,1,0,0:0:0:0:
188,140,4605,2,0,L|172:68,1,70
84,200,4890,2,0,P|80:252|100:280,1,70
304,296,5176,6,0,B|276:276|240:308|240:308|200:336|160:312,1,140
424,248,5605,2,0,P|432:204|360:220,1,140
276,204,6033,1,0,0:0:0:0:
196,120,6176,1,0,0:0:0:0:
356,56,6319,6,0,P|300:32|288:8,1,70
436,8,6605,1,0,0:0:0:0:
432,96,6747,1,0,0:0:0:0:
192,40,6890,6,0,P|144:60|128:96,2,70
280,260,7462,6,0,P|312:192|264:176,1,140
184,176,7890,2,0,B|188:136|132:92|132:92|156:100|168:96,1,140
256,92,8319,1,0,0:0:0:0:
348,60,8462,1,0,0:0:0:0:
420,136,8605,6,0,P|420:180|404:208,1,70
324,268,8890,1,0,0:0:0:0:
260,136,9033,1,0,0:0:0:0:
200,236,9176,5,0,0:0:0:0:
100,152,9319,1,0,0:0:0:0:
188,248,9462,1,0,0:0:0:0:
176,80,9605,1,0,0:0:0:0:
372,80,9747,6,0,L|296:64,2,70
328,160,10176,2,0,B|360:192|392:180|392:180|424:164|460:196,1,140
488,276,10605,1,0,0:0:0:0:
296,324,10747,1,0,0:0:0:0:
148,192,10890,6,0,L|220:172,1,70
304,220,11176,1,0,0:0:0:0:
264,96,11319,1,0,0:0:0:0:
372,132,11462,1,0,0:0:0:0:
344,16,11605,2,0,P|408:20|432:8,2,70
204,64,12033,6,0,P|140:40|92:68,1,112
236,140,12462,2,0,P|296:132|340:160,1,112
120,228,12890,2,0,L|104:172,1,56
228,284,13176,5,0,0:0:0:0:
320,224,13319,1,0,0:0:0:0:
216,164,13462,2,0,L|200:108,1,56
280,64,13747,1,0,0:0:0:0:
344,132,13890,1,0,0:0:0:0:
432,104,14033,1,0,0:0:0:0:
304,288,14319,6,0,B|272:280|212:288|212:288|224:272|228:256,1,112
264,176,14747,2,0,P|276:144|248:76,1,112
348,84,15176,2,0,P|380:108|400:112,1,56
176,120,15462,5,0,0:0:0:0:
88,160,15605,1,0,0:0:0:0:
280,148,15747,1,0,0:0:0:0:
164,208,15890,1,0,0:0:0:0:
264,260,16033,6,0,P|304:280|332:272,1,56
400,208,16319,1,0,0:0:0:0:
232,36,16605,6,0,P|184:84|156:60,1,112
320,116,17033,2,0,P|260:128|244:88,1,112
384,244,17462,2,0,P|344:232|320:204,1,56
392,168,17747,1,0,0:0:0:0:
328,304,17890,1,0,0:0:0:0:
216,208,18033,1,0,0:0:0:0:
368,192,18176,1,0,0:0:0:0:
324,104,18319,6,0,L|340:44,1,56
232,184,18605,1,0,0:0:0:0:
104,280,18890,6,0,P|116:232|96:168,1,112
192,176,19319,1,0,0:0:0:0:
192,176,19462,2,0,P|236:192|260:192,1,56
328,80,19747,1,0,0:0:0:0:
328,80,19890,2,0,B|304:92|276:68|276:68|252:48|220:64,1,112
388,164,20319,2,0,L|408:108,1,56
268,264,20605,6,0,L|248:208,1,56
376,276,20890,1,0,0:0:0:0:
152,132,21033,1,0,0:0:0:0:
152,132,21105,1,0,0:0:0:0:
152,132,21176,6,0,P|200:84|268:100,1,140
392,160,21605,2,0,P|336:120|268:136,1,140
176,208,22033,2,0,P|212:184|252:188,1,70
316,304,22319,5,0,0:0:0:0:
344,204,22462,1,0,0:0:0:0:
408,368,22605,1,0,0:0:0:0:
432,276,22747,1,0,0:0:0:0:
296,116,22890,6,0,L|368:100,1,70
228,64,23176,2,0,L|160:48,1,70
136,256,23462,5,0,0:0:0:0:
176,152,23605,1,0,0:0:0:0:
240,240,23747,1,0,0:0:0:0:
276,136,23890,2,0,P|312:80|296:8,1,140
388,128,24319,2,0,P|384:168|408:208,1,70
388,272,24605,5,0,0:0:0:0:
264,256,24747,1,0,0:0:0:0:
348,344,24890,1,0,0:0:0:0:
188,220,25033,1,0,0:0:0:0:
296,128,25176,6,0,L|220:108,1,70
372,68,25462,2,0,L|440:44,1,70
76,148,25747,6,0,P|76:104|160:56,1,140
144,128,26176,2,0,P|160:196|116:264,1,140
236,224,26605,2,0,P|248:272|264:288,1,70
308,228,26890,5,0,0:0:0:0:
232,144,27033,1,0,0:0:0:0:
336,120,27176,1,0,0:0:0:0:
264,40,27319,1,0,0:0:0:0:
432,72,27462,2,0,L|420:140,1,70
448,224,27747,1,0,0:0:0:0:
204,264,28033,6,0,P|156:248|140:232,2,70
228,184,28462,2,0,P|184:144|200:56,1,140
256,108,28890,2,0,P|272:76|308:64,1,70
396,184,29176,5,0,0:0:0:0:
320,280,29319,1,0,0:0:0:0:
280,172,29462,1,0,0:0:0:0:
336,304,29605,1,0,0:0:0:0:
196,252,29747,2,0,B|150:242|150:242|128:224,1,70
80,160,30033,1,0,0:0:0:0:
240,116,30319,6,0,P|308:96|344:36,1,140
444,188,30747,2,0,P|380:168|336:112,1,140
344,240,31176,1,0,0:0:0:0:
232,200,31319,1,0,0:0:0:0:
172,320,31462,2,0,L|140:256,1,70
104,184,31747,1,0,0:0:0:0:
208,72,31890,6,0,B|188:112|220:136|220:136|248:160|232:208,1,140
104,68,32319,1,0,0:0:0:0:
408,144,32605,6,0,P|344:136|320:68,1,140
364,228,33033,1,0,0:0:0:0:
364,228,33176,2,0,P|400:256|428:256,1,70
248,264,33462,1,0,0:0:0:0:
248,264,33605,2,0,P|192:272|140:212,1,140
212,200,34033,1,0,0:0:0:0:
152,100,34176,1,0,0:0:0:0:
320,52,34319,1,0,0:0:0:0:
320,52,34462,6,0,L|324:92,1,35
392,136,34605,2,0,L|380:176,1,35
436,232,34747,2,0,L|408:264,1,35
296,300,34890,6,0,P|256:304|220:260,1,97.9999970092774
208,172,35319,1,0,0:0:0:0:
108,224,35462,2,0,P|96:196|96:168,1,48.9999985046387
184,92,35747,1,0,0:0:0:0:
320,144,35890,2,0,P|332:92|304:48,1,97.9999970092774
352,232,36319,2,0,P|384:208|396:180,1,48.9999985046387
288,296,36605,5,0,0:0:0:0:
256,192,36747,1,0,0:0:0:0:
176,324,36890,1,0,0:0:0:0:
152,224,37033,1,0,0:0:0:0:
332,228,37176,6,0,P|348:172|324:128,1,97.9999970092774
244,120,37605,2,0,P|224:72|248:24,1,97.9999970092774
120,124,38033,1,0,0:0:0:0:
120,124,38176,2,0,P|112:184|132:212,1,97.9999970092774
192,264,38605,2,0,P|204:304|192:328,1,48.9999985046387
292,264,38890,5,0,0:0:0:0:
240,184,39033,1,0,0:0:0:0:
332,184,39176,1,0,0:0:0:0:
288,100,39319,1,0,0:0:0:0:
376,104,39462,6,0,P|416:144|424:188,1,97.9999970092774
344,288,39890,1,0,0:0:0:0:
344,288,40033,2,0,P|344:248|332:224,1,48.9999985046387
224,196,40319,1,0,0:0:0:0:
224,196,40462,2,0,P|216:140|252:92,1,97.9999970092774
292,160,40890,1,0,0:0:0:0:
124,96,41033,1,0,0:0:0:0:
176,268,41176,5,0,0:0:0:0:
208,140,41319,1,0,0:0:0:0:
320,240,41462,1,0,0:0:0:0:
208,128,41605,1,0,0:0:0:0:
272,68,41747,6,0,P|336:44|396:72,1,125.999996154785
448,120,42176,1,0,0:0:0:0:
448,120,42319,2,0,P|416:168|412:200,2,62.9999980773926
248,204,42747,5,0,0:0:0:0:
184,128,43033,1,0,0:0:0:0:
220,36,43319,1,0,0:0:0:0:
240,216,43605,5,0,0:0:0:0:
168,128,43747,1,0,0:0:0:0:
208,28,43890,1,0,0:0:0:0:
328,112,44033,6,0,P|352:184|328:276,1,167.999994873047
424,240,44462,2,0,P|452:300|512:244,1,167.999994873047
452,160,44890,1,0,0:0:0:0:
360,316,45033,1,0,0:0:0:0:
236,232,45176,1,0,0:0:0:0:
292,152,45319,1,0,0:0:0:0:
328,240,45462,1,0,0:0:0:0:
196,136,45605,2,0,P|208:92|128:120,1,167.999994873047
280,72,46033,6,0,P|260:28|224:0,1,83.9999974365235
384,68,46319,1,0,0:0:0:0:
348,168,46462,1,0,0:0:0:0:
384,68,46605,1,0,0:0:0:0:
420,220,46747,1,0,0:0:0:0:
232,228,46890,6,0,L|144:248,1,83.9999974365235
216,316,47176,1,0,0:0:0:0:
68,256,47319,1,0,0:0:0:0:
132,140,47462,5,0,0:0:0:0:
160,56,47605,1,0,0:0:0:0:
216,120,47747,1,0,0:0:0:0:
244,40,47890,2,0,P|300:76|352:4,1,167.999994873047
296,160,48319,2,0,P|264:204|220:216,1,83.9999974365235
24,136,48605,6,0,B|68:108|104:124|104:124|140:140|180:104,1,167.999994873047
76,196,49033,2,0,P|144:208|240:152,1,167.999994873047
224,260,49462,2,0,P|172:280|124:280,1,83.9999974365235
328,296,49747,5,0,0:0:0:0:
268,200,49890,1,0,0:0:0:0:
380,200,50033,1,0,0:0:0:0:
300,80,50176,2,0,B|236:84|176:132|176:132|188:80,1,167.999994873047
356,28,50605,2,0,P|408:36|440:56,1,83.9999974365235
284,176,50890,5,0,0:0:0:0:
220,244,51033,1,0,0:0:0:0:
196,152,51176,1,0,0:0:0:0:
304,272,51319,2,0,P|368:216|360:116,1,167.999994873047
428,352,51747,2,0,P|420:300|428:264,1,83.9999974365235
492,120,52033,6,0,L|472:160,1,41.9999987182618
112,92,52747,5,0,0:0:0:0:
112,92,52890,2,0,L|172:84,1,41.9999987182618
248,128,53176,5,0,0:0:0:0:
136,240,53319,1,0,0:0:0:0:
152,156,53462,5,0,0:0:0:0:
300,264,53605,1,0,0:0:0:0:
192,296,53747,5,0,0:0:0:0:
344,164,53890,1,0,0:0:0:0:
400,256,54033,5,0,0:0:0:0:
236,176,54176,1,0,0:0:0:0:
268,88,54319,5,0,0:0:0:0:
424,56,54462,1,0,0:0:0:0:
336,0,54605,5,0,0:0:0:0:
396,188,54748,1,0,0:0:0:0:
152,160,54890,2,0,L|136:92,1,62.9999980773926
224,228,55176,2,0,L|244:156,1,62.9999980773926
332,192,55462,5,0,0:0:0:0:
252,80,55605,1,0,0:0:0:0:
388,64,55747,1,0,0:0:0:0:
336,216,55890,1,0,0:0:0:0:
216,72,56033,5,0,0:0:0:0:
424,40,56176,1,0,0:0:0:0:
344,256,56319,1,0,0:0:0:0:
180,56,56462,1,0,0:0:0:0:
268,160,56605,2,0,P|308:128|336:128,1,62.9999980773926
212,236,56890,1,0,0:0:0:0:
212,236,57033,2,0,P|176:188|104:176,1,125.999996154785
132,256,57462,2,0,P|96:252|68:264,1,62.9999980773926
296,320,57747,5,0,0:0:0:0:
212,236,57890,1,0,0:0:0:0:
384,336,58033,5,0,0:0:0:0:
328,188,58176,1,0,0:0:0:0:
284,248,58319,5,0,0:0:0:0:
416,124,58462,1,0,0:0:0:0:
396,240,58605,5,0,0:0:0:0:
288,92,58747,1,0,0:0:0:0:
376,64,58890,5,0,0:0:0:0:
216,188,59033,1,0,0:0:0:0:
336,164,59176,5,0,0:0:0:0:
132,112,59319,1,0,0:0:0:0:
228,320,59462,2,0,P|256:288|264:260,1,62.9999980773926
188,256,59747,2,0,P|192:220|180:192,1,62.9999980773926
56,168,60033,5,0,0:0:0:0:
232,116,60176,1,0,0:0:0:0:
120,208,60319,5,0,0:0:0:0:
176,44,60462,1,0,0:0:0:0:
224,216,60605,5,0,0:0:0:0:
100,40,60747,1,0,0:0:0:0:
260,148,60890,5,0,0:0:0:0:
44,112,61033,1,0,0:0:0:0:
272,40,61176,2,0,P|316:44|340:64,1,62.9999980773926
396,120,61462,1,0,0:0:0:0:
396,120,61605,2,0,P|400:204|360:248,1,125.999996154785
248,204,62033,6,0,L|224:136,1,62.9999980773926
80,276,62319,2,0,B|128:300|128:300|192:280|192:280|244:308,1,167.999994873047
308,268,62747,2,0,P|332:212|280:124,1,167.999994873047
128,208,63176,2,0,L|164:132,1,83.9999974365235
224,200,63462,5,0,0:0:0:0:
52,136,63605,1,0,0:0:0:0:
216,228,63747,1,0,0:0:0:0:
188,68,63890,1,0,0:0:0:0:
364,64,64033,6,0,L|280:44,1,83.9999974365235
384,140,64319,1,0,0:0:0:0:
144,244,64605,6,0,P|168:200|212:268,1,167.999994873047
208,264,65033,2,0,B|272:244|320:252|320:252|352:260|380:248,1,167.999994873047
304,324,65462,2,0,P|256:328|212:340,1,83.9999974365235
292,136,65747,1,0,0:0:0:0:
160,68,65890,6,0,P|180:140|108:204,1,167.999994873047
264,40,66462,2,0,P|312:64|352:64,1,83.9999974365235
432,48,66747,1,0,0:0:0:0:
92,104,66890,5,0,0:0:0:0:
184,288,67033,1,0,0:0:0:0:
176,72,67176,5,0,0:0:0:0:
100,256,67319,1,0,0:0:0:0:
280,120,67462,5,0,0:0:0:0:
36,176,67605,1,0,0:0:0:0:
300,208,67747,5,0,0:0:0:0:
87,75,67890,1,0,0:0:0:0:
210,262,68033,2,0,P|195:218|206:164,1,83.9999974365235
263,91,68319,5,0,0:0:0:0:
479,190,68462,1,0,0:0:0:0:
360,32,68605,5,0,0:0:0:0:
380,292,68747,1,0,0:0:0:0:
443,59,68890,5,0,0:0:0:0:
260,220,69033,1,0,0:0:0:0:
316,128,69176,2,0,P|273:107|228:116,1,83.9999974365235
124,116,69462,5,0,0:0:0:0:
340,232,69605,1,0,0:0:0:0:
100,189,69747,5,0,0:0:0:0:
361,55,69890,1,0,0:0:0:0:
261,261,70033,5,0,0:0:0:0:
193,62,70176,1,0,0:0:0:0:
200,312,70319,5,0,0:0:0:0:
244,188,70462,2,0,L|248:140,2,41.9999987182618
352,172,70747,1,0,0:0:0:0:
352,172,70890,2,0,P|360:232|344:256,1,83.9999974365235
300,112,71176,2,0,P|280:72|292:32,1,83.9999974365235
232,268,71462,5,0,0:0:0:0:
232,268,71605,2,0,B|188:240|96:288|96:288|112:244|111:181|111:181|73:146|46:196|83:215|132:188|132:188|168:176|214:177,1,450.80000550293
