osu file format v14

[General]
AudioFilename: audio.mp3
AudioLeadIn: 0
PreviewTime: 63555
Countdown: 0
SampleSet: Soft
StackLeniency: 0.7
Mode: 0
LetterboxInBreaks: 0
WidescreenStoryboard: 0

[Editor]
DistanceSpacing: 0.4
BeatDivisor: 4
GridSize: 32
TimelineZoom: 2.2

[Metadata]
Title:Monochrome Butterfly
TitleUnicode:Monochrome Butterfly
Artist:Aitsuki Nakuru
ArtistUnicode:藍月なくる
Creator:Sotarks
Version:Uniform
Source:
Tags:トコロクラニスト よーすけ@KG akitoshi corinn -laura- lami intoon SnowNiNo_ Shunao ShogunMoon Nevo Armin a_r_m_i_n
BeatmapID:1619555
BeatmapSetID:770300

[Difficulty]
HPDrainRate:5.2
CircleSize:3.8
OverallDifficulty:9.2
ApproachRate:9.3
SliderMultiplier:1.82
SliderTickRate:1

[Events]
//Background and Video events
0,0,"butterfly.jpg",0,0
//Break Periods
//Storyboard Layer 0 (Background)
//Storyboard Layer 1 (Fail)
//Storyboard Layer 2 (Pass)
//Storyboard Layer 3 (Foreground)
//Storyboard Sound Samples

[TimingPoints]
-816,342.857142857143,4,2,22,22,1,0
555,-192.307692307692,4,2,22,22,0,0
1841,-192.307692307692,4,2,22,22,0,0
1926,-192.307692307692,4,2,22,52,0,0
3298,-98.0392156862745,4,2,22,62,0,0
14269,-108.695652173913,4,2,22,52,0,0
25241,-98.0392156862745,4,2,22,62,0,0
30726,-108.695652173913,4,2,22,52,0,0
52155,-108.695652173913,4,2,22,42,0,0
52669,-89.2857142857143,4,2,22,62,0,0
63298,-81.9672131147541,4,2,22,62,0,0
63555,-81.9672131147541,4,2,22,5,0,0
63641,-81.9672131147541,4,2,22,72,0,1
74612,-98.0392156862745,4,2,22,62,0,0
80098,-98.0392156862745,4,2,22,82,0,1
85755,-98.0392156862745,4,2,22,82,0,0
89012,-98.0392156862745,4,2,22,62,0,0
89355,-98.0392156862745,4,2,22,42,0,0
89698,-98.0392156862745,4,2,22,32,0,0
89869,-98.0392156862745,4,2,22,22,0,0
90041,-98.0392156862745,4,2,22,5,0,0

[Colours]
Combo1 : 174,56,231
Combo2 : 116,173,101
Combo3 : 92,80,65
Combo4 : 255,185,253

[HitObjects]
254,196,555,6,0,B|211:208|181:182|196:86|293:100|319:162|283:229|410:253|466:225,1,354.899997833862,2|0,0:0|0:0,0:0:0:0:
486,197,1926,5,8,0:0:0:0:
462,305,2098,1,0,1:0:0:0:
358,114,2269,37,0,1:0:0:0:
366,316,2441,1,8,0:0:0:0:
236,67,2612,5,8,0:0:0:0:
163,310,2784,1,8,0:0:0:0:
100,31,2955,37,8,0:0:0:0:
100,31,3298,22,0,P|129:83|120:142,1,92.8200005665283,6|0,1:0|0:0,0:0:0:0:
47,275,3641,1,10,0:0:0:0:
262,154,3812,6,0,P|306:165|340:196,1,92.8200005665283,2|0,1:0|0:0,0:0:0:0:
218,36,4155,1,2,1:0:0:0:
193,225,4326,38,0,P|173:279|184:332,1,92.8200005665283,10|0,0:0|0:0,0:0:0:0:
117,115,4669,5,2,1:0:0:0:
262,154,4841,1,0,1:0:0:0:
47,275,5012,37,10,0:0:0:0:
252,334,5184,1,2,1:0:0:0:
83,194,5355,5,2,3:2:0:0:
346,129,5526,1,0,1:0:0:0:
117,115,5698,37,10,0:0:0:0:
222,234,5869,1,2,0:0:0:0:
269,22,6041,6,0,P|232:78|231:125,1,92.8200005665283,6|0,1:0|0:0,0:0:0:0:
392,40,6384,1,10,0:0:0:0:
478,258,6555,38,0,P|487:324|468:367,1,92.8200005665283,2|0,1:0|0:0,0:0:0:0:
434,147,6898,1,2,1:0:0:0:
294,315,7069,6,0,P|226:334|171:315,1,92.8200005665283,10|0,0:0|0:0,0:0:0:0:
73,154,7412,37,2,1:0:0:0:
125,294,7584,1,2,1:0:0:0:
216,80,7755,5,10,0:0:0:0:
49,260,7926,1,2,1:0:0:0:
343,267,8098,37,2,3:2:0:0:
136,63,8269,1,2,1:0:0:0:
116,371,8441,5,10,0:0:0:0:
116,371,8784,38,0,P|131:287|118:256,1,92.8200005665283,6|0,1:0|0:0,0:0:0:0:
273,368,9126,1,10,0:0:0:0:
190,145,9298,6,0,P|173:102|176:56,1,92.8200005665283,2|0,1:0|0:0,0:0:0:0:
92,196,9641,1,2,1:0:0:0:
308,95,9812,38,0,P|380:79|419:88,1,92.8200005665283,10|0,0:0|0:0,0:0:0:0:
272,272,10155,5,2,1:0:0:0:
190,145,10327,1,0,1:0:0:0:
431,199,10498,37,10,0:0:0:0:
311,5,10670,1,2,1:0:0:0:
350,236,10841,5,2,3:2:0:0:
110,107,11012,1,2,1:0:0:0:
272,272,11184,37,10,3:2:0:0:
296,119,11355,1,2,0:0:0:0:
119,276,11526,6,0,P|51:264|16:211,1,92.8200005665283,6|0,1:0|0:0,0:0:0:0:
145,378,11869,1,10,0:0:0:0:
285,211,12041,38,0,P|305:154|296:109,1,92.8200005665283,2|0,1:0|0:0,0:0:0:0:
355,283,12384,1,2,1:0:0:0:
175,198,12555,6,0,P|135:166|75:152,1,92.8200005665283,10|0,0:0|0:0,0:0:0:0:
262,291,12898,37,2,1:0:0:0:
301,122,13069,1,2,1:0:0:0:
95,249,13241,5,10,0:0:0:0:
356,189,13412,1,2,1:0:0:0:
231,379,13584,1,2,3:2:0:0:
163,59,13755,37,10,0:0:0:0:
425,239,13926,1,10,0:0:0:0:
126,358,14098,1,10,0:0:0:0:
126,358,14184,1,8,0:0:0:0:
126,358,14269,22,0,B|104:268|169:300|149:177,1,167.439994379151,6|8,1:0|0:0,0:0:0:0:
264,62,14784,2,0,P|226:124|229:169,1,83.7199971895753,2|0,1:0|0:0,0:0:0:0:
321,277,15126,1,2,1:0:0:0:
390,105,15298,1,10,0:0:0:0:
301,182,15469,1,2,0:0:0:0:
451,300,15641,5,0,1:0:0:0:
416,194,15812,1,2,1:2:0:0:
251,340,15984,1,10,0:2:0:0:
363,322,16155,1,2,1:2:0:0:
207,156,16326,1,2,3:2:0:0:
231,260,16498,1,2,1:2:0:0:
366,63,16669,1,10,0:2:0:0:
366,63,17012,38,0,P|343:127|354:170,1,83.7199971895753,6|0,1:0|0:0,0:0:0:0:
182,86,17355,1,8,0:0:0:0:
257,159,17526,2,0,P|276:195|278:237,1,83.7199971895753,2|0,1:0|0:0,0:0:0:0:
151,352,17869,1,2,1:0:0:0:
191,224,18041,1,10,0:0:0:0:
284,374,18212,1,2,0:0:0:0:
412,187,18384,5,0,1:0:0:0:
285,267,18555,1,2,1:2:0:0:
445,357,18726,1,10,0:2:0:0:
388,276,18898,1,2,1:2:0:0:
253,377,19069,1,2,3:2:0:0:
304,182,19241,1,2,1:2:0:0:
78,308,19412,1,10,0:2:0:0:
78,308,19755,38,0,P|85:250|46:122,1,167.439994379151,6|8,1:0|0:0,0:0:0:0:
203,41,20269,2,0,P|166:95|161:146,1,83.7199971895753,2|0,1:0|0:0,0:0:0:0:
264,250,20612,1,2,1:0:0:0:
341,77,20784,1,10,0:0:0:0:
241,147,20955,1,2,0:0:0:0:
369,286,21126,5,0,1:0:0:0:
354,162,21298,1,2,1:2:0:0:
200,307,21469,1,10,0:2:0:0:
241,147,21641,1,2,1:2:0:0:
372,312,21812,1,2,3:2:0:0:
354,162,21984,1,2,1:2:0:0:
194,325,22155,1,10,0:2:0:0:
194,325,22498,38,0,P|202:258|130:167,1,167.439994379151,6|10,1:0|0:0,0:0:0:0:
277,214,23012,1,2,1:0:0:0:
166,95,23184,1,2,0:0:0:0:
313,125,23355,2,0,P|361:111|395:86,1,83.7199971895753,2|8,1:0|0:0,0:0:0:0:
149,177,23698,6,0,P|101:163|67:138,1,83.7199971895753,2|0,0:0|1:0,0:0:0:0:
249,58,24041,1,2,1:2:0:0:
277,214,24212,1,10,0:2:0:0:
166,95,24384,1,2,1:2:0:0:
313,125,24555,2,0,P|361:111|395:86,1,83.7199971895753,2|0,3:2|1:2,0:0:0:0:
149,177,24898,1,10,0:2:0:0:
264,314,25069,1,10,0:0:0:0:
264,314,25155,1,8,0:0:0:0:
264,314,25241,22,0,P|204:307|160:267,1,92.8200005665283,6|0,1:0|0:0,0:0:0:0:
375,294,25584,1,10,0:0:0:0:
224,217,25755,38,0,P|200:178|197:132,1,92.8200005665283,2|0,1:0|0:0,0:0:0:0:
105,246,26098,1,2,1:0:0:0:
323,214,26269,6,0,P|375:189|404:143,1,92.8200005665283,10|0,0:0|0:0,0:0:0:0:
301,346,26612,37,2,1:0:0:0:
224,217,26784,1,0,1:0:0:0:
463,279,26955,5,10,0:0:0:0:
356,94,27127,1,2,1:0:0:0:
381,312,27298,37,2,3:2:0:0:
146,176,27469,1,2,1:0:0:0:
306,342,27641,5,10,3:2:0:0:
339,186,27812,1,2,0:0:0:0:
127,307,27984,38,0,P|193:292|226:259,1,92.8200005665283,6|0,1:0|0:0,0:0:0:0:
56,362,28327,1,10,0:0:0:0:
66,146,28498,6,0,P|105:85|149:67,1,92.8200005665283,2|0,1:0|0:0,0:0:0:0:
120,218,28841,1,2,1:0:0:0:
307,53,29012,38,0,P|369:86|395:138,1,92.8200005665283,10|0,0:0|0:0,0:0:0:0:
360,348,29355,5,2,1:0:0:0:
420,211,29527,1,2,1:0:0:0:
206,302,29698,37,10,0:0:0:0:
451,289,29869,1,2,1:0:0:0:
161,154,30041,5,2,3:2:0:0:
360,348,30212,1,10,0:0:0:0:
116,340,30384,37,10,0:0:0:0:
420,211,30555,1,10,0:0:0:0:
99,230,30726,22,0,P|67:175|113:64,1,167.439994379151,6|8,1:0|0:0,0:0:0:0:
241,43,31241,2,0,P|178:22|146:34,1,83.7199971895753,2|0,1:0|0:0,0:0:0:0:
264,123,31584,1,2,1:0:0:0:
400,27,31755,1,10,0:0:0:0:
422,220,31926,1,2,0:0:0:0:
347,121,32098,5,0,1:0:0:0:
502,152,32269,1,2,1:2:0:0:
366,280,32441,1,10,0:2:0:0:
435,105,32612,1,2,1:2:0:0:
500,315,32784,2,0,P|466:263|452:221,1,83.7199971895753,2|2,3:2|1:2,0:0:0:0:
320,350,33126,1,10,0:2:0:0:
320,350,33469,37,6,1:0:0:0:
227,254,33641,1,0,0:0:0:0:
81,319,33812,1,8,0:0:0:0:
176,184,33984,2,0,P|174:129|158:90,1,83.7199971895753,2|0,1:0|0:0,0:0:0:0:
93,218,34326,1,2,1:0:0:0:
259,150,34498,1,10,0:0:0:0:
51,47,34669,1,2,0:0:0:0:
287,11,34841,5,0,1:0:0:0:
158,131,35012,1,2,1:2:0:0:
344,209,35184,1,10,0:2:0:0:
270,110,35355,1,2,1:2:0:0:
178,300,35526,1,2,3:2:0:0:
258,214,35698,1,2,1:2:0:0:
64,163,35869,1,10,0:2:0:0:
64,163,36212,38,0,P|114:177|160:174,1,83.7199971895753,6|0,1:0|0:0,0:0:0:0:
34,292,36555,1,8,0:0:0:0:
245,206,36726,2,0,P|286:206|326:219,1,83.7199971895753,2|0,1:0|0:0,0:0:0:0:
246,118,37069,1,2,1:0:0:0:
323,302,37241,1,10,0:0:0:0:
396,142,37412,6,0,P|397:87|381:43,1,83.7199971895753,2|0,0:0|1:0,0:0:0:0:
448,207,37755,1,2,1:2:0:0:
489,37,37926,1,10,0:2:0:0:
301,139,38098,2,0,P|246:143|188:126,1,83.7199971895753,2|0,1:2|3:2,0:0:0:0:
339,240,38441,1,2,1:2:0:0:
256,59,38612,1,10,0:2:0:0:
256,59,38955,38,0,B|160:43|189:110|67:96,1,167.439994379151,6|10,1:0|0:0,0:0:0:0:
228,147,39469,1,2,1:0:0:0:
84,268,39641,1,2,0:0:0:0:
228,147,39812,2,0,P|285:152|319:177,1,83.7199971895753,2|8,1:0|0:0,0:0:0:0:
424,298,40155,6,0,P|386:316|345:316,1,83.7199971895753,2|0,0:0|1:0,0:0:0:0:
479,222,40498,1,2,1:2:0:0:
323,88,40669,1,10,0:2:0:0:
363,226,40841,1,2,1:2:0:0:
419,41,41012,1,2,3:2:0:0:
281,199,41184,1,8,0:0:0:0:
245,220,41269,1,8,0:0:0:0:
204,218,41355,1,8,0:0:0:0:
170,194,41440,1,8,0:0:0:0:
136,170,41526,1,8,0:0:0:0:
94,169,41612,1,8,0:0:0:0:
59,190,41698,38,0,P|33:256|99:340,1,167.439994379151,6|8,1:0|0:0,0:0:0:0:
230,129,42212,1,0,1:0:0:0:
317,293,42384,2,0,P|369:321|418:311,1,83.7199971895753,2|0,0:0|1:0,0:0:0:0:
459,108,42726,1,8,0:0:0:0:
275,220,42898,6,0,L|82:192,1,167.439994379151,2|0,0:0|1:0,0:0:0:0:
235,313,43412,1,8,0:0:0:0:
307,144,43584,1,2,1:0:0:0:
183,236,43755,1,2,0:0:0:0:
336,290,43926,1,2,1:0:0:0:
307,144,44098,1,10,0:0:0:0:
183,236,44269,1,2,0:0:0:0:
405,118,44441,38,0,L|489:97,1,83.7199971895753,2|0,1:0|0:0,0:0:0:0:
363,213,44784,1,10,0:0:0:0:
198,82,44955,2,0,L|114:61,1,83.7199971895753,2|0,1:0|0:0,0:0:0:0:
169,270,45298,2,0,L|253:249,1,83.7199971895753,2|8,1:0|0:0,0:0:0:0:
290,62,45641,6,0,P|276:132|332:215,1,167.439994379151,2|0,0:0|1:0,0:0:0:0:
413,28,46155,1,8,0:0:0:0:
476,176,46326,2,0,L|452:273,1,83.7199971895753,0|0,1:0|0:0,0:0:0:0:
374,122,46669,1,0,1:0:0:0:
281,278,46841,2,0,L|305:375,1,83.7199971895753,8|0,0:0|0:0,0:0:0:0:
195,183,47184,38,0,P|150:135|44:142,1,167.439994379151,6|8,1:0|0:0,0:0:0:0:
158,261,47698,1,0,1:0:0:0:
262,132,47869,2,0,P|315:102|360:109,1,83.7199971895753,2|0,0:0|1:0,0:0:0:0:
485,216,48212,1,8,0:0:0:0:
419,61,48384,6,0,L|399:266,1,167.439994379151,2|0,0:0|1:0,0:0:0:0:
291,356,48898,1,8,0:0:0:0:
422,310,49069,1,2,1:0:0:0:
293,168,49241,1,2,0:0:0:0:
265,345,49412,1,2,1:0:0:0:
402,227,49584,1,10,0:0:0:0:
276,160,49755,1,2,0:0:0:0:
240,336,49926,38,0,P|222:268|205:243,1,83.7199971895753,2|0,1:0|0:0,0:0:0:0:
231,63,50269,1,10,0:0:0:0:
156,196,50441,2,0,P|138:233|131:274,1,83.7199971895753,2|0,1:0|0:0,0:0:0:0:
131,108,50784,2,0,P|124:66|106:29,1,83.7199971895753,2|8,1:0|0:0,0:0:0:0:
335,257,51126,6,0,L|424:241,1,83.7199971895753,2|0,0:0|0:0,0:0:0:0:
206,159,51469,2,0,L|288:173,1,83.7199971895753,2|8,1:0|0:0,0:0:0:0:
59,302,51812,2,0,L|141:287,1,83.7199971895753,4|0,1:0|0:0,0:0:0:0:
131,99,52155,37,2,0:0:0:0:
66,153,52326,1,2,0:0:0:0:
135,207,52498,1,2,0:0:0:0:
282,91,52669,22,0,B|406:89|344:156|470:160,1,203.840002488281,6|10,1:0|0:0,0:0:0:0:
243,246,53184,2,0,P|310:238|365:270,1,101.920001244141,2|0,1:0|0:0,0:0:0:0:
83,146,53526,2,0,P|131:160|180:150,1,101.920001244141,2|8,1:0|0:0,0:0:0:0:
132,56,53869,1,2,0:0:0:0:
30,221,54041,5,2,1:0:0:0:
180,150,54212,1,2,1:0:0:0:
340,250,54384,1,10,0:0:0:0:
269,104,54555,2,0,L|249:343,1,203.840002488281,2|0,1:0|1:0,0:0:0:0:
450,342,55069,2,0,L|427:224,1,101.920001244141,8|0,0:0|0:0,0:0:0:0:
308,363,55413,37,2,1:0:0:0:
174,335,55584,1,2,0:0:0:0:
340,250,55755,1,10,0:0:0:0:
183,179,55926,1,2,1:0:0:0:
355,83,56098,1,2,3:0:0:0:
209,31,56269,1,2,1:0:0:0:
388,168,56441,1,10,0:0:0:0:
223,262,56612,1,2,0:0:0:0:
468,199,56784,5,2,1:0:0:0:
268,117,56955,1,2,1:0:0:0:
440,30,57126,1,10,0:0:0:0:
339,269,57298,2,0,P|274:227|136:196,1,203.840002488281,2|2,1:0|1:0,0:0:0:0:
345,161,57812,1,10,0:0:0:0:
203,294,57984,1,2,0:0:0:0:
274,79,58155,38,0,P|349:42|469:78,1,203.840002488281,6|10,1:0|0:0,0:0:0:0:
260,171,58669,2,0,P|178:136|147:137,1,101.920001244141,2|0,1:0|0:0,0:0:0:0:
386,245,59012,2,0,P|342:271|292:280,1,101.920001244141,2|8,1:0|0:0,0:0:0:0:
407,342,59355,1,2,0:0:0:0:
295,186,59526,5,2,1:0:0:0:
203,304,59698,1,2,1:0:0:0:
43,231,59869,1,10,0:0:0:0:
121,362,60041,2,0,L|133:128,1,203.840002488281,2|0,1:0|1:0,0:0:0:0:
274,57,60555,2,0,L|292:177,1,101.920001244141,8|0,0:0|0:0,0:0:0:0:
450,33,60898,37,2,1:0:0:0:
368,181,61069,2,0,L|350:301,1,101.920001244141,2|10,0:0|0:0,0:0:0:0:
206,159,61412,1,2,1:0:0:0:
375,88,61584,1,2,3:0:0:0:
278,241,61755,1,2,1:0:0:0:
203,56,61926,1,10,0:0:0:0:
296,134,62098,1,2,0:0:0:0:
105,257,62269,5,6,1:0:0:0:
436,329,62441,1,4,1:0:0:0:
436,329,63298,22,0,B|344:306|364:377|258:358,1,166.529993139176,12|0,0:0|0:0,0:0:0:0:
205,330,63641,5,6,1:0:0:0:
305,86,63812,1,2,0:0:0:0:
293,273,63984,5,10,0:0:0:0:
193,29,64155,1,2,1:0:0:0:
118,270,64326,37,8,0:0:0:0:
384,211,64498,1,2,1:0:0:0:
107,131,64669,5,10,0:0:0:0:
359,333,64841,1,0,1:0:0:0:
314,37,65012,37,10,0:0:0:0:
165,202,65184,1,2,1:0:0:0:
297,121,65355,5,10,0:0:0:0:
185,65,65526,1,2,1:0:0:0:
273,227,65698,37,8,0:0:0:0:
220,138,65869,1,0,1:0:0:0:
132,371,66041,6,0,P|62:357|22:306,1,111.019995426117,8|0,0:0|0:0,0:0:0:0:
293,273,66384,37,10,0:0:0:0:
141,228,66555,1,2,1:0:0:0:
300,167,66726,5,10,0:0:0:0:
119,236,66898,1,2,1:0:0:0:
374,204,67069,37,10,0:0:0:0:
164,99,67241,1,2,1:0:0:0:
433,89,67412,5,10,0:0:0:0:
294,260,67584,1,2,1:0:0:0:
283,33,67755,37,10,0:0:0:0:
390,313,67926,1,2,1:0:0:0:
142,118,68098,5,10,0:0:0:0:
448,64,68269,1,2,1:0:0:0:
241,321,68441,37,8,0:0:0:0:
299,47,68612,1,2,1:0:0:0:
411,308,68784,5,10,0:0:0:0:
155,139,68955,1,2,1:0:0:0:
486,190,69126,38,0,P|423:171|365:193,1,111.019995426117,6|0,1:0|0:0,0:0:0:0:
133,231,69469,5,10,0:0:0:0:
382,96,69641,1,2,1:0:0:0:
64,119,69812,37,8,0:0:0:0:
313,254,69984,1,2,1:0:0:0:
62,307,70155,5,10,0:0:0:0:
311,172,70327,1,0,1:0:0:0:
170,21,70498,37,10,0:0:0:0:
229,309,70669,1,2,1:0:0:0:
459,95,70841,5,10,0:0:0:0:
116,83,71012,1,2,1:0:0:0:
312,338,71184,37,8,0:0:0:0:
392,41,71355,1,0,1:0:0:0:
64,149,71526,6,0,P|43:222|57:273,1,111.019995426117,8|0,0:0|0:0,0:0:0:0:
338,232,71869,37,10,0:0:0:0:
187,176,72041,1,2,1:0:0:0:
381,160,72212,5,10,0:0:0:0:
145,246,72384,1,2,1:0:0:0:
421,257,72555,37,10,0:0:0:0:
102,141,72727,1,2,1:0:0:0:
455,121,72898,6,0,P|473:67|461:6,1,111.019995426117,10|2,0:0|1:0,0:0:0:0:
322,295,73241,37,10,0:0:0:0:
375,57,73412,1,0,1:0:0:0:
509,278,73584,5,10,0:0:0:0:
254,245,73755,1,2,1:0:0:0:
455,121,73926,37,8,0:0:0:0:
455,121,74012,1,8,0:0:0:0:
455,121,74098,1,8,3:0:0:0:
184,291,74269,1,8,0:0:0:0:
424,208,74441,1,8,0:0:0:0:
424,208,74526,1,8,0:0:0:0:
424,208,74612,6,0,B|316:187|356:258|237:236,1,185.640001133057,6|10,1:0|0:0,0:0:0:0:
130,82,75126,2,0,P|208:74|276:180,1,185.640001133057,2|2,1:0|1:0,0:0:0:0:
154,268,75641,2,0,P|154:204|192:167,1,92.8200005665283,10|0,0:0|0:0,0:0:0:0:
239,330,75984,37,2,1:0:0:0:
114,355,76155,1,0,1:0:0:0:
334,346,76326,5,10,0:0:0:0:
154,268,76498,1,2,1:0:0:0:
297,206,76669,37,2,3:2:0:0:
114,355,76841,1,0,1:0:0:0:
385,255,77012,5,10,0:0:0:0:
190,149,77184,1,2,0:0:0:0:
429,332,77355,38,0,P|468:284|412:172,1,185.640001133057,6|10,1:0|0:0,0:0:0:0:
259,77,77869,2,0,L|465:36,1,185.640001133057,2|2,1:0|1:0,0:0:0:0:
273,183,78384,2,0,B|235:155|235:155|165:145,1,92.8200005665283,10|0,0:0|0:0,0:0:0:0:
123,305,78726,5,2,1:0:0:0:
77,150,78898,2,0,P|89:81|119:47,1,92.8200005665283,2|10,1:0|0:0,0:0:0:0:
203,247,79241,2,0,P|224:287|227:333,1,92.8200005665283,2|2,1:0|3:2,0:0:0:0:
357,234,79584,2,0,P|359:188|381:147,1,92.8200005665283,2|10,1:0|0:0,0:0:0:0:
456,266,79926,1,2,0:0:0:0:
189,148,80098,37,14,0:0:0:0:
189,148,80441,5,10,0:0:0:0:
307,334,80612,1,2,1:0:0:0:
286,92,80784,37,8,0:0:0:0:
168,278,80955,1,2,1:0:0:0:
173,30,81126,5,10,0:0:0:0:
258,233,81297,1,0,1:0:0:0:
360,42,81469,37,10,0:0:0:0:
116,189,81641,1,2,1:0:0:0:
427,287,81812,5,10,0:0:0:0:
173,30,81984,1,2,1:0:0:0:
76,295,82155,37,10,0:0:0:0:
426,163,82326,1,0,1:0:0:0:
84,51,82498,5,10,0:0:0:0:
146,345,82669,1,2,1:0:0:0:
364,83,82841,37,10,0:0:0:0:
161,182,83012,1,0,1:0:0:0:
461,186,83184,5,10,0:0:0:0:
181,52,83355,1,2,1:0:0:0:
303,328,83526,37,8,0:0:0:0:
387,3,83698,1,8,0:0:0:0:
372,381,83869,5,8,0:0:0:0:
73,80,84041,1,8,0:0:0:0:
512,107,84212,37,8,0:0:0:0:
78,316,84384,1,8,0:0:0:0:
78,316,84469,1,8,0:0:0:0:
78,316,84555,1,8,0:0:0:0:
511,320,84726,1,8,0:0:0:0:
91,91,84898,5,8,3:0:0:0:
425,166,85069,1,8,3:0:0:0:
81,281,85241,1,8,3:0:0:0:
415,356,85412,1,8,3:0:0:0:
210,0,85584,37,6,1:0:0:0:
284,384,85755,1,6,1:0:0:0:
256,192,85841,12,0,90041,0:0:0:0:
