osu file format v14

[General]
AudioFilename: audio.mp3
AudioLeadIn: 0
PreviewTime: 63555
Countdown: 0
SampleSet: Soft
StackLeniency: 0.7
Mode: 0
LetterboxInBreaks: 0
WidescreenStoryboard: 0

[Editor]
DistanceSpacing: 1.5
BeatDivisor: 4
GridSize: 32
TimelineZoom: 2.2

[Metadata]
Title:Monochrome Butterfly
TitleUnicode:Monochrome Butterfly
Artist:Aitsuki Nakuru
ArtistUnicode:藍月なくる
Creator:Sotarks
Version:Shunao's Hard
Source:
Tags:トコロクラニスト よーすけ@KG akitoshi corinn -laura- lami intoon SnowNiNo_ Shunao ShogunMoon Nevo Armin a_r_m_i_n
BeatmapID:1623206
BeatmapSetID:770300

[Difficulty]
HPDrainRate:5
CircleSize:3.7
OverallDifficulty:6
ApproachRate:8
SliderMultiplier:1.4
SliderTickRate:1

[Events]
//Background and Video events
0,0,"butterfly.jpg",0,0
//Break Periods
//Storyboard Layer 0 (Background)
//Storyboard Layer 1 (Fail)
//Storyboard Layer 2 (Pass)
//Storyboard Layer 3 (Foreground)
//Storyboard Sound Samples

[TimingPoints]
-816,342.857142857143,4,2,22,22,1,0
1926,-100,4,2,22,52,0,0
14269,-111.111111111111,4,2,22,52,0,0
25241,-100,4,2,22,62,0,0
30726,-111.111111111111,4,2,22,52,0,0
41698,-125,4,2,22,52,0,0
52155,-125,4,2,22,42,0,0
52669,-83.3333333333333,4,2,22,62,0,1
62269,-100,4,2,22,62,0,0
63555,-100,4,2,22,5,0,0
63641,-83.3333333333333,4,2,22,72,0,1
74612,-100,4,2,22,62,0,0
80098,-83.3333333333333,4,2,22,82,0,1
85755,-100,4,2,22,82,0,0
90041,-100,4,2,22,5,0,0

[Colours]
Combo1 : 174,56,231
Combo2 : 116,173,101
Combo3 : 92,80,65
Combo4 : 255,185,253

[HitObjects]
138,230,1926,6,0,L|145:317,2,70,8|0|0,0:0|1:0|1:0,0:0:0:0:
81,157,2441,2,0,L|88:73,2,70,8|8|8,0:0|0:0|0:0,0:0:0:0:
138,230,2955,1,8,0:0:0:0:
309,167,3298,6,0,P|344:158|386:166,1,70,6|0,1:0|0:0,0:0:0:0:
442,225,3641,1,10,0:0:0:0:
442,225,3812,2,0,L|528:217,2,70,2|0|2,1:0|0:0|1:0,0:0:0:0:
386,297,4326,2,0,L|304:289,1,70,10|0,0:0|0:0,0:0:0:0:
304,199,4669,6,0,P|310:162|323:114,1,70,2|0,1:0|1:0,0:0:0:0:
394,81,5012,1,10,0:0:0:0:
394,81,5184,1,2,1:0:0:0:
456,15,5355,2,0,P|396:44|323:24,1,140,2|10,3:2|0:0,0:0:0:0:
239,3,5869,1,2,0:0:0:0:
149,22,6041,6,0,L|157:99,1,70,6|0,1:0|0:0,0:0:0:0:
104,166,6384,1,10,0:0:0:0:
104,166,6555,2,0,P|68:158|32:166,2,70,2|0|2,1:0|0:0|1:0,0:0:0:0:
67,249,7069,2,0,L|75:322,1,70,10|0,0:0|0:0,0:0:0:0:
150,370,7412,6,0,P|187:358|233:360,1,70,2|2,1:0|1:0,0:0:0:0:
284,295,7755,1,10,0:0:0:0:
284,295,7926,1,2,1:0:0:0:
352,355,8098,2,0,P|387:361|436:364,1,70,2|2,3:2|1:0,0:0:0:0:
482,295,8441,2,0,P|487:259|498:217,1,70,10|0,0:0|0:0,0:0:0:0:
410,162,8784,6,0,P|406:118|397:74,1,70,6|0,1:0|0:0,0:0:0:0:
332,33,9126,1,10,0:0:0:0:
332,33,9298,2,0,P|375:10|406:5,2,70,2|0|2,1:0|0:0|1:0,0:0:0:0:
268,98,9812,2,0,L|183:90,1,70,10|0,0:0|0:0,0:0:0:0:
139,161,10155,6,0,L|130:247,1,70,2|0,1:0|1:0,0:0:0:0:
69,297,10498,1,10,0:0:0:0:
69,297,10669,1,2,1:0:0:0:
135,362,10841,2,0,B|177:353|177:353|226:373|226:373|286:362,1,140,2|10,3:2|3:2,0:0:0:0:
352,327,11355,1,2,0:0:0:0:
323,240,11526,6,0,P|316:205|313:150,1,70,6|0,1:0|0:0,0:0:0:0:
361,93,11869,1,10,0:0:0:0:
361,93,12041,2,0,P|331:81|286:84,2,70,2|0|2,1:0|0:0|1:0,0:0:0:0:
424,158,12555,2,0,P|417:201|413:245,1,70,10|0,0:0|0:0,0:0:0:0:
323,240,12898,6,0,P|319:205|313:170,1,70,2|2,1:0|1:0,0:0:0:0:
224,147,13241,1,10,0:0:0:0:
224,147,13412,1,2,1:0:0:0:
152,203,13584,2,0,P|146:241|143:286,1,70,2|10,3:2|0:0,0:0:0:0:
66,320,13926,1,10,0:0:0:0:
12,246,14098,1,10,0:0:0:0:
12,246,14184,1,8,0:0:0:0:
12,246,14269,6,0,B|-3:202|-3:202|25:105,1,125.999996154785,6|8,1:0|0:0,0:0:0:0:
84,56,14784,2,0,B|147:32|141:91|224:62,1,125.999996154785,2|2,1:0|1:0,0:0:0:0:
297,46,15298,2,0,L|290:131,1,62.9999980773926,10|2,0:0|0:0,0:0:0:0:
383,132,15641,2,0,P|419:126|463:126,2,62.9999980773926,0|2|10,1:0|1:2|0:2,0:0:0:0:
352,221,16155,1,2,1:2:0:0:
352,221,16326,2,0,L|358:302,1,62.9999980773926,2|2,3:2|1:2,0:0:0:0:
361,378,16669,1,10,0:2:0:0:
174,348,17012,6,0,P|113:337|58:371,1,125.999996154785,6|8,1:0|0:0,0:0:0:0:
0,296,17526,2,0,B|-15:252|-15:252|8:161,1,125.999996154785,2|2,1:0|1:0,0:0:0:0:
95,145,18041,2,0,L|181:150,1,62.9999980773926,10|2,0:0|0:0,0:0:0:0:
237,97,18384,2,0,P|229:59|226:15,2,62.9999980773926,0|2|10,1:0|1:2|0:2,0:0:0:0:
312,154,18898,1,2,1:2:0:0:
312,154,19069,2,0,P|309:196|300:236,1,62.9999980773926,2|2,3:2|1:2,0:0:0:0:
225,267,19412,1,10,0:2:0:0:
384,368,19755,6,0,P|444:359|532:363,1,125.999996154785,6|8,1:0|0:0,0:0:0:0:
504,265,20269,2,0,L|513:131,1,125.999996154785,2|2,1:0|1:0,0:0:0:0:
419,116,20784,2,0,L|413:42,1,62.9999980773926,10|2,0:0|0:0,0:0:0:0:
326,18,21126,2,0,P|284:13|240:16,2,62.9999980773926,0|2|10,1:0|1:2|0:2,0:0:0:0:
328,118,21641,1,2,1:2:0:0:
328,118,21812,2,0,P|296:122|265:122,1,62.9999980773926,2|2,3:2|1:2,0:0:0:0:
191,62,22155,1,10,0:2:0:0:
20,153,22498,6,0,B|1:185|1:185|11:278,1,125.999996154785,6|10,1:0|0:0,0:0:0:0:
78,348,23012,1,2,1:0:0:0:
78,348,23184,2,0,L|140:342,1,62.9999980773926,2|2,0:0|1:0,0:0:0:0:
235,351,23526,1,8,0:0:0:0:
317,303,23698,2,0,B|337:240|285:248|318:162,1,125.999996154785,2|2,0:0|1:2,0:0:0:0:
224,143,24212,2,0,P|219:106|210:67,1,62.9999980773926,10|2,0:2|1:2,0:0:0:0:
290,25,24555,2,0,P|317:18|373:20,1,62.9999980773926,2|0,3:2|1:2,0:0:0:0:
445,34,24898,1,10,0:2:0:0:
479,132,25069,1,10,0:0:0:0:
479,132,25155,1,8,0:0:0:0:
479,132,25241,6,0,P|484:179|494:221,1,70,6|0,1:0|0:0,0:0:0:0:
435,275,25584,1,10,0:0:0:0:
435,275,25755,2,0,P|431:317|421:356,2,70,2|0|2,1:0|0:0|1:0,0:0:0:0:
343,267,26269,2,0,L|253:260,1,70,10|0,0:0|0:0,0:0:0:0:
190,222,26612,6,0,L|108:229,1,70,2|0,1:0|1:0,0:0:0:0:
49,169,26955,1,10,0:0:0:0:
49,169,27126,1,2,1:0:0:0:
65,79,27298,2,0,B|139:54|126:121|210:91,1,140,2|10,3:2|3:2,0:0:0:0:
264,31,27812,1,2,0:0:0:0:
347,67,27984,6,0,B|341:148,1,70,6|0,1:0|0:0,0:0:0:0:
342,227,28326,1,10,0:0:0:0:
342,227,28498,2,0,P|307:213|261:216,2,70,2|0|2,1:0|0:0|1:0,0:0:0:0:
420,273,29012,2,0,P|456:262|504:265,1,70,10|0,0:0|0:0,0:0:0:0:
510,174,29355,6,0,L|504:95,1,70,2|2,1:0|1:0,0:0:0:0:
451,29,29698,1,10,0:0:0:0:
451,29,29869,1,2,1:0:0:0:
366,64,30041,2,0,P|331:70|297:64,1,70,2|10,3:2|0:0,0:0:0:0:
209,36,30384,1,10,0:0:0:0:
119,51,30555,1,10,0:0:0:0:
58,146,30726,6,0,P|68:204|73:290,1,125.999996154785,6|8,1:0|0:0,0:0:0:0:
119,353,31241,2,0,P|174:328|241:342,1,125.999996154785,2|2,1:0|1:0,0:0:0:0:
329,360,31755,2,0,L|400:353,1,62.9999980773926,10|2,0:0|0:0,0:0:0:0:
486,344,32098,2,0,P|492:311|495:267,2,62.9999980773926,0|2|10,1:0|1:2|0:2,0:0:0:0:
414,281,32612,1,2,1:2:0:0:
414,281,32784,2,0,P|408:248|405:204,1,62.9999980773926,2|2,3:2|1:2,0:0:0:0:
490,177,33126,1,10,0:2:0:0:
363,36,33469,6,0,P|325:24|285:20,1,62.9999980773926,6|0,1:0|0:0,0:0:0:0:
236,88,33812,1,8,0:0:0:0:
236,88,33983,2,0,B|227:232,1,125.999996154785,2|2,1:0|1:0,0:0:0:0:
136,239,34498,2,0,L|131:160,1,62.9999980773926,10|2,0:0|0:0,0:0:0:0:
82,96,34841,2,0,L|88:20,2,62.9999980773926,0|2|10,1:0|1:2|0:2,0:0:0:0:
3,148,35355,1,2,1:2:0:0:
3,148,35526,2,0,L|9:230,1,62.9999980773926,2|2,3:2|1:2,0:0:0:0:
0,305,35869,1,10,0:2:0:0:
179,363,36212,6,0,P|238:375|307:333,1,125.999996154785,6|8,1:0|0:0,0:0:0:0:
320,255,36726,2,0,L|329:121,1,125.999996154785,2|2,1:0|1:0,0:0:0:0:
286,43,37241,2,0,P|321:34|365:42,1,62.9999980773926,10|2,0:0|0:0,0:0:0:0:
441,44,37584,2,0,P|477:52|518:40,2,62.9999980773926,0|2|10,1:0|1:2|0:2,0:0:0:0:
418,136,38098,2,0,L|427:278,1,125.999996154785,2|2,1:2|1:2,0:0:0:0:
506,312,38612,1,10,0:2:0:0:
327,374,38955,6,0,P|267:368|189:367,1,125.999996154785,6|10,1:0|0:0,0:0:0:0:
106,362,39469,1,2,1:0:0:0:
106,362,39641,2,0,L|99:280,1,62.9999980773926,2|2,0:0|1:0,0:0:0:0:
23,245,39983,1,8,0:0:0:0:
47,153,40155,2,0,P|98:122|180:154,1,125.999996154785,2|2,0:0|1:2,0:0:0:0:
233,195,40669,2,0,L|319:187,1,62.9999980773926,10|2,0:2|1:2,0:0:0:0:
388,208,41012,1,2,3:2:0:0:
455,140,41184,1,8,0:0:0:0:
461,126,41269,1,8,0:0:0:0:
467,111,41355,2,0,L|463:65,3,31.4999990386963,8|8|8|8,0:0|0:0|0:0|0:0,0:0:0:0:
455,38,41698,6,0,P|403:53|347:31,1,112,6|8,1:0|0:0,0:0:0:0:
262,12,42212,1,0,1:0:0:0:
175,35,42384,2,0,B|145:57|145:57|153:137,1,112,2|8,0:0|0:0,0:0:0:0:
230,176,42898,2,0,L|220:287,1,112,2|0,0:0|1:0,0:0:0:0:
148,341,43412,1,8,0:0:0:0:
68,298,43584,2,0,L|62:229,1,56,2|2,1:0|0:0,0:0:0:0:
22,162,43926,2,0,L|29:92,2,56,2|10|2,1:0|0:0|0:0,0:0:0:0:
63,242,44441,6,0,B|126:218|115:274|188:248,1,112,2|10,1:0|0:0,0:0:0:0:
256,226,44955,2,0,P|251:170|284:124,1,112,2|2,1:0|1:0,0:0:0:0:
344,61,45469,1,8,0:0:0:0:
402,129,45641,2,0,P|432:174|427:229,1,112,2|0,0:0|1:0,0:0:0:0:
344,262,46155,2,0,P|339:302|336:336,1,56,8|0,0:0|1:0,0:0:0:0:
260,363,46498,2,0,P|257:325|252:289,1,56,0|0,0:0|1:0,0:0:0:0:
176,262,46841,1,8,0:0:0:0:
176,262,47012,1,0,0:0:0:0:
112,183,47184,6,0,P|163:202|216:187,1,112,6|8,1:0|0:0,0:0:0:0:
167,105,47698,1,0,1:0:0:0:
113,33,47869,2,0,L|45:38,2,56,2|0|8,0:0|1:0|0:0,0:0:0:0:
167,105,48384,2,0,L|300:96,1,112,2|0,0:0|1:0,0:0:0:0:
365,57,48898,1,8,0:0:0:0:
425,131,49070,2,0,P|422:157|419:203,1,56,2|2,1:0|0:0,0:0:0:0:
341,240,49412,2,0,P|345:269|348:303,2,56,2|10|2,1:0|0:0|0:0,0:0:0:0:
258,191,49926,6,0,P|206:173|141:212,1,112,2|10,1:0|0:0,0:0:0:0:
74,244,50441,2,0,L|83:361,1,112,2|2,1:0|1:0,0:0:0:0:
176,370,50955,1,8,0:0:0:0:
270,370,51126,2,0,P|325:367|393:354,1,112,2|2,0:0|1:0,0:0:0:0:
471,325,51641,1,8,0:0:0:0:
502,235,51812,1,4,1:0:0:0:
378,90,52155,6,0,L|384:23,2,56,2|2|2,0:0|0:0|0:0,0:0:0:0:
270,139,52669,6,0,L|277:232,1,83.9999974365235,6|0,1:0|0:0,0:0:0:0:
339,301,53012,1,10,0:0:0:0:
252,353,53184,2,0,B|172:382|180:310|80:348,1,167.999994873047,2|2,1:0|1:0,0:0:0:0:
16,275,53698,1,8,0:0:0:0:
16,275,53869,1,2,0:0:0:0:
77,194,54041,6,0,P|72:152|64:97,1,83.9999974365235,2|2,1:0|1:0,0:0:0:0:
14,12,54384,1,10,0:0:0:0:
111,34,54555,2,0,B|189:53|189:53|279:33,1,167.999994873047,2|0,1:0|1:0,0:0:0:0:
375,23,55069,1,8,0:0:0:0:
375,23,55241,1,0,0:0:0:0:
447,92,55412,6,0,L|437:195,1,83.9999974365235,2|2,1:0|0:0,0:0:0:0:
354,230,55755,2,0,L|345:135,1,83.9999974365235,10|2,0:0|1:0,0:0:0:0:
246,130,56098,2,0,P|204:120|159:133,2,83.9999974365235,2|2|10,3:0|1:0|0:0,0:0:0:0:
205,222,56612,1,2,0:0:0:0:
152,308,56784,6,0,L|54:297,1,83.9999974365235,2|2,1:0|1:0,0:0:0:0:
12,215,57126,1,10,0:0:0:0:
15,113,57298,2,0,P|47:55|145:47,1,167.999994873047,2|2,1:0|1:0,0:0:0:0:
231,89,57812,1,10,0:0:0:0:
324,50,57984,1,2,0:0:0:0:
428,105,58155,6,0,L|422:208,1,83.9999974365235,6|0,1:0|0:0,0:0:0:0:
480,271,58497,1,10,0:0:0:0:
424,356,58670,2,0,P|346:342|244:336,1,167.999994873047,2|2,1:0|1:0,0:0:0:0:
158,354,59184,1,8,0:0:0:0:
158,354,59355,1,2,0:0:0:0:
83,285,59527,6,0,L|90:192,1,83.9999974365235,2|2,1:0|1:0,0:0:0:0:
141,114,59870,1,10,0:0:0:0:
141,114,60041,2,0,B|199:105|199:105|245:122|245:122|321:112,1,167.999994873047,2|0,1:0|1:0,0:0:0:0:
350,24,60555,1,8,0:0:0:0:
350,24,60727,1,0,0:0:0:0:
249,21,60898,6,0,L|159:12,1,83.9999974365235,2|2,1:0|0:0,0:0:0:0:
64,23,61241,2,0,P|58:58|54:118,1,83.9999974365235,10|2,0:0|1:0,0:0:0:0:
6,195,61584,2,0,P|13:240|16:287,2,83.9999974365235,2|2|10,3:0|1:0|0:0,0:0:0:0:
54,106,62098,1,2,0:0:0:0:
153,91,62269,5,6,1:0:0:0:
212,173,62441,1,4,1:0:0:0:
160,259,63298,1,12,0:0:0:0:
337,354,63641,6,0,L|441:345,1,83.9999974365235,6|2,1:0|0:0,0:0:0:0:
381,253,63984,2,0,L|471:260,1,83.9999974365235,10|2,0:0|1:0,0:0:0:0:
509,169,64326,1,8,0:0:0:0:
475,73,64498,1,2,1:0:0:0:
376,51,64669,2,0,P|367:94|363:156,1,83.9999974365235,10|0,0:0|1:0,0:0:0:0:
266,102,65012,6,0,P|262:59|251:6,2,83.9999974365235,10|2|10,0:0|1:0|0:0,0:0:0:0:
213,188,65526,2,0,B|120:152|134:226|43:193,1,167.999994873047,2|0,1:0|1:0,0:0:0:0:
3,285,66041,1,8,0:0:0:0:
52,372,66212,1,0,0:0:0:0:
153,375,66384,6,0,L|252:366,1,83.9999974365235,10|2,0:0|1:0,0:0:0:0:
307,296,66726,2,0,P|304:253|294:201,1,83.9999974365235,10|2,0:0|1:0,0:0:0:0:
221,145,67069,1,10,0:0:0:0:
221,43,67241,1,2,1:0:0:0:
317,15,67412,2,0,P|361:14|406:48,1,83.9999974365235,10|2,0:0|1:0,0:0:0:0:
464,107,67755,6,0,L|456:199,2,83.9999974365235,10|2|10,0:0|1:0|0:0,0:0:0:0:
365,130,68269,2,0,L|373:233,1,83.9999974365235,2|8,1:0|0:0,0:0:0:0:
403,309,68612,1,2,1:0:0:0:
317,363,68784,1,10,0:0:0:0:
217,349,68955,1,2,1:0:0:0:
154,270,69126,6,0,P|109:257|59:264,1,83.9999974365235,6|0,1:0|0:0,0:0:0:0:
20,173,69469,2,0,P|65:160|115:167,1,83.9999974365235,10|2,0:0|1:0,0:0:0:0:
201,177,69812,1,8,0:0:0:0:
287,124,69984,1,2,1:0:0:0:
257,27,70155,2,0,P|212:14|162:21,1,83.9999974365235,10|0,0:0|1:0,0:0:0:0:
84,59,70498,6,0,L|-3:51,2,83.9999974365235,10|2|10,0:0|1:0|0:0,0:0:0:0:
175,102,71012,2,0,B|202:144|202:144|196:263,1,167.999994873047,2|0,1:0|1:0,0:0:0:0:
233,356,71526,1,8,0:0:0:0:
333,353,71698,1,0,0:0:0:0:
409,287,71869,6,0,L|401:187,1,83.9999974365235,10|2,0:0|1:0,0:0:0:0:
312,158,72212,2,0,L|319:59,1,83.9999974365235,10|2,0:0|1:0,0:0:0:0:
400,14,72555,1,10,0:0:0:0:
492,52,72726,1,2,1:0:0:0:
490,152,72898,2,0,L|497:247,1,83.9999974365235,10|2,0:0|1:0,0:0:0:0:
409,287,73241,6,0,L|417:384,2,83.9999974365235,10|0|10,0:0|1:0|0:0,0:0:0:0:
319,239,73755,1,2,1:0:0:0:
231,288,73926,1,8,0:0:0:0:
231,288,74012,1,8,0:0:0:0:
231,288,74098,2,0,P|188:282|129:285,1,83.9999974365235,8|8,3:0|0:0,0:0:0:0:
51,314,74441,1,8,0:0:0:0:
51,314,74526,1,8,0:0:0:0:
51,314,74612,6,0,B|23:242|83:248|54:162,1,140,6|10,1:0|0:0,0:0:0:0:
108,101,75126,2,0,P|99:63|96:15,2,70,2|0|2,1:0|0:0|1:0,0:0:0:0:
199,96,75641,2,0,L|283:89,1,70,10|0,0:0|0:0,0:0:0:0:
352,54,75984,6,0,L|432:61,1,70,2|0,1:0|1:0,0:0:0:0:
503,112,76326,1,10,0:0:0:0:
503,112,76498,1,2,1:0:0:0:
460,192,76669,2,0,P|451:251|443:343,1,140,2|10,3:2|0:0,0:0:0:0:
357,363,77184,1,2,0:0:0:0:
278,317,77355,6,0,P|243:305|196:305,1,70,6|0,1:0|0:0,0:0:0:0:
132,255,77698,1,8,0:0:0:0:
132,255,77869,2,0,P|95:265|57:252,2,70,2|2|0,1:0|1:0|0:0,0:0:0:0:
183,179,78383,2,0,P|218:171|261:181,1,70,10|0,0:0|0:0,0:0:0:0:
327,227,78726,6,0,P|362:235|405:225,1,70,2|2,1:0|1:0,0:0:0:0:
459,165,79069,1,10,0:0:0:0:
459,165,79240,1,2,1:0:0:0:
417,83,79412,2,0,L|409:8,1,70,2|2,3:2|1:0,0:0:0:0:
318,13,79755,2,0,L|310:91,1,70,10|2,0:0|0:0,0:0:0:0:
201,93,80098,6,0,L|191:-1,2,83.9999974365235,14|0|10,0:0|0:0|0:0,0:0:0:0:
266,170,80612,2,0,L|256:265,1,83.9999974365235,2|8,1:0|0:0,0:0:0:0:
240,353,80955,2,0,P|196:343|140:352,1,83.9999974365235,2|10,1:0|0:0,0:0:0:0:
59,372,81298,1,0,1:0:0:0:
9,284,81469,6,0,L|0:185,2,83.9999974365235,10|2|10,0:0|1:0|0:0,0:0:0:0:
99,237,81984,1,2,1:0:0:0:
99,237,82155,2,0,L|111:58,1,167.999994873047,10|10,0:0|0:0,0:0:0:0:
199,22,82669,1,2,1:0:0:0:
282,78,82841,6,0,P|324:83|368:69,2,83.9999974365235,10|0|10,0:0|1:0|0:0,0:0:0:0:
199,22,83355,1,2,1:0:0:0:
110,69,83526,2,0,L|116:161,1,83.9999974365235,8|8,0:0|0:0,0:0:0:0:
184,226,83869,1,8,0:0:0:0:
276,186,84041,1,8,0:0:0:0:
368,226,84212,5,8,0:0:0:0:
463,191,84384,1,8,0:0:0:0:
463,191,84469,1,8,0:0:0:0:
463,191,84555,2,0,L|456:299,1,83.9999974365235,8|8,0:0|0:0,0:0:0:0:
388,348,84898,1,8,3:0:0:0:
288,361,85069,1,8,3:0:0:0:
195,319,85241,2,0,P|188:278|185:232,1,83.9999974365235,4|4,3:0|3:0,0:0:0:0:
171,135,85584,5,6,1:0:0:0:
241,63,85755,1,6,1:0:0:0:
256,192,85841,12,0,90041,0:0:0:0:
