osu file format v14

[General]
AudioFilename: audio.mp3
AudioLeadIn: 0
PreviewTime: 63555
Countdown: 0
SampleSet: Soft
StackLeniency: 0.7
Mode: 0
LetterboxInBreaks: 0
WidescreenStoryboard: 1

[Editor]
DistanceSpacing: 0.4
BeatDivisor: 4
GridSize: 32
TimelineZoom: 2.2

[Metadata]
Title:Monochrome Butterfly
TitleUnicode:Monochrome Butterfly
Artist:Aitsuki Nakuru
ArtistUnicode:藍月なくる
Creator:Sotarks
Version:Nevo's Extra
Source:
Tags:トコロクラニスト よーすけ@KG akitoshi corinn -laura- lami intoon SnowNiNo_ Shunao ShogunMoon Nevo Armin a_r_m_i_n
BeatmapID:1623093
BeatmapSetID:770300

[Difficulty]
HPDrainRate:5
CircleSize:4
OverallDifficulty:9
ApproachRate:9.2
SliderMultiplier:1.7
SliderTickRate:1

[Events]
//Background and Video events
0,0,"butterfly.jpg",0,0
//Break Periods
//Storyboard Layer 0 (Background)
//Storyboard Layer 1 (Fail)
//Storyboard Layer 2 (Pass)
//Storyboard Layer 3 (Foreground)
//Storyboard Sound Samples

[TimingPoints]
-816,342.857142857143,4,2,22,22,1,0
555,-200,4,2,22,22,0,0
1926,-200,4,2,22,52,0,0
3298,-83.3333333333333,4,2,22,62,0,0
14269,-100,4,2,22,52,0,0
17269,-100,4,2,22,5,0,0
17355,-100,4,2,22,52,0,0
20012,-100,4,2,22,5,0,0
20098,-100,4,2,22,52,0,0
22755,-100,4,2,22,5,0,0
22841,-100,4,2,22,52,0,0
25241,-83.3333333333333,4,2,22,62,0,0
30726,-83.3333333333333,4,2,22,52,0,0
41698,-100,4,2,22,52,0,0
52155,-100,4,2,22,42,0,0
52669,-76.9230769230769,4,2,22,62,0,0
58155,-71.4285714285714,4,2,22,62,0,0
63298,-200,4,2,22,62,0,0
63555,-200,4,2,22,5,0,0
63641,-62.5,4,2,22,72,0,1
74612,-71.4285714285714,4,2,22,62,0,0
80098,-71.4285714285714,4,2,22,82,0,1
85755,-71.4285714285714,4,2,22,82,0,0
89355,-71.4285714285714,4,2,22,82,0,0
90041,-71.4285714285714,4,2,22,5,0,0

[Colours]
Combo1 : 174,56,231
Combo2 : 116,173,101
Combo3 : 92,80,65
Combo4 : 255,185,253

[HitObjects]
177,179,555,6,0,B|132:205|130:246|130:246|167:273|211:254|211:254|246:214|284:232|284:232|307:270|272:305,1,318.75,2|0,0:0|0:0,0:0:0:0:
218,337,1926,5,8,0:0:0:0:
254,144,2098,1,0,1:0:0:0:
327,360,2269,5,0,1:0:0:0:
255,127,2441,1,8,0:0:0:0:
61,286,2612,5,8,0:0:0:0:
364,224,2784,1,8,0:0:0:0:
75,102,2955,2,0,L|88:183,1,63.75,8|0,0:0|0:0,0:0:0:0:
98,215,3298,6,0,L|115:110,1,101.999996887207,6|0,1:0|0:0,0:0:0:0:
343,74,3641,1,10,0:0:0:0:
283,233,3812,2,0,L|152:212,1,101.999996887207,2|0,1:0|0:0,0:0:0:0:
61,286,4155,1,2,1:0:0:0:
186,36,4326,2,0,L|202:139,1,101.999996887207,10|0,0:0|0:0,0:0:0:0:
249,358,4669,5,2,1:0:0:0:
277,145,4841,1,0,1:0:0:0:
382,294,5012,1,10,0:0:0:0:
176,239,5184,1,2,1:0:0:0:
300,52,5355,1,2,3:2:0:0:
288,248,5526,1,0,1:0:0:0:
161,139,5698,1,10,0:0:0:0:
368,145,5869,1,2,0:0:0:0:
197,350,6041,6,0,L|189:248,1,101.999996887207,6|0,1:0|0:0,0:0:0:0:
171,32,6384,1,10,0:0:0:0:
67,171,6555,2,0,P|124:163|171:127,1,101.999996887207,2|0,1:0|0:0,0:0:0:0:
281,34,6898,1,2,1:0:0:0:
337,212,7069,2,0,P|280:204|233:168,1,101.999996887207,10|0,0:0|0:0,0:0:0:0:
88,53,7412,5,2,1:0:0:0:
295,23,7584,1,2,1:0:0:0:
140,229,7755,1,10,0:0:0:0:
184,53,7926,1,2,1:0:0:0:
222,307,8098,5,2,3:2:0:0:
118,136,8269,1,2,1:0:0:0:
101,355,8441,1,10,0:0:0:0:
398,66,8784,6,0,L|393:178,1,101.999996887207,6|0,1:0|0:0,0:0:0:0:
178,295,9126,1,10,0:0:0:0:
207,126,9298,2,0,L|319:121,1,101.999996887207,2|0,1:0|0:0,0:0:0:0:
488,113,9641,1,2,1:0:0:0:
300,307,9812,2,0,L|295:195,1,101.999996887207,10|0,0:0|0:0,0:0:0:0:
289,7,10155,5,2,1:0:0:0:
143,190,10326,1,0,1:0:0:0:
308,121,10498,1,10,0:0:0:0:
77,112,10669,1,2,1:0:0:0:
325,127,10841,1,2,3:2:0:0:
124,223,11012,1,2,1:0:0:0:
234,69,11184,1,10,3:2:0:0:
231,203,11355,1,2,0:0:0:0:
67,11,11526,6,0,L|79:129,1,101.999996887207,6|0,1:0|0:0,0:0:0:0:
117,315,11869,1,10,0:0:0:0:
231,203,12041,2,0,P|173:181|121:182,1,101.999996887207,2|0,1:0|0:0,0:0:0:0:
11,287,12384,1,2,1:0:0:0:
263,324,12555,2,0,L|381:312,1,101.999996887207,10|0,0:0|0:0,0:0:0:0:
233,92,12898,5,2,1:0:0:0:
145,270,13069,1,2,1:0:0:0:
99,52,13241,1,10,0:0:0:0:
240,215,13412,1,2,1:0:0:0:
202,19,13584,1,2,3:2:0:0:
74,169,13755,5,10,0:0:0:0:
367,113,13926,1,10,0:0:0:0:
59,183,14098,2,0,L|2:175,1,50.9999984436036,10|8,0:0|0:0,0:0:0:0:
202,19,14269,6,0,B|223:66|223:66|208:170,1,127.5,6|0,1:0|0:0,0:0:0:0:
200,224,14612,1,8,0:0:0:0:
200,224,14784,2,0,L|310:216,1,85,2|0,1:0|0:0,0:0:0:0:
453,239,15126,1,2,1:0:0:0:
327,294,15298,1,10,0:0:0:0:
362,190,15469,1,2,0:0:0:0:
474,328,15641,5,0,1:0:0:0:
428,140,15812,1,2,1:2:0:0:
284,217,15984,1,10,0:2:0:0:
453,239,16155,1,2,1:2:0:0:
333,110,16326,1,2,3:2:0:0:
362,190,16498,1,2,1:2:0:0:
415,34,16669,1,10,0:2:0:0:
93,169,17012,6,0,B|148:164|148:164|168:148|168:148|224:144,1,127.5,6|0,1:0|0:0,0:0:0:0:
284,217,17355,1,8,0:0:0:0:
284,217,17526,2,0,L|191:223,1,85,2|0,1:0|0:0,0:0:0:0:
243,64,17869,1,2,1:0:0:0:
319,141,18041,1,10,0:0:0:0:
161,118,18212,1,2,0:0:0:0:
342,56,18384,5,0,1:0:0:0:
236,212,18555,1,2,1:2:0:0:
243,64,18726,1,10,0:2:0:0:
381,206,18898,1,2,1:2:0:0:
232,50,19069,1,2,3:2:0:0:
311,259,19241,1,2,1:2:0:0:
342,56,19412,1,10,0:2:0:0:
95,349,19755,6,0,P|85:301|100:218,1,127.5,6|0,1:0|0:0,0:0:0:0:
153,158,20098,1,8,0:0:0:0:
31,169,20269,2,0,P|12:211|6:261,1,85,2|0,1:0|0:0,0:0:0:0:
187,317,20612,1,2,1:0:0:0:
97,224,20784,1,10,0:0:0:0:
13,345,20955,1,2,0:0:0:0:
217,227,21126,5,0,1:0:0:0:
76,236,21298,1,2,1:2:0:0:
231,144,21469,1,10,0:2:0:0:
187,317,21641,1,2,1:2:0:0:
137,142,21812,1,2,3:2:0:0:
217,227,21984,1,2,1:2:0:0:
215,60,22155,1,10,0:2:0:0:
338,214,22498,6,0,B|297:236|297:236|207:225,1,127.5,6|0,1:0|0:0,0:0:0:0:
195,143,22841,2,0,L|296:155,1,85,10|2,0:0|1:0,0:0:0:0:
455,189,23184,1,2,0:0:0:0:
391,104,23355,1,2,1:0:0:0:
348,298,23526,2,0,L|336:197,1,85,8|2,0:0|0:0,0:0:0:0:
205,58,23869,6,0,L|193:159,1,85,0|2,1:0|1:2,0:0:0:0:
167,327,24212,1,10,0:2:0:0:
119,184,24384,1,2,1:2:0:0:
66,350,24555,1,2,3:2:0:0:
224,240,24726,1,0,1:2:0:0:
0,262,24898,1,10,0:2:0:0:
239,247,25069,2,0,L|316:237,1,42.5,10|8,0:0|0:0,0:0:0:0:
119,86,25241,6,0,P|106:136|125:194,1,101.999996887207,6|0,1:0|0:0,0:0:0:0:
312,198,25584,1,10,0:0:0:0:
237,5,25755,2,0,L|222:105,1,101.999996887207,2|0,1:0|0:0,0:0:0:0:
174,317,26098,1,2,1:0:0:0:
118,183,26269,1,10,0:0:0:0:
218,224,26441,1,0,0:0:0:0:
24,286,26612,5,2,1:0:0:0:
237,219,26784,1,0,1:0:0:0:
21,177,26955,1,10,0:0:0:0:
162,342,27126,1,2,1:0:0:0:
125,102,27298,1,2,3:2:0:0:
105,265,27469,1,2,1:0:0:0:
229,68,27641,1,10,3:2:0:0:
118,183,27812,1,2,0:0:0:0:
350,139,27984,5,6,1:0:0:0:
244,160,28155,1,0,0:0:0:0:
329,58,28326,1,10,0:0:0:0:
451,142,28498,2,0,L|323:137,1,101.999996887207,2|0,1:0|0:0,0:0:0:0:
125,102,28841,1,2,1:0:0:0:
230,258,29012,2,0,P|247:192|239:144,1,101.999996887207,10|0,0:0|0:0,0:0:0:0:
90,23,29355,5,2,1:0:0:0:
255,42,29526,1,2,1:0:0:0:
70,19,29698,1,10,0:0:0:0:
259,140,29869,1,2,1:0:0:0:
176,1,30041,1,2,3:2:0:0:
196,204,30212,1,10,0:0:0:0:
346,112,30384,1,10,0:0:0:0:
100,109,30555,1,10,0:0:0:0:
190,305,30726,6,0,L|197:181,1,101.999996887207,6|0,1:0|0:0,0:0:0:0:
375,265,31069,1,8,0:0:0:0:
375,265,31241,2,0,P|325:286|269:275,1,101.999996887207,2|0,1:0|0:0,0:0:0:0:
113,197,31584,1,2,1:0:0:0:
249,105,31755,2,0,P|292:137|310:191,1,101.999996887207,10|2,0:0|0:0,0:0:0:0:
224,335,32098,5,0,1:0:0:0:
221,193,32269,1,2,1:2:0:0:
214,355,32441,1,10,0:2:0:0:
98,236,32612,1,2,1:2:0:0:
334,251,32784,1,2,3:2:0:0:
109,336,32955,1,2,1:2:0:0:
364,360,33126,1,10,0:2:0:0:
210,91,33469,6,0,L|221:200,1,101.999996887207,6|0,1:0|0:0,0:0:0:0:
285,56,33812,1,8,0:0:0:0:
134,138,33984,2,0,L|145:247,1,101.999996887207,2|0,1:0|0:0,0:0:0:0:
210,91,34326,1,2,1:0:0:0:
57,172,34498,1,10,0:0:0:0:
220,192,34669,1,2,0:0:0:0:
111,55,34841,5,0,1:0:0:0:
85,272,35012,1,2,1:2:0:0:
107,37,35184,1,10,0:2:0:0:
296,137,35355,1,2,1:2:0:0:
17,90,35526,1,2,3:2:0:0:
230,29,35698,1,2,1:2:0:0:
0,185,35869,1,10,0:2:0:0:
281,313,36212,6,0,P|332:319|395:289,1,101.999996887207,6|0,1:0|0:0,0:0:0:0:
296,137,36555,1,8,0:0:0:0:
296,137,36726,2,0,L|318:236,1,101.999996887207,2|0,1:0|0:0,0:0:0:0:
350,384,37069,1,2,1:0:0:0:
217,323,37241,1,10,0:0:0:0:
421,312,37412,1,2,0:0:0:0:
202,335,37584,5,0,1:0:0:0:
348,231,37755,1,2,1:2:0:0:
174,206,37926,1,10,0:2:0:0:
403,168,38098,2,0,B|432:211|432:211|417:337,1,152.999995330811,2|0,1:2|0:0,0:0:0:0:
360,384,38441,1,2,1:2:0:0:
498,300,38612,2,0,L|512:199,1,101.999996887207,10|0,0:2|0:0,0:0:0:0:
322,66,38955,6,0,P|384:86|427:73,1,101.999996887207,6|0,1:0|0:0,0:0:0:0:
239,70,39298,2,0,P|268:127|308:149,1,101.999996887207,10|2,0:0|1:0,0:0:0:0:
177,14,39641,1,2,0:0:0:0:
131,100,39812,1,2,1:0:0:0:
30,17,39984,2,0,L|43:131,1,101.999996887207,8|2,0:0|0:0,0:0:0:0:
62,305,40326,5,0,1:0:0:0:
223,222,40498,1,2,1:2:0:0:
47,317,40669,1,10,0:2:0:0:
107,178,40841,1,2,1:2:0:0:
190,324,41012,1,2,3:2:0:0:
311,184,41184,5,8,0:0:0:0:
294,154,41269,1,8,0:0:0:0:
268,132,41355,1,8,0:0:0:0:
235,122,41441,1,8,0:0:0:0:
202,124,41526,2,0,L|210:193,1,50.9999984436036,8|8,0:0|0:0,0:0:0:0:
208,285,41698,6,0,P|161:243|47:284,1,170,6|8,1:0|0:0,0:0:0:0:
128,319,42212,1,0,1:0:0:0:
150,161,42384,2,0,L|160:66,1,85,2|0,0:0|1:0,0:0:0:0:
228,38,42726,1,8,0:0:0:0:
399,107,42898,6,0,B|349:133|349:133|212:116,1,170,2|0,0:0|1:0,0:0:0:0:
158,76,43412,2,0,L|56:79,1,85,8|2,0:0|1:0,0:0:0:0:
26,185,43755,1,2,0:0:0:0:
105,157,43926,1,2,1:0:0:0:
32,17,44098,2,0,P|1:57|5:108,1,85,10|2,0:0|0:0,0:0:0:0:
169,210,44441,6,0,L|271:213,1,85,2|0,1:0|0:0,0:0:0:0:
334,223,44784,1,10,0:0:0:0:
200,288,44955,2,0,L|285:291,1,85,2|0,1:0|0:0,0:0:0:0:
418,225,45298,2,0,L|333:222,1,85,2|8,1:0|0:0,0:0:0:0:
463,297,45641,2,0,P|495:255|433:143,1,170,2|0,0:0|1:0,0:0:0:0:
418,225,46155,1,8,0:0:0:0:
389,72,46326,2,0,L|372:170,1,85,0|0,1:0|0:0,0:0:0:0:
336,10,46669,1,0,1:0:0:0:
293,169,46841,2,0,L|308:86,1,85,8|0,0:0|0:0,0:0:0:0:
80,134,47184,6,0,P|115:84|222:92,1,170,6|8,1:0|0:0,0:0:0:0:
162,152,47698,1,0,1:0:0:0:
59,214,47869,2,0,P|21:191|32:66,1,170,2|8,0:0|2:0,0:0:0:0:
245,129,48384,6,0,B|170:124|170:124|144:139|144:139|70:133,1,170,2|0,0:0|1:0,0:0:0:0:
195,47,48898,2,0,L|296:53,1,85,8|2,0:0|1:0,0:0:0:0:
323,160,49241,1,2,0:0:0:0:
245,129,49412,1,2,1:0:0:0:
341,3,49584,2,0,P|357:31|352:83,1,85,10|2,0:0|0:0,0:0:0:0:
423,222,49926,6,0,P|407:194|412:142,1,85,2|0,1:0|0:0,0:0:0:0:
487,276,50269,1,10,0:0:0:0:
410,304,50441,2,0,L|325:298,1,85,2|0,1:0|0:0,0:0:0:0:
198,378,50784,2,0,L|282:372,1,85,2|8,1:0|0:0,0:0:0:0:
476,359,51126,5,2,0:0:0:0:
365,131,51469,1,2,1:0:0:0:
224,342,51812,1,4,1:0:0:0:
117,102,52155,5,2,0:0:0:0:
119,122,52326,1,2,0:0:0:0:
123,142,52498,1,2,0:0:0:0:
126,162,52669,6,0,L|147:27,1,110.499994941712,6|0,1:0|0:0,0:0:0:0:
289,42,53012,1,10,0:0:0:0:
251,230,53184,2,0,L|229:95,1,110.499994941712,2|0,1:0|0:0,0:0:0:0:
58,239,53526,2,0,P|110:268|183:252,1,110.499994941712,2|8,1:0|0:0,0:0:0:0:
315,161,53869,1,2,0:0:0:0:
227,308,54041,5,2,1:0:0:0:
233,120,54212,1,2,1:0:0:0:
310,259,54384,1,10,0:0:0:0:
425,155,54555,2,0,L|314:161,1,110.499994941712,2|0,1:0|0:0,0:0:0:0:
142,178,54898,1,0,1:0:0:0:
185,28,55069,2,0,P|227:73|228:137,1,110.499994941712,8|0,0:0|0:0,0:0:0:0:
178,285,55412,5,2,1:0:0:0:
142,178,55584,1,2,0:0:0:0:
309,239,55755,1,10,0:0:0:0:
275,130,55926,1,2,1:0:0:0:
162,294,56098,1,2,3:0:0:0:
383,285,56269,1,2,1:0:0:0:
221,210,56441,1,10,0:0:0:0:
261,378,56612,1,2,0:0:0:0:
352,160,56784,5,2,1:0:0:0:
406,370,56955,1,2,1:0:0:0:
277,276,57126,1,10,0:0:0:0:
444,186,57298,2,0,P|442:121|382:72,1,110.499994941712,2|0,1:0|0:0,0:0:0:0:
172,77,57641,2,0,L|61:86,2,110.499994941712,2|10|2,1:0|0:0|0:0,0:0:0:0:
352,160,58155,6,0,L|208:147,1,118.999996368408,6|0,1:0|0:0,0:0:0:0:
123,201,58498,1,10,0:0:0:0:
278,355,58669,2,0,L|288:236,1,118.999996368408,2|0,1:0|0:0,0:0:0:0:
447,124,59012,2,0,L|457:242,1,118.999996368408,2|8,1:0|0:0,0:0:0:0:
378,315,59355,1,2,0:0:0:0:
243,150,59526,5,2,1:0:0:0:
378,207,59698,1,2,1:0:0:0:
156,210,59869,1,10,0:0:0:0:
257,31,60041,2,0,L|243:150,1,118.999996368408,2|0,1:0|0:0,0:0:0:0:
206,329,60384,1,0,1:0:0:0:
294,247,60555,1,8,0:0:0:0:
196,345,60726,1,0,0:0:0:0:
204,134,60898,5,2,1:0:0:0:
294,337,61069,1,2,0:0:0:0:
156,210,61241,1,10,0:0:0:0:
380,212,61412,1,2,1:0:0:0:
136,222,61584,1,2,3:0:0:0:
261,49,61755,1,2,1:0:0:0:
280,250,61926,1,10,0:0:0:0:
393,84,62098,1,2,0:0:0:0:
131,123,62269,5,6,1:0:0:0:
461,222,62441,1,4,1:0:0:0:
461,222,63298,6,0,L|448:303,1,63.75,12|0,0:0|0:0,0:0:0:0:
438,335,63641,6,0,L|413:184,1,136,6|2,1:0|0:0,0:0:0:0:
182,59,63984,5,10,0:0:0:0:
69,315,64155,1,2,1:0:0:0:
103,32,64326,5,8,0:0:0:0:
148,341,64498,1,2,1:0:0:0:
264,53,64669,1,10,0:0:0:0:
8,238,64841,1,0,1:0:0:0:
299,129,65012,5,10,0:0:0:0:
0,138,65184,1,2,1:0:0:0:
264,53,65355,5,10,0:0:0:0:
128,258,65526,1,2,1:0:0:0:
183,35,65698,5,8,0:0:0:0:
317,240,65869,1,0,1:0:0:0:
69,206,66041,5,8,0:0:0:0:
208,146,66212,1,0,0:0:0:0:
54,71,66384,6,0,L|70:210,1,136,10|2,0:0|1:0,0:0:0:0:
134,316,66726,1,10,0:0:0:0:
208,146,66898,1,2,1:0:0:0:
31,306,67069,5,10,0:0:0:0:
280,244,67241,1,2,1:0:0:0:
4,306,67412,5,10,0:0:0:0:
295,367,67584,1,2,1:0:0:0:
171,71,67755,5,10,0:0:0:0:
129,297,67926,1,2,1:0:0:0:
68,54,68098,5,10,0:0:0:0:
241,250,68269,1,2,1:0:0:0:
255,13,68441,5,8,0:0:0:0:
106,162,68612,2,0,B|129:300,2,136,2|10|2,1:0|0:0|1:0,0:0:0:0:
353,47,69126,6,0,L|337:186,1,136,6|0,1:0|0:0,0:0:0:0:
308,357,69469,1,10,0:0:0:0:
229,167,69641,1,2,1:0:0:0:
440,264,69812,5,8,0:0:0:0:
210,173,69984,1,2,1:0:0:0:
472,136,70155,5,10,0:0:0:0:
315,268,70326,1,0,1:0:0:0:
271,37,70498,5,10,0:0:0:0:
392,174,70669,1,2,1:0:0:0:
112,188,70841,5,10,0:0:0:0:
328,108,71012,1,2,1:0:0:0:
260,352,71184,5,8,0:0:0:0:
201,131,71355,1,0,1:0:0:0:
315,268,71526,5,8,0:0:0:0:
236,16,71698,1,0,0:0:0:0:
123,323,71869,6,0,L|110:165,1,136,10|2,0:0|1:0,0:0:0:0:
236,16,72212,1,10,0:0:0:0:
222,243,72384,1,2,1:0:0:0:
96,54,72555,5,10,0:0:0:0:
328,108,72726,1,2,1:0:0:0:
23,141,72898,5,10,0:0:0:0:
236,16,73069,1,2,1:0:0:0:
96,269,73241,5,10,0:0:0:0:
96,54,73412,1,0,1:0:0:0:
204,321,73584,5,10,0:0:0:0:
105,146,73755,1,2,1:0:0:0:
295,291,73926,6,0,L|369:284,1,68,8|8,0:0|0:0,0:0:0:0:
434,203,74098,2,0,L|360:196,1,68,8|0,3:0|0:0,0:0:0:0:
251,125,74269,1,8,0:0:0:0:
434,51,74441,1,8,0:0:0:0:
434,51,74526,1,8,0:0:0:0:
434,51,74612,6,0,L|292:34,1,118.999996368408,6|0,1:0|0:0,0:0:0:0:
48,65,74955,1,10,0:0:0:0:
108,224,75126,2,0,L|239:203,1,118.999996368408,2|0,1:0|0:0,0:0:0:0:
330,277,75469,1,2,1:0:0:0:
201,14,75640,2,0,L|182:133,1,118.999996368408,10|0,0:0|0:0,0:0:0:0:
142,349,75983,5,2,1:0:0:0:
99,139,76155,1,0,1:0:0:0:
9,285,76326,1,10,0:0:0:0:
215,230,76498,1,2,1:0:0:0:
91,43,76669,1,2,3:2:0:0:
109,262,76840,1,0,1:0:0:0:
230,130,77012,1,10,0:0:0:0:
2,141,77183,1,2,0:0:0:0:
205,348,77355,6,0,L|214:221,1,118.999996368408,6|0,1:0|0:0,0:0:0:0:
220,23,77698,1,10,0:0:0:0:
334,174,77869,2,0,P|277:166|230:130,1,118.999996368408,2|0,1:0|0:0,0:0:0:0:
110,25,78212,1,2,1:0:0:0:
46,214,78383,2,0,P|103:206|150:170,1,118.999996368408,10|0,0:0|0:0,0:0:0:0:
303,44,78726,5,2,1:0:0:0:
110,25,78898,1,2,1:0:0:0:
251,220,79069,1,10,0:0:0:0:
207,44,79240,1,2,1:0:0:0:
169,298,79412,1,2,3:2:0:0:
273,127,79583,1,2,1:0:0:0:
290,346,79755,1,10,0:0:0:0:
176,175,79926,1,2,0:0:0:0:
469,290,80098,6,0,P|388:251|320:285,1,118.999996368408,14|0,0:0|0:0,0:0:0:0:
169,298,80441,1,10,0:0:0:0:
385,347,80612,1,2,1:0:0:0:
276,102,80784,6,0,L|286:232,1,118.999996368408,8|2,0:0|1:0,0:0:0:0:
441,51,81126,2,0,L|430:181,1,118.999996368408,10|0,0:0|1:0,0:0:0:0:
398,361,81469,5,10,0:0:0:0:
169,298,81641,1,2,1:0:0:0:
412,258,81812,5,10,0:0:0:0:
153,309,81984,1,2,1:0:0:0:
430,169,82155,5,10,0:0:0:0:
301,316,82326,1,0,1:0:0:0:
269,95,82498,5,10,0:0:0:0:
298,335,82669,1,2,1:0:0:0:
158,57,82841,6,0,L|167:194,1,118.999996368408,10|0,0:0|1:0,0:0:0:0:
189,376,83184,1,10,0:0:0:0:
48,164,83355,1,2,1:0:0:0:
392,184,83526,2,0,L|255:175,1,118.999996368408,8|8,0:0|0:0,0:0:0:0:
48,164,83869,5,8,0:0:0:0:
364,96,84041,1,8,0:0:0:0:
189,376,84212,5,8,0:0:0:0:
82,66,84384,2,0,L|64:3,2,59.4999981842042,8|8|8,0:0|0:0|0:0,0:0:0:0:
145,276,84726,1,8,0:0:0:0:
364,96,84898,5,8,3:0:0:0:
48,164,85069,1,8,3:0:0:0:
293,362,85241,5,4,3:0:0:0:
245,32,85412,1,4,3:0:0:0:
45,288,85584,5,6,1:0:0:0:
422,208,85755,1,6,1:0:0:0:
256,192,85841,12,0,90041,0:0:0:0:
